osu file format v14

[General]
AudioFilename: Asian Kung-fu Generation - Blood Circulator.mp3
AudioLeadIn: 0
PreviewTime: 32065
Countdown: 0
SampleSet: Normal
StackLeniency: 0.3
Mode: 0
LetterboxInBreaks: 0
WidescreenStoryboard: 0

[Editor]
DistanceSpacing: 1.1
BeatDivisor: 2
GridSize: 4
TimelineZoom: 1.8

[Metadata]
Title:Blood Circulator
TitleUnicode:ブラッドサーキュレーター
Artist:ASIAN KUNG-FU GENERATION
ArtistUnicode:ASIAN KUNG-FU GENERATION
Creator:Lefia
Version:Easy
Source:NARUTO -ナルト- 疾風伝
Tags:Nyu - Naruto Shippuuden opening 19 tv tokyo Akg vs sasuke
BeatmapID:1095688
BeatmapSetID:516022

[Difficulty]
HPDrainRate:3
CircleSize:2.5
OverallDifficulty:2
ApproachRate:4
SliderMultiplier:0.8
SliderTickRate:1

[Events]
//Background and Video events
0,0,"BG.jpg",0,0
Video,0,"Video.avi"
//Break Periods
//Storyboard Layer 0 (Background)
//Storyboard Layer 1 (Fail)
//Storyboard Layer 2 (Pass)
//Storyboard Layer 3 (Foreground)
//Storyboard Sound Samples

[TimingPoints]
666,327.868852459016,4,2,1,40,1,0
666,-100,4,2,1,40,0,0
3616,-100,4,1,1,45,0,0
3944,-100,4,1,1,45,0,0
4272,-100,4,1,1,55,0,0
4600,-100,4,1,1,60,0,0
4928,-100,4,1,1,65,0,0
5584,-100,4,1,1,75,0,0
5911,-100,4,1,1,75,0,0
11157,-100,4,2,1,55,0,0
21656,327.868852459016,4,1,1,65,1,0
32147,-100,4,1,1,60,0,1
42639,-100,4,1,1,60,0,0
47893,327.868852459016,4,2,1,60,1,0
47893,-100,4,2,1,60,0,0
58056,-100,4,2,1,5,0,0
58419,327.868852459016,4,1,1,75,1,1
68828,-100,4,1,1,75,0,0
68910,-100,4,1,1,75,0,1
79402,-100,4,1,1,75,0,0
88419,-100,4,2,1,75,0,0
89567,-100,4,2,1,5,0,0

[Colours]
Combo1 : 179,179,255
Combo2 : 255,128,64
Combo3 : 128,128,255
Combo4 : 255,174,136

[HitObjects]
20,88,666,6,0,P|72:68|140:96,1,120,2|0,0:0|0:0,0:0:0:0:
152,172,1485,1,0,0:0:0:0:
84,224,1813,2,0,B|72:284|72:284|92:352,1,120,2|0,0:0|0:0,0:0:0:0:
176,332,2633,2,0,L|276:320,1,80,0|2,0:0|0:0,0:0:0:0:
328,376,3288,6,0,P|347:320|327:265,1,120,2|0,0:0|1:0,0:0:0:0:
244,232,4108,1,0,1:0:0:0:
172,280,4436,2,0,P|132:300|52:272,1,120,0|0,1:0|1:0,0:0:0:0:
116,212,5256,2,0,L|116:120,1,80,0|12,1:0|1:0,0:0:0:0:
52,72,5911,6,0,P|92:44|176:64,1,120,8|8,0:0|0:0,0:0:0:0:
212,124,6731,1,0,0:0:0:0:
292,88,7059,2,0,L|308:224,1,120,8|8,0:0|0:0,0:0:0:0:
392,196,7879,2,0,L|388:288,1,80,0|8,0:0|0:0,0:0:0:0:
416,360,8534,6,0,P|356:364|308:320,1,120,8|8,0:0|0:0,0:0:0:0:
248,264,9354,1,0,0:0:0:0:
300,192,9682,2,0,P|312:128|268:60,1,120,8|8,0:0|0:0,0:0:0:0:
224,20,10502,2,0,L|124:36,1,80,0|8,0:0|0:0,0:0:0:0:
168,116,11157,6,0,L|68:132,1,80,4|8,0:0|0:0,0:0:0:0:
0,136,11813,2,0,L|28:224,1,80,0|8,0:0|0:0,0:0:0:0:
36,300,12469,2,0,L|136:284,1,80,0|8,0:0|0:0,0:0:0:0:
204,280,13125,2,0,L|176:192,1,80,0|8,0:0|0:0,0:0:0:0:
168,116,13780,6,0,B|208:104|208:104|260:112,1,80,0|8,0:0|0:0,0:0:0:0:
316,164,14436,2,0,B|353:159|353:159|389:136,1,80,0|8,0:0|0:0,0:0:0:0:
412,52,15092,2,0,B|452:60|488:96|488:156|456:200,1,160
396,228,16075,1,8,0:0:0:0:
324,176,16403,6,0,P|308:224|316:264,1,80,0|8,0:0|0:0,0:0:0:0:
300,340,17059,2,0,L|216:328,1,80,0|8,0:0|0:0,0:0:0:0:
132,320,17715,2,0,L|128:228,1,80,0|8,0:0|0:0,0:0:0:0:
44,260,18370,2,0,L|48:168,1,80,0|8,0:0|0:0,0:0:0:0:
12,100,19026,6,0,P|56:92|104:116,1,80,0|8,0:0|0:0,0:0:0:0:
156,160,19682,2,0,P|193:171|232:163,1,80,0|8,0:0|0:0,0:0:0:0:
308,116,20338,2,0,P|412:88|432:204,1,240,0|8,0:0|0:0,0:0:0:0:
364,240,21656,1,4,0:0:0:0:
420,308,21983,6,0,P|344:328|276:256,1,160,8|8,0:0|0:0,0:0:0:0:
272,192,22967,2,0,B|196:160|196:225|116:181,1,160
80,104,23951,1,8,0:0:0:0:
168,104,24278,6,0,P|248:92|336:124,1,160
360,196,25261,1,8,0:0:0:0:
272,192,25590,2,0,L|224:264,1,80,0|8,0:0|0:0,0:0:0:0:
152,212,26246,2,0,L|131:296,2,80,0|8|4,0:0|0:0|0:0,3:0:0:0:
200,140,27229,6,0,B|240:128|240:128|380:160,1,160,8|8,0:0|0:0,0:0:0:0:
396,232,28213,2,0,B|356:244|356:244|216:212,1,160
200,140,29195,1,8,0:0:0:0:
131,196,29524,6,0,P|124:92|248:64,1,240,0|8,0:0|0:0,0:0:0:0:
200,140,30835,2,0,P|212:240|80:268,1,240,0|8,0:0|0:0,0:0:0:0:
132,196,32147,6,0,L|88:100,1,80,4|8,0:0|0:0,0:0:0:0:
52,48,32803,2,0,P|92:32|152:56,1,80,0|8,0:0|0:0,0:0:0:0:
196,92,33459,2,0,P|216:56|204:0,2,80,0|8|0,0:0|0:0|0:0,0:0:0:0:
188,180,34442,1,8,0:0:0:0:
276,184,34770,6,0,L|264:280,1,80,4|8,0:0|0:0,0:0:0:0:
312,340,35426,2,0,B|352:352|352:352|408:340,1,80,0|8,0:0|0:0,0:0:0:0:
436,272,36082,2,0,L|457:177,1,80,0|8,0:0|0:0,0:0:0:0:
368,180,36737,2,0,L|356:84,1,80,0|8,0:0|0:0,0:0:0:0:
276,132,37393,6,0,L|231:45,1,80,4|8,0:0|0:0,0:0:0:0:
152,52,38049,2,0,P|112:44|64:64,1,80,0|8,0:0|0:0,0:0:0:0:
112,136,38704,2,0,P|72:144|16:120,2,80,0|8|0,0:0|0:0|0:0,0:0:0:0:
200,136,39687,1,8,0:0:0:0:
252,208,40016,6,0,L|294:290,1,80,4|8,0:0|0:0,0:0:0:0:
356,220,40672,2,0,L|424:282,1,80,0|8,0:0|0:0,0:0:0:0:
476,208,41327,2,0,L|417:153,1,80,0|8,0:0|0:0,0:0:0:0:
480,92,41983,2,0,L|408:55,1,80,8|8,0:0|0:0,0:0:0:0:
337,1,42640,6,0,P|320:40|344:116,1,120,8|8,0:0|0:0,0:0:0:0:
417,153,43460,1,0,0:0:0:0:
340,200,43788,2,0,B|300:200|300:200|260:212|260:212|221:212,1,120,8|8,0:0|0:0,0:0:0:0:
180,136,44606,2,0,L|80:144,1,80,0|8,0:0|0:0,0:0:0:0:
20,180,45263,6,0,P|16:120|56:68,1,120,8|8,0:0|0:0,0:0:0:0:
136,60,46083,1,0,0:0:0:0:
180,136,46410,2,0,L|324:148,1,120,8|0,0:0|0:0,0:0:0:0:
276,232,47229,6,0,L|384:232,1,80,0|8,0:0|0:0,0:0:0:0:
408,304,47893,6,0,P|442:234|410:164,1,160,4|8,0:0|0:0,0:0:0:0:
236,156,49204,2,0,B|125:148|125:148|64:172,1,160,0|8,0:0|0:0,0:0:0:0:
144,332,50516,6,0,B|254:339|254:339|300:321,1,160,0|8,0:0|0:0,0:0:0:0:
240,156,51827,2,0,L|420:144,1,160,0|8,0:0|0:0,0:0:0:0:
460,312,53139,6,0,L|280:324,1,160,0|8,0:0|0:0,0:0:0:0:
124,336,54450,2,0,P|96:264|144:164,1,160,0|8,0:0|0:0,0:0:0:0:
288,132,55761,6,0,L|304:228,1,80,8|8,0:0|0:0,0:0:0:0:
380,172,56417,2,0,L|420:260,1,80,8|8,0:0|0:0,0:0:0:0:
468,316,57073,2,0,B|424:340|392:340|356:320|336:292|336:292|312:304|272:304|240:276,1,240,8|0,0:0|0:0,0:0:0:0:
200,200,58420,6,0,L|88:212,1,80,4|8,0:0|0:0,0:0:0:0:
148,292,59075,2,0,L|68:300,1,80,0|8,0:0|0:0,0:0:0:0:
32,380,59731,2,0,L|36:188,1,160
76,144,60715,1,8,0:0:0:0:
132,212,61042,6,0,L|240:216,1,80,4|8,0:0|0:0,0:0:0:0:
184,300,61698,2,0,L|292:304,1,80,0|8,0:0|0:0,0:0:0:0:
336,356,62354,2,0,P|352:288|280:216,1,160
212,216,63338,1,8,0:0:0:0:
140,264,63665,6,0,P|124:224|136:176,1,80,4|8,0:0|0:0,0:0:0:0:
196,132,64321,2,0,P|201:92|185:56,1,80,0|8,0:0|0:0,0:0:0:0:
112,104,64977,2,0,B|60:116|20:180|44:248,1,160
88,304,65960,1,8,0:0:0:0:
152,244,66288,6,0,L|248:240,1,80,4|8,0:0|0:0,0:0:0:0:
208,328,66944,2,0,L|304:332,1,80,0|8,0:0|0:0,0:0:0:0:
324,252,67600,2,0,B|324:211|324:211|344:151|344:151|344:95,1,160,0|8,0:0|0:0,0:0:0:0:
296,20,68583,1,8,0:0:0:0:
256,96,68911,6,0,L|160:108,1,80,4|8,0:0|0:0,0:0:0:0:
212,188,69567,2,0,L|116:200,1,80,0|8,0:0|0:0,0:0:0:0:
72,264,70223,2,0,P|44:212|64:140,2,120,0|0|8,0:0|0:0|0:0,0:0:0:0:
152,296,71534,6,0,B|192:304|192:304|252:276,1,80,4|8,0:0|0:0,0:0:0:0:
268,208,72190,2,0,B|303:191|303:191|343:199,1,80,0|8,0:0|0:0,0:0:0:0:
404,264,72846,2,0,P|432:208|404:132,2,120,0|0|8,0:0|0:0|0:0,0:0:0:0:
344,200,74157,6,0,L|260:176,1,80,4|8,0:0|0:0,0:0:0:0:
316,104,74813,2,0,L|232:80,1,80,0|8,0:0|0:0,0:0:0:0:
184,152,75469,2,0,P|152:100|176:20,2,120,0|0|8,0:0|0:0|0:0,0:0:0:0:
267,178,76780,6,0,L|276:264,1,80,4|8,0:0|0:0,0:0:0:0:
360,240,77436,2,0,L|351:326,1,80,0|8,0:0|0:0,0:0:0:0:
268,344,78092,2,0,B|208:352|208:352|153:339|153:339|92:348,1,160,0|8,0:0|0:0,0:0:0:0:
32,304,79075,1,8,0:0:0:0:
108,256,79403,6,0,B|112:160|112:160|140:116,1,120,8|8,0:0|0:0,0:0:0:0:
196,88,80222,1,0,0:0:0:0:
216,176,80550,2,0,B|244:196|244:196|332:176,1,120,8|8,0:0|0:0,0:0:0:0:
328,88,81370,2,0,L|404:56,1,80,0|8,0:0|0:0,0:0:0:0:
472,4,82025,6,0,P|492:59|473:115,1,120,8|8,0:0|0:0,0:0:0:0:
392,152,82845,1,0,0:0:0:0:
328,88,83173,2,0,L|188:88,1,120,8|8,0:0|0:0,0:0:0:0:
212,176,83993,2,0,L|112:176,1,80,0|8,0:0|0:0,0:0:0:0:
52,140,84648,6,0,P|45:198|76:248,1,120,8|8,0:0|0:0,0:0:0:0:
148,300,85468,1,0,0:0:0:0:
204,232,85796,2,0,L|340:248,1,120,8|8,0:0|0:0,0:0:0:0:
308,332,86616,2,0,L|400:328,1,80,0|8,0:0|0:0,0:0:0:0:
476,332,87271,6,0,P|464:284|408:240,1,120,8|8,0:0|0:0,0:0:0:0:
324,244,88091,1,8,0:0:0:0:
308,332,88419,2,0,L|188:317,1,120,8|0,1:0|0:0,0:0:0:0:
176,228,89239,2,0,L|76:244,1,80
