osu file format v14

[General]
AudioFilename: audio.mp3
AudioLeadIn: 0
PreviewTime:48268
Countdown: 0
SampleSet: Soft
StackLeniency: 0.4
Mode: 0
LetterboxInBreaks: 0
WidescreenStoryboard: 1

[Editor]
DistanceSpacing: 1.3
BeatDivisor: 4
GridSize: 16
TimelineZoom: 1.8

[Metadata]
Title:After Dark (TV Size)
TitleUnicode:アフターダーク (TV Size)
Artist:ASIAN KUNG-FU GENERATION
ArtistUnicode:ASIAN KUNG-FU GENERATION
Creator:Nelliel
Version:Yuuya's Hard
Source:BLEACH
Tags:ブリーチ op 7 opening j-pop japanese agatsu haruto yuuya_ke my_angel_ram haruto_aizawa -mikan World ワールド pop jpop yuuya ke bazz b bazz_b my angel ram aizawa
BeatmapID:2370655
BeatmapSetID:1129438

[Difficulty]
HPDrainRate:4
CircleSize:3.2
OverallDifficulty:6.5
ApproachRate:8
SliderMultiplier:1.3
SliderTickRate:1

[Events]
//Background and Video events
0,0,"cropped-1920-1080-219388.jpg",0,0
Video,0,"Video-1.mp4"
//Break Periods
//Storyboard Layer 0 (Background)
//Storyboard Layer 1 (Fail)
//Storyboard Layer 2 (Pass)
//Storyboard Layer 3 (Foreground)
//Storyboard Layer 4 (Overlay)
//Storyboard Sound Samples

[TimingPoints]
520,314.13612565445,4,2,22,50,1,0
520,-100,4,2,22,50,0,0
3033,-100,4,2,22,60,0,0
8059,-100,4,2,22,70,0,0
12771,-100,4,2,22,70,0,0
13085,-90.9090909090909,4,2,22,80,0,0
17797,-90.9090909090909,4,2,22,80,0,0
18111,-90.9090909090909,4,2,22,70,0,0
23137,-90.9090909090909,4,2,22,80,0,0
28163,-90.9090909090909,4,2,22,70,0,0
33190,-90.9090909090909,4,2,22,80,0,0
38216,-90.9090909090909,4,2,22,70,0,0
45755,-90.9090909090909,4,2,22,70,0,0
48268,-86.9565217391304,4,2,22,90,0,1
78425,-90.9090909090909,4,2,22,70,0,0

[Colours]
Combo1 : 223,0,0
Combo2 : 255,128,64
Combo3 : 255,255,170

[HitObjects]
59,74,520,5,4,1:2:0:0:
148,232,834,1,8,0:2:0:0:
267,94,1148,1,0,1:2:0:0:
267,94,1305,1,0,1:2:0:0:
97,161,1619,5,8,0:2:0:0:
223,292,1933,1,0,1:2:0:0:
296,238,2090,2,0,B|303:202|303:202|294:165,1,65,8|0,0:2|3:2,0:2:0:0:
267,94,2404,5,0,1:2:0:0:
267,94,2561,1,0,1:2:0:0:
318,19,2718,2,0,P|358:24|393:27,1,65,8|0,0:2|1:2,0:0:0:0:
458,86,3033,5,6,1:2:0:0:
458,86,3190,2,0,P|463:124|470:168,1,65,2|8,0:2|0:2,0:0:0:0:
427,331,3661,1,2,1:2:0:0:
427,331,3818,2,0,P|424:298|417:266,1,65,2|0,1:2|0:2,0:2:0:0:
345,211,4132,1,8,0:2:0:0:
273,265,4289,5,2,3:2:0:0:
273,265,4446,2,0,P|239:269|199:274,1,65,2|8,1:2|0:2,0:0:0:0:
54,366,4917,1,2,1:2:0:0:
54,366,5074,2,0,P|94:369|129:383,1,65,2|8,1:2|0:2,0:0:0:0:
165,299,5389,1,0,1:2:0:0:
88,249,5546,5,6,1:2:0:0:
88,249,5703,2,0,P|77:214|84:177,1,65,2|8,0:0|0:2,0:0:0:0:
166,26,6174,1,2,1:2:0:0:
166,26,6331,2,0,P|171:59|177:98,1,65,2|0,1:2|0:2,0:2:0:0:
257,129,6645,1,8,0:2:0:0:
320,63,6802,5,2,3:2:0:0:
320,63,6959,2,0,P|351:69|399:68,1,65,2|8,1:2|0:2,0:0:0:0:
494,214,7430,1,2,1:2:0:0:
490,209,7509,1,8,0:2:0:0:
486,204,7588,2,0,L|493:158,2,32.5,2|0|12,1:2|1:2|0:2,0:0:0:0:
371,345,8059,6,0,B|334:361|334:361|286:335|307:275,1,130,6|10,1:2|0:2,0:2:0:0:
363,215,8530,1,0,0:2:0:0:
298,150,8687,2,0,P|267:155|230:162,2,65,2|2|0,1:2|1:2|0:2,0:0:0:0:
350,77,9158,5,8,0:2:0:0:
350,77,9315,2,0,P|383:88|420:83,2,65,2|2|8,3:2|1:2|0:2,0:0:0:0:
280,16,9787,1,0,0:2:0:0:
197,54,9944,2,0,L|131:49,1,65,2|2,1:2|1:2,0:0:0:0:
52,4,10258,1,8,0:2:0:0:
1,178,10572,6,0,P|63:168|109:211,1,130,6|10,1:2|0:2,0:2:0:0:
53,283,11043,1,0,3:2:0:0:
91,365,11200,2,0,P|60:361|19:360,2,65,2|2|0,0:2|0:2|0:2,0:0:0:0:
155,300,11671,5,8,0:2:0:0:
155,300,11828,2,0,P|159:264|166:220,2,65,2|2|8,1:2|1:2|0:2,0:0:0:0:
231,350,12300,1,0,3:2:0:0:
297,288,12457,5,0,3:2:0:0:
304,292,12535,1,8,0:2:0:0:
311,295,12614,2,0,L|347:299,2,32.5,0|0|14,1:2|1:2|0:2,0:0:0:0:
136,197,13085,6,0,P|145:130|157:50,1,143.000004364014,6|8,1:2|0:2,0:2:0:0:
235,6,13556,1,2,3:2:0:0:
308,63,13713,2,0,P|343:57|383:61,1,71.5000021820069,2|0,1:2|1:2,0:0:0:0:
458,12,14027,1,8,0:2:0:0:
462,104,14184,6,0,B|383:94|401:142|320:141,1,143.000004364014,6|0,1:2|1:2,0:2:0:0:
242,102,14656,2,0,B|233:137|233:137|246:184,1,71.5000021820069,8|0,0:2|0:0,0:2:0:0:
317,234,14970,1,0,1:2:0:0:
317,234,15127,1,0,1:2:0:0:
278,318,15284,1,10,0:2:0:0:
98,270,15598,6,0,P|77:203|77:124,1,143.000004364014,6|8,1:2|0:2,0:2:0:0:
24,53,16069,1,2,0:2:0:0:
101,1,16226,2,0,P|137:16|182:12,1,71.5000021820069,2|0,1:2|1:2,0:0:0:0:
260,32,16540,1,8,0:2:0:0:
216,114,16698,6,0,B|198:146|198:146|257:128|310:141,1,143.000004364014,6|0,1:2|1:2,0:2:0:0:
383,93,17169,1,8,0:2:0:0:
491,243,17483,2,0,P|482:273|473:322,1,71.5000021820069,0|0,1:2|1:2,0:0:0:0:
403,372,17797,2,0,B|342:353|342:353|333:375|299:389,1,107.25000327301,10|0,0:2|0:0,0:0:0:0:
268,364,18111,6,0,P|190:372|104:382,1,143.000004364014,6|10,1:2|0:2,0:2:0:0:
45,331,18582,1,0,0:2:0:0:
117,273,18739,2,0,P|124:217|115:191,1,71.5000021820069,0|0,1:2|3:2,0:0:0:0:
43,160,19054,5,0,1:2:0:0:
43,160,19211,2,0,P|109:163|162:105,1,143.000004364014,8|0,0:2|1:2,0:0:0:0:
98,41,19682,1,10,0:2:0:0:
183,3,19839,2,0,P|267:12|339:18,1,143.000004364014,2|0,3:2|1:2,0:0:0:0:
376,94,20310,1,10,0:2:0:0:
327,273,20624,6,0,B|293:279|267:256|267:256|269:251|269:251|238:223|192:233,1,143.000004364014,6|10,1:2|0:2,0:2:0:0:
116,268,21095,1,0,0:2:0:0:
32,227,21252,2,0,P|18:187|21:145,1,71.5000021820069,2|0,1:2|3:2,0:0:0:0:
49,70,21567,5,2,0:2:0:0:
49,70,21724,2,0,B|123:79|123:79|177:32,1,143.000004364014,8|0,0:2|1:2,0:0:0:0:
245,94,22195,1,10,0:2:0:0:
323,43,22352,2,0,B|366:39|394:63|394:63|425:45|467:58,1,143.000004364014,2|0,0:2|1:2,0:2:0:0:
506,141,22823,1,10,0:2:0:0:
506,141,22980,1,2,0:2:0:0:
442,208,23137,6,0,P|379:226|309:189,1,143.000004364014,6|8,1:2|0:2,0:2:0:0:
257,118,23608,1,2,0:2:0:0:
186,178,23765,2,0,P|192:218|198:262,1,71.5000021820069,2|0,1:2|1:2,0:2:0:0:
138,321,24079,1,8,0:2:0:0:
199,384,24236,6,0,B|233:355|233:355|278:381|328:358,1,143.000004364014,2|0,3:2|1:2,0:2:0:0:
395,295,24708,2,0,P|359:273|329:269,1,71.5000021820069,10|0,0:2|0:2,0:2:0:0:
276,200,25022,1,2,1:2:0:0:
276,200,25179,1,0,1:2:0:0:
337,130,25336,1,10,0:2:0:0:
199,4,25650,6,0,B|138:14|138:14|130:28|130:28|58:42,1,143.000004364014,6|8,1:2|0:2,0:2:0:0:
12,116,26121,1,2,3:2:0:0:
91,164,26278,2,0,P|83:200|75:245,1,71.5000021820069,2|0,1:2|1:2,0:2:0:0:
11,300,26592,1,8,0:2:0:0:
75,367,26750,6,0,L|233:352,1,143.000004364014,2|0,0:2|0:2,0:2:0:0:
309,345,27221,1,10,0:2:0:0:
171,220,27535,2,0,P|178:179|183:148,1,71.5000021820069,0|0,1:2|1:2,0:0:0:0:
183,56,27849,2,0,P|223:75|265:74,1,71.5000021820069,8|0,0:2|0:0,0:0:0:0:
322,19,28163,6,0,P|366:81|430:83,1,143.000004364014,6|10,1:2|0:2,0:2:0:0:
498,143,28634,1,0,0:2:0:0:
421,195,28791,2,0,P|417:231|410:273,1,71.5000021820069,2|0,1:2|3:2,0:0:0:0:
461,350,29106,5,2,0:2:0:0:
461,350,29263,2,0,B|440:318|398:317|398:317|374:352|317:350,1,143.000004364014,8|0,0:2|1:2,0:0:0:0:
249,367,29734,1,8,0:2:0:0:
175,310,29891,2,0,P|168:235|184:150,1,143.000004364014,2|0,0:2|1:2,0:0:0:0:
203,79,30362,1,10,0:2:0:0:
29,13,30676,6,0,B|104:-1|98:54|178:40,1,143.000004364014,2|10,1:2|0:2,0:2:0:0:
248,0,31147,1,0,0:2:0:0:
333,35,31304,2,0,P|336:72|341:116,1,71.5000021820069,2|0,1:2|3:2,0:0:0:0:
280,178,31619,5,2,0:2:0:0:
280,178,31776,2,0,P|343:146|436:175,1,143.000004364014,8|0,0:2|1:2,0:0:0:0:
479,221,32247,1,10,0:2:0:0:
458,311,32404,2,0,B|401:300|401:300|379:315|379:315|307:300,1,143.000004364014,2|0,0:2|1:2,0:2:0:0:
239,346,32875,2,0,P|225:316|230:276,1,71.5000021820069,10|2,0:2|3:2,0:0:0:0:
149,229,33190,6,0,P|142:153|134:73,1,143.000004364014,6|8,1:2|0:2,0:2:0:0:
63,27,33661,1,0,0:2:0:0:
8,102,33818,2,0,P|6:140|20:195,1,71.5000021820069,0|0,1:2|3:2,0:0:0:0:
61,251,34132,1,8,0:2:0:0:
1,321,34289,6,0,P|74:299|163:274,1,143.000004364014,0|0,3:1|1:2,0:2:0:0:
223,242,34761,2,0,P|235:280|226:315,1,71.5000021820069,8|0,0:2|0:2,0:2:0:0:
299,378,35075,1,2,1:2:0:0:
299,378,35232,1,0,1:2:0:0:
379,332,35389,1,8,0:2:0:0:
472,171,35703,6,0,B|488:103|488:103|464:31,1,143.000004364014,4|8,1:2|0:2,0:2:0:0:
375,8,36174,1,0,0:2:0:0:
299,62,36331,2,0,L|215:46,1,71.5000021820069,0|0,1:2|1:2,0:2:0:0:
142,13,36645,1,8,0:2:0:0:
107,99,36803,6,0,P|120:170|133:259,1,143.000004364014,0|0,3:2|1:2,0:2:0:0:
162,327,37274,1,8,0:2:0:0:
330,247,37588,2,0,P|291:244|257:219,1,71.5000021820069,0|0,1:2|1:2,0:0:0:0:
212,149,37902,2,0,P|248:141|275:111,1,71.5000021820069,8|0,0:2|0:0,0:0:0:0:
329,45,38216,5,6,1:2:0:0:
329,45,38373,2,0,P|366:51|406:56,2,71.5000021820069,0|8|2,1:2|0:2|3:2,0:2:0:0:
290,129,38844,2,0,P|299:167|304:213,1,71.5000021820069,2|8,1:2|0:2,0:2:0:0:
394,218,39158,1,2,3:2:0:0:
335,289,39315,6,0,P|301:294|257:304,2,71.5000021820069,2|8|2,1:2|0:2|3:2,0:2:0:0:
371,374,39787,2,0,B|408:384|408:384|454:377,1,71.5000021820069,2|8,1:2|0:2,0:2:0:0:
511,318,40101,1,0,1:3:0:0:
511,318,40415,1,0,3:2:0:0:
419,156,40729,5,4,1:2:0:0:
419,156,40886,2,0,P|422:115|427:80,2,71.5000021820069,2|8|0,1:2|0:2|3:2,0:2:0:0:
358,226,41357,2,0,P|317:215|277:216,1,71.5000021820069,0|8,1:2|0:2,0:2:0:0:
213,159,41671,1,0,3:2:0:0:
143,220,41828,6,0,P|150:257|157:292,2,71.5000021820069,0|8|0,1:2|0:2|1:2,0:2:0:0:
62,172,42300,2,0,P|49:138|55:103,1,71.5000021820069,0|8,1:2|0:2,0:0:0:0:
120,36,42614,1,0,3:2:0:0:
120,36,42771,1,8,0:2:0:0:
206,68,42928,1,0,3:2:0:0:
77,202,43242,5,6,1:2:0:0:
77,202,43399,2,0,P|38:208|1:215,2,71.5000021820069,2|8|2,1:2|0:2|3:2,0:2:0:0:
161,163,43870,2,0,P|159:202|159:247,1,71.5000021820069,2|8,1:2|0:2,0:2:0:0:
93,300,44184,1,2,3:2:0:0:
155,368,44341,6,0,P|120:371|73:393,2,71.5000021820069,2|8|2,1:2|0:2|3:2,0:2:0:0:
221,302,44813,2,0,P|257:314|301:318,1,71.5000021820069,2|8,1:2|0:2,0:2:0:0:
373,359,45127,1,2,3:2:0:0:
373,359,45441,1,10,0:2:0:0:
482,208,45755,6,0,P|485:133|471:46,1,143.000004364014,6|8,1:2|0:2,0:2:0:0:
300,5,46383,2,0,P|325:38|352:65,1,71.5000021820069,2|0,1:2|0:2,0:0:0:0:
337,152,46698,2,0,P|298:165|261:182,1,71.5000021820069,10|0,0:2|0:2,0:2:0:0:
187,136,47012,2,0,P|169:66|209:3,1,143.000004364014,2|12,1:2|0:2,0:0:0:0:
16,16,47640,5,0,1:2:0:0:
18,24,47718,1,0,1:2:0:0:
20,33,47797,1,8,1:2:0:0:
22,42,47876,1,0,1:2:0:0:
25,51,47954,2,0,P|46:57|63:64,3,35.7500010910034,0|0|8|0,1:2|1:2|0:2|1:2,0:0:0:0:
30,102,48268,6,0,P|41:145|47:189,1,74.7500014257431,6|0,1:2|0:0,0:2:0:0:
132,217,48582,2,0,P|124:260|119:310,1,74.7500014257431,10|0,0:2|0:2,0:2:0:0:
53,361,48896,2,0,B|94:331|94:331|129:373|192:366,1,149.500002851486,2|10,1:2|0:2,0:0:0:0:
260,309,49368,1,0,0:2:0:0:
336,248,49525,6,0,P|390:263|419:266,1,74.7500014257431,2|0,1:2|1:2,0:0:0:0:
492,315,49839,2,0,B|422:299|426:354|334:344,2,149.500002851486,10|2|10,0:2|1:2|0:2,0:2:0:0:
454,225,50624,1,0,0:2:0:0:
505,142,50781,6,0,P|510:100|496:56,1,74.7500014257431,2|0,1:2|1:2,0:2:0:0:
424,10,51095,2,0,B|374:29|374:29|262:15,1,149.500002851486,10|2,0:2|1:2,3:2:0:0:
182,2,51567,1,0,1:2:0:0:
221,90,51724,2,0,P|229:128|232:166,1,74.7500014257431,10|0,0:2|0:2,3:2:0:0:
162,232,52038,6,0,B|200:238|230:215|230:215|238:216|238:216|268:195|305:210,2,149.500002851486,2|10|2,1:2|0:2|1:2,0:0:0:0:
53,71,52980,2,0,P|104:108|154:98,1,112.125002138615,8|0,0:2|0:0,3:2:0:0:
178,61,53294,6,0,P|218:55|257:47,1,74.7500014257431,6|0,1:2|0:0,0:2:0:0:
319,118,53609,2,0,P|362:123|398:129,1,74.7500014257431,10|0,0:2|0:2,0:2:0:0:
477,79,53923,2,0,P|489:140|482:232,1,149.500002851486,2|10,1:2|0:2,0:0:0:0:
340,358,54551,5,2,1:2:0:0:
340,358,54708,1,0,1:2:0:0:
249,322,54865,2,0,P|173:335|88:349,2,149.500002851486,10|0|12,0:2|1:2|0:2,0:2:0:0:
323,259,55650,1,0,0:0:0:0:
243,203,55807,6,0,B|208:170|208:170|235:56,1,149.500002851486,14|0,0:2|1:2,0:0:0:0:
314,20,56279,2,0,P|257:38|176:-8,1,149.500002851486,10|0,0:2|1:2,0:0:0:0:
104,59,56750,2,0,P|89:102|92:142,1,74.7500014257431,10|0,0:2|1:2,0:0:0:0:
29,207,57064,5,12,0:2:0:0:
88,284,57221,2,0,P|124:276|162:267,1,74.7500014257431,2|10,1:2|0:2,0:0:0:0:
243,216,57535,1,10,0:2:0:0:
278,306,57692,2,0,P|323:317|369:329,1,74.7500014257431,0|0,3:2|1:2,0:0:0:0:
436,368,58006,1,8,0:2:0:0:
504,186,58321,6,0,B|457:215|457:215|393:198,1,112.125002138615,4|0,1:2|0:2,0:2:0:0:
380,157,58635,2,0,P|303:189|236:218,1,149.500002851486,10|2,0:2|1:2,0:2:0:0:
208,306,59106,1,0,1:2:0:0:
118,269,59263,2,0,B|101:235|101:235|110:193,1,74.7500014257431,10|0,0:2|0:2,0:2:0:0:
46,132,59577,5,2,1:2:0:0:
46,132,59734,1,0,1:2:0:0:
107,56,59891,2,0,B|126:37|126:37|82:-16|8:15,2,149.500002851486,10|2|10,0:2|1:2|0:2,0:2:0:0:
172,128,60677,1,0,0:2:0:0:
244,63,60834,6,0,P|278:66|329:52,1,74.7500014257431,6|0,1:2|0:2,0:2:0:0:
409,26,61148,2,0,P|394:94|382:158,1,112.125002138615,10|0,0:2|0:0,0:2:0:0:
393,184,61462,2,0,P|321:204|245:140,1,149.500002851486,2|10,1:2|0:2,0:0:0:0:
176,218,61933,1,0,0:2:0:0:
219,305,62090,6,0,P|261:294|302:301,1,74.7500014257431,2|0,1:2|1:2,0:0:0:0:
350,374,62404,2,0,B|382:354|394:319|394:319|432:339|472:330,1,149.500002851486,10|2,0:2|1:2,0:0:0:0:
500,238,62876,1,0,1:2:0:0:
424,176,63033,2,0,P|433:121|441:65,1,112.125002138615,8|0,0:2|0:0,0:2:0:0:
416,29,63347,5,6,1:2:0:0:
330,71,63504,1,0,1:0:0:0:
330,71,63661,2,0,P|289:69|245:79,1,74.7500014257431,10|0,0:2|0:2,0:2:0:0:
179,15,63975,2,0,P|133:59|44:34,1,149.500002851486,2|10,1:2|0:2,0:0:0:0:
13,234,64603,6,0,P|46:213|86:213,1,74.7500014257431,2|0,1:2|1:2,0:0:0:0:
171,176,64917,2,0,L|159:264,1,74.7500014257431,10|0,0:2|0:2,0:2:0:0:
99,326,65232,1,2,1:2:0:0:
99,326,65389,1,0,1:2:0:0:
177,383,65546,2,0,P|222:345|284:353,1,112.125002138615,10|0,0:2|0:0,0:0:0:0:
312,375,65860,6,0,B|292:308|336:291|305:212,1,149.500002851486,14|0,1:2|1:2,0:0:0:0:
245,155,66331,2,0,B|206:173|206:173|219:68,1,149.500002851486,10|0,0:2|1:2,0:0:0:0:
295,7,66802,2,0,P|326:32|374:28,1,74.7500014257431,10|0,0:2|1:2,0:0:0:0:
452,6,67116,5,12,0:2:0:0:
493,93,67273,2,0,P|485:128|480:168,1,74.7500014257431,0|0,1:2|3:2,0:0:0:0:
395,216,67588,1,8,1:2:0:0:
432,305,67745,2,0,P|465:288|511:294,2,74.7500014257431,2|0|10,3:2|1:2|0:2,0:0:0:0:
250,374,68373,6,0,B|196:369|201:353|140:349,1,112.125002138615,6|0,1:2|0:2,0:2:0:0:
97,370,68687,2,0,P|82:311|82:218,1,149.500002851486,10|2,0:2|1:2,0:2:0:0:
19,147,69158,1,0,1:2:0:0:
71,65,69315,2,0,P|111:74|153:82,1,74.7500014257431,10|0,0:2|0:2,0:2:0:0:
215,14,69629,5,2,1:2:0:0:
405,55,69944,2,0,P|419:125|437:206,1,149.500002851486,10|2,0:2|1:2,0:2:0:0:
400,291,70415,1,0,1:2:0:0:
316,241,70572,2,0,P|278:244|224:234,1,74.7500014257431,10|0,0:2|0:2,0:2:0:0:
146,220,70886,6,0,B|137:184|137:184|149:147,2,74.7500014257431,6|0|8,1:2|0:0|0:2,0:2:0:0:
113,311,71357,1,2,3:2:0:0:
192,367,71514,2,0,L|357:352,1,149.500002851486,2|10,1:2|0:2,0:0:0:0:
479,216,72143,5,0,1:2:0:0:
479,216,72300,1,0,1:2:0:0:
403,154,72457,2,0,P|394:106|463:34,2,149.500002851486,10|2|10,0:2|1:2|0:2,0:2:0:0:
233,249,73399,6,0,P|198:244|157:242,1,74.7500014257431,6|0,1:2|1:2,0:0:0:0:
64,218,73713,2,0,P|62:181|48:132,1,74.7500014257431,10|0,0:2|0:2,0:2:0:0:
21,52,74027,2,0,P|58:55|95:54,1,74.7500014257431,2|0,1:2|1:2,0:0:0:0:
172,113,74341,6,0,P|232:60|300:97,1,149.500002851486,10|0,0:2|1:2,0:2:0:0:
385,64,74813,1,0,1:2:0:0:
419,154,74970,2,0,P|414:197|412:231,1,74.7500014257431,8|0,0:2|0:2,0:2:0:0:
435,322,75284,2,0,P|391:311|348:317,1,74.7500014257431,2|0,1:2|1:2,0:2:0:0:
292,380,75598,1,10,0:2:0:0:
115,298,75912,6,0,L|40:290,1,74.7500014257431,4|0,1:2|0:0,0:2:0:0:
172,220,76226,2,0,L|246:210,1,74.7500014257431,10|0,0:2|1:2,0:0:0:0:
80,192,76540,2,0,L|5:184,1,74.7500014257431,10|0,0:2|1:2,0:0:0:0:
173,117,76854,2,0,L|247:107,1,74.7500014257431,10|0,0:2|1:2,0:0:0:0:
78,92,77169,6,0,P|63:57|68:17,1,74.7500014257431,10|0,0:2|1:2,0:0:0:0:
169,133,77483,2,0,B|247:121|247:121|318:136,2,149.500002851486,10|10|10,0:2|0:2|0:2,0:0:0:0:
93,302,78425,6,0,P|121:249|217:259,1,143.000004364014,6|10,1:2|0:2,0:2:0:0:
270,309,78896,1,0,0:2:0:0:
270,309,79054,2,0,P|245:333|232:371,2,71.5000021820069,2|2|0,1:2|3:2|1:2,0:2:0:0:
355,273,79525,5,10,0:2:0:0:
355,273,79682,2,0,P|393:287|438:284,2,71.5000021820069,2|2|8,3:2|1:2|0:2,0:2:0:0:
293,203,80153,1,0,0:0:0:0:
370,151,80310,2,0,B|381:112|381:112|363:67,1,71.5000021820069,2|2,1:2|1:2,0:2:0:0:
306,14,80624,1,8,0:2:0:0:
222,180,80938,6,0,B|159:173|159:173|151:180|151:180|79:173,1,143.000004364014,6|8,1:2|0:2,0:2:0:0:
25,106,81409,1,0,0:2:0:0:
25,106,81567,2,0,P|17:66|8:32,2,71.5000021820069,2|2|0,1:2|3:2|1:2,0:2:0:0:
109,52,82038,5,8,0:2:0:0:
109,52,82195,2,0,P|143:39|179:28,2,71.5000021820069,2|2|8,3:2|1:2|0:2,0:2:0:0:
137,134,82666,1,0,1:2:0:0:
136,141,82745,1,0,1:2:0:0:
135,148,82823,2,0,P|142:182|146:221,1,71.5000021820069,2|2,0:2|3:2,0:2:0:0:
88,291,83137,1,12,0:2:0:0:
255,371,83451,6,0,B|325:367|322:338|392:330,1,143.000004364014,6|10,1:2|0:2,0:2:0:0:
472,283,83922,1,0,0:2:0:0:
472,283,84080,2,0,P|489:312|483:360,2,71.5000021820069,2|2|0,1:2|3:2|0:2,0:0:0:0:
399,224,84551,5,10,0:2:0:0:
399,224,84708,2,0,P|364:220|316:213,2,71.5000021820069,2|2|8,1:2|1:2|0:2,0:2:0:0:
476,172,85179,1,0,0:2:0:0:
400,118,85336,2,0,P|390:79|398:50,1,71.5000021820069,2|2,1:2|1:2,0:0:0:0:
477,1,85650,1,14,0:2:0:0:
295,20,85965,5,10,0:2:0:0:
295,20,86122,1,10,0:2:0:0:
302,209,86436,1,10,0:2:0:0:
302,209,86593,1,10,0:2:0:0:
196,62,86907,5,10,0:2:0:0:
196,62,87064,1,10,0:2:0:0:
382,98,87378,1,10,0:2:0:0:
382,98,87535,1,14,0:2:0:0:
