osu file format v14

[General]
AudioFilename: audio.mp3
AudioLeadIn: 0
PreviewTime: 48268
Countdown: 0
SampleSet: Soft
StackLeniency: 0.4
Mode: 0
LetterboxInBreaks: 0
WidescreenStoryboard: 1

[Editor]
DistanceSpacing: 0.8
BeatDivisor: 4
GridSize: 8
TimelineZoom: 1.8

[Metadata]
Title:After Dark (TV Size)
TitleUnicode:アフターダーク (TV Size)
Artist:ASIAN KUNG-FU GENERATION
ArtistUnicode:ASIAN KUNG-FU GENERATION
Creator:Nelliel
Version:Mikan's Another
Source:BLEACH
Tags:ブリーチ op 7 opening j-pop japanese agatsu haruto yuuya_ke my_angel_ram haruto_aizawa -mikan World ワールド pop jpop yuuya ke bazz b bazz_b my angel ram aizawa
BeatmapID:2456085
BeatmapSetID:1129438

[Difficulty]
HPDrainRate:5.5
CircleSize:4
OverallDifficulty:8.4
ApproachRate:9
SliderMultiplier:1.8
SliderTickRate:1

[Events]
//Background and Video events
0,0,"cropped-1920-1080-219388.jpg",0,0
Video,0,"Video-1.mp4"
//Break Periods
//Storyboard Layer 0 (Background)
//Storyboard Layer 1 (Fail)
//Storyboard Layer 2 (Pass)
//Storyboard Layer 3 (Foreground)
//Storyboard Layer 4 (Overlay)
//Storyboard Sound Samples

[TimingPoints]
520,314.13612565445,4,2,22,50,1,0
520,-166.666666666667,4,2,22,50,0,0
834,-125,4,2,22,50,0,0
1305,-166.666666666667,4,2,22,50,0,0
1619,-125,4,2,22,50,0,0
3033,-111.111111111111,4,2,22,60,0,0
8059,-111.111111111111,4,2,22,70,0,0
12771,-76.9230769230769,4,2,22,70,0,0
13085,-100,4,2,22,80,0,0
18111,-111.111111111111,4,2,22,70,0,0
23137,-100,4,2,22,80,0,0
25886,-100,4,2,22,5,0,0
25965,-100,4,2,22,80,0,0
26985,-100,4,2,22,5,0,0
27064,-100,4,2,22,80,0,0
28163,-111.111111111111,4,2,22,70,0,0
33190,-100,4,2,22,80,0,0
38216,-125,4,2,22,70,0,0
45755,-111.111111111111,4,2,22,70,0,0
48268,-83.3333333333333,4,2,22,90,0,1
68059,-100,4,2,22,90,0,1
75598,-81.3008130081301,4,2,22,90,0,1
78111,-55.5555555555556,4,2,22,90,0,1
78425,-142.857142857143,4,2,22,70,0,0
83137,-100,4,2,22,70,0,0
83451,-142.857142857143,4,2,22,70,0,0

[Colours]
Combo1 : 223,0,0
Combo2 : 255,128,64
Combo3 : 255,255,170

[HitObjects]
119,116,520,6,0,P|157:89|199:87,1,80.9999975280763,4|0,1:2|0:2,0:2:0:0:
248,32,834,2,0,P|233:102|226:190,1,144,8|0,0:2|1:2,0:2:0:0:
89,287,1305,6,0,P|68:255|68:211,1,80.9999975280763,0|0,1:2|0:0,0:2:0:0:
146,227,1619,2,0,B|227:242|184:305|286:312,1,144,8|0,0:2|1:2,0:2:0:0:
385,244,2090,2,0,P|457:223|482:223,1,72,8|0,0:2|3:2,0:2:0:0:
366,332,2404,5,0,1:2:0:0:
366,332,2561,1,0,1:2:0:0:
287,234,2718,1,8,0:2:0:0:
385,244,2876,1,0,1:2:0:0:
258,308,3033,6,0,P|251:246|239:205,1,80.9999975280763,6|2,1:2|0:2,0:2:0:0:
324,79,3347,2,0,P|372:98|382:171,1,121.499996292114,8|0,0:2|0:0,0:2:0:0:
378,172,3661,1,2,1:2:0:0:
300,151,3818,2,0,P|248:140|217:139,1,80.9999975280763,2|0,1:2|0:2,0:2:0:0:
148,37,4132,1,8,0:2:0:0:
85,76,4289,6,0,L|100:178,1,80.9999975280763,2|2,3:2|1:2,0:0:0:0:
20,337,4603,2,0,P|10:266|-6:194,1,121.499996292114,8|0,0:2|0:2,0:2:0:0:
8,200,4917,1,2,1:2:0:0:
122,270,5074,1,2,1:2:0:0:
192,234,5232,1,8,0:2:0:0:
143,363,5389,1,0,1:2:0:0:
192,234,5546,6,0,P|253:249|283:264,1,80.9999975280763,6|2,1:2|0:0,0:2:0:0:
459,327,5860,2,0,P|424:366|334:363,1,121.499996292114,8|0,0:2|0:0,0:2:0:0:
349,362,6174,1,2,1:2:0:0:
385,292,6331,2,0,P|381:249|371:205,1,80.9999975280763,2|0,1:2|0:2,0:2:0:0:
491,108,6645,1,8,0:2:0:0:
437,62,6802,6,0,P|403:98|414:150,1,80.9999975280763,2|2,3:2|1:2,0:0:0:0:
191,59,7116,2,0,P|246:50|274:43,1,80.9999975280763,8|0,0:2|0:2,0:2:0:0:
285,51,7352,1,0,0:0:0:0:
293,64,7430,1,2,1:2:0:0:
295,80,7509,1,8,0:2:0:0:
291,95,7588,1,2,1:2:0:0:
192,234,7745,6,0,P|120:216|40:210,1,121.499996292114,12|0,0:2|0:0,0:0:0:0:
60,221,8059,6,0,P|52:167|40:129,1,80.9999975280763,6|0,1:2|0:0,0:2:0:0:
153,43,8373,1,10,0:2:0:0:
135,125,8530,1,0,0:2:0:0:
29,50,8687,1,2,1:2:0:0:
29,50,8844,1,2,1:2:0:0:
291,95,9158,5,8,0:2:0:0:
348,39,9315,2,0,P|398:52|436:58,1,80.9999975280763,2|2,3:2|1:2,0:0:0:0:
492,195,9629,1,8,0:2:0:0:
419,153,9787,1,0,0:2:0:0:
493,114,9944,1,2,1:2:0:0:
493,114,10101,1,2,1:2:0:0:
403,235,10258,1,8,0:2:0:0:
403,235,10415,1,0,1:2:0:0:
280,175,10572,6,0,P|283:134|291:95,1,80.9999975280763,6|0,1:2|0:0,0:2:0:0:
186,174,10886,1,10,0:2:0:0:
288,264,11043,1,0,3:2:0:0:
222,320,11200,1,2,0:2:0:0:
222,320,11357,1,2,0:2:0:0:
153,43,11671,5,8,0:2:0:0:
290,95,11828,1,2,1:2:0:0:
158,63,11985,1,2,1:2:0:0:
314,6,12143,1,8,0:2:0:0:
228,0,12300,6,0,P|235:18|240:45,1,40.4999987640381,0|8,3:2|0:2,0:0:0:0:
185,135,12457,1,0,3:2:0:0:
170,142,12535,1,8,0:2:0:0:
153,143,12614,1,0,1:2:0:0:
137,141,12692,1,0,1:2:0:0:
120,134,12771,2,0,B|222:140|180:213|303:204,1,175.499991966248,14|0,0:2|0:2,0:2:0:0:
344,248,13085,6,0,B|363:218|363:218|335:128,1,90,6|0,1:2|0:2,0:2:0:0:
479,75,13399,1,8,0:2:0:0:
463,212,13556,1,2,3:2:0:0:
456,85,13713,2,0,P|378:72|296:60,1,135,2|0,1:2|0:0,0:0:0:0:
307,43,14027,5,8,0:2:0:0:
130,238,14184,2,0,B|32:248|18:129|100:122|100:122|117:138|150:139,1,225,6|0,1:2|0:0,0:2:0:0:
158,63,14656,5,8,0:2:0:0:
229,171,14813,1,0,0:0:0:0:
243,90,14970,1,0,1:2:0:0:
216,252,15127,1,0,1:2:0:0:
370,182,15284,1,10,0:2:0:0:
311,135,15441,1,2,3:2:0:0:
299,224,15598,6,0,P|309:262|318:315,1,90,6|0,1:2|0:0,0:2:0:0:
439,378,15912,1,8,0:2:0:0:
501,234,16069,1,2,0:2:0:0:
448,358,16226,1,2,1:2:0:0:
414,274,16383,1,0,1:2:0:0:
512,315,16540,5,8,0:2:0:0:
361,384,16698,2,0,B|217:366|315:298|156:284,1,225,6|0,1:2|0:0,0:2:0:0:
113,331,17169,5,8,0:2:0:0:
18,193,17326,1,0,3:2:0:0:
0,268,17483,1,0,1:2:0:0:
125,141,17640,1,0,1:2:0:0:
156,210,17797,1,10,0:2:0:0:
42,97,17954,5,0,0:0:0:0:
42,97,18033,1,0,0:0:0:0:
42,97,18111,2,0,P|29:38|21:1,1,80.9999975280763,6|0,1:2|0:2,0:2:0:0:
200,146,18425,2,0,P|213:87|221:50,1,80.9999975280763,10|0,0:2|0:2,0:2:0:0:
82,203,18739,1,0,1:2:0:0:
82,203,18896,1,0,3:2:0:0:
136,257,19054,6,0,P|195:248|245:244,1,80.9999975280763,0|8,1:2|0:2,0:2:0:0:
412,279,19368,2,0,P|396:336|294:348,1,161.999995056153,0|10,3:2|0:2,0:0:0:0:
332,278,19839,2,0,P|325:227|315:188,1,80.9999975280763,2|0,3:2|1:2,0:0:0:0:
384,94,20153,1,0,1:2:0:0:
456,85,20310,2,0,P|454:139|423:158,1,80.9999975280763,10|0,0:2|0:2,0:2:0:0:
293,96,20624,6,0,P|235:75|199:67,1,80.9999975280763,6|0,1:2|0:0,0:2:0:0:
105,0,20938,2,0,P|47:21|11:29,1,80.9999975280763,10|0,0:2|0:2,0:2:0:0:
142,123,21252,1,2,1:2:0:0:
142,123,21410,1,0,3:2:0:0:
81,170,21567,6,0,P|61:115|73:83,1,80.9999975280763,2|8,0:2|0:2,0:2:0:0:
142,123,21881,2,0,B|228:135|188:203|286:216,1,161.999995056153,0|10,3:2|0:2,0:0:0:0:
346,277,22352,2,0,P|403:262|435:257,1,80.9999975280763,2|0,0:2|1:2,0:2:0:0:
424,258,22666,1,0,1:2:0:0:
351,180,22823,5,10,0:2:0:0:
398,348,22980,1,2,0:2:0:0:
210,381,23137,6,0,P|189:338|199:280,1,90,6|0,1:2|0:0,0:2:0:0:
81,170,23451,2,0,P|102:213|92:271,1,90,8|2,0:2|0:2,0:0:0:0:
22,224,23766,1,2,1:2:0:0:
142,123,23923,1,0,1:2:0:0:
37,4,24080,1,8,0:2:0:0:
0,97,24237,6,0,B|40:69|84:76|84:76|111:38|111:38|154:55|223:29,1,225,2|0,3:2|0:0,0:2:0:0:
274,69,24708,6,0,P|266:131|264:168,1,90,10|0,0:2|0:2,0:2:0:0:
371,316,25022,2,0,P|379:247|382:200,1,90,2|0,1:2|1:2,0:0:0:0:
459,125,25336,2,0,P|403:127|357:133,1,90,10|0,0:2|0:2,0:0:0:0:
250,236,25650,6,0,B|174:229|211:167|106:169,1,135,6|0,1:2|0:0,0:2:0:0:
122,173,25965,1,8,0:2:0:0:
42,304,26122,1,2,3:2:0:0:
14,228,26279,5,2,1:2:0:0:
110,261,26436,1,0,1:2:0:0:
129,357,26593,1,8,0:2:0:0:
250,236,26750,6,0,P|257:169|269:94,1,135,2|0,0:2|0:2,0:2:0:0:
267,102,27064,1,0,0:2:0:0:
170,38,27221,5,10,0:2:0:0:
153,115,27378,1,0,0:2:0:0:
78,95,27535,1,0,1:2:0:0:
95,18,27692,1,0,1:2:0:0:
126,64,27849,5,8,0:2:0:0:
250,236,28163,6,0,P|313:229|359:226,1,80.9999975280763,6|0,1:2|0:2,0:2:0:0:
139,374,28478,2,0,P|146:314|149:262,1,80.9999975280763,10|0,0:2|0:2,0:2:0:0:
94,142,28792,1,2,1:2:0:0:
94,142,28949,1,0,3:2:0:0:
31,188,29106,6,0,P|24:248|21:300,1,80.9999975280763,2|8,0:2|0:2,0:2:0:0:
166,172,29420,2,0,P|203:124|158:31,1,161.999995056153,0|8,3:2|0:2,0:0:0:0:
115,100,29891,2,0,P|57:84|1:80,1,80.9999975280763,2|0,0:2|1:2,0:0:0:0:
36,81,30205,1,0,1:2:0:0:
251,16,30362,2,0,P|298:6|336:1,1,80.9999975280763,10|0,0:2|1:2,0:2:0:0:
501,74,30677,6,0,P|470:114|414:106,1,80.9999975280763,2|0,1:2|0:0,0:2:0:0:
325,205,30991,2,0,P|332:139|335:100,1,80.9999975280763,10|0,0:2|0:2,0:2:0:0:
434,243,31305,1,2,1:2:0:0:
434,243,31462,1,0,3:2:0:0:
369,294,31619,6,0,P|306:287|269:288,1,80.9999975280763,2|8,0:2|0:2,0:2:0:0:
95,365,31933,2,0,P|134:378|206:292,1,161.999995056153,0|10,3:2|0:2,0:0:0:0:
116,215,32404,2,0,P|128:273|129:314,1,80.9999975280763,2|0,0:2|1:2,0:2:0:0:
208,183,32718,1,0,1:2:0:0:
85,117,32876,2,0,P|24:109|-22:109,1,80.9999975280763,10|2,0:2|3:2,0:0:0:0:
251,16,33190,6,0,P|312:8|358:8,1,90,6|0,1:2|0:0,0:2:0:0:
208,183,33504,1,8,0:2:0:0:
170,94,33661,1,0,0:2:0:0:
281,117,33818,1,0,1:2:0:0:
281,117,33975,1,0,3:2:0:0:
436,211,34132,5,8,0:2:0:0:
464,130,34289,2,0,B|318:134|393:232|249:240,1,225,0|0,3:1|0:0,0:2:0:0:
212,285,34760,6,0,B|191:250|191:250|210:184,1,90,8|0,0:2|0:2,0:2:0:0:
125,73,35074,2,0,B|146:108|146:108|127:174,1,90,2|0,1:2|1:2,0:0:0:0:
103,234,35389,2,0,P|54:221|13:218,1,90,8|0,0:2|0:2,0:2:0:0:
226,123,35703,6,0,P|280:140|394:163,1,135,4|0,1:2|0:0,0:2:0:0:
356,157,36017,1,8,0:2:0:0:
484,51,36174,1,0,0:2:0:0:
426,5,36331,2,0,P|399:45|410:89,1,90,0|0,1:2|1:2,0:2:0:0:
478,273,36645,5,8,0:2:0:0:
501,193,36802,2,0,P|439:205|384:361,1,225,0|0,3:2|0:0,0:2:0:0:
391,354,37273,5,8,0:2:0:0:
265,272,37430,1,0,0:2:0:0:
219,329,37588,1,0,1:2:0:0:
105,375,37745,1,0,1:2:0:0:
296,341,37902,1,8,0:2:0:0:
190,261,38059,5,0,0:0:0:0:
190,261,38137,1,0,0:0:0:0:
190,261,38216,1,6,1:2:0:0:
308,179,38373,2,0,P|251:165|206:152,1,72,0|8,1:2|0:2,0:2:0:0:
23,294,38687,5,2,3:2:0:0:
137,144,38844,2,0,P|120:89|112:55,1,72,2|8,1:2|0:2,0:2:0:0:
108,287,39158,5,2,3:2:0:0:
28,207,39315,2,0,P|40:152|44:111,1,72,2|8,1:2|0:2,0:2:0:0:
66,367,39629,5,2,3:2:0:0:
127,297,39787,2,0,P|115:249|111:216,1,72,2|8,1:2|0:2,0:2:0:0:
233,371,40101,5,0,1:3:0:0:
23,294,40258,1,8,0:2:0:0:
191,159,40415,1,0,3:2:0:0:
191,159,40729,5,4,1:2:0:0:
72,26,40886,2,0,P|9:15|-23:7,1,72,2|8,1:2|0:2,0:2:0:0:
280,0,41200,5,0,3:2:0:0:
114,111,41357,2,0,P|51:122|19:130,1,72,0|8,1:2|0:2,0:2:0:0:
312,159,41671,5,0,3:2:0:0:
231,59,41828,2,0,P|168:48|136:40,1,72,0|8,1:2|0:2,0:2:0:0:
347,55,42143,5,0,1:2:0:0:
191,159,42300,1,0,1:2:0:0:
231,59,42457,5,8,0:2:0:0:
312,159,42614,1,0,3:2:0:0:
480,56,42771,1,8,0:2:0:0:
500,256,42928,5,0,3:2:0:0:
500,256,43242,5,6,1:2:0:0:
500,256,43399,1,2,1:2:0:0:
416,141,43556,1,8,0:2:0:0:
357,294,43713,5,2,3:2:0:0:
357,294,43870,1,2,1:2:0:0:
418,225,44027,1,8,0:2:0:0:
509,376,44184,5,2,3:2:0:0:
509,376,44341,1,2,1:2:0:0:
441,311,44499,1,8,0:2:0:0:
394,374,44656,5,2,3:2:0:0:
394,374,44813,1,2,1:2:0:0:
500,255,44970,1,8,0:2:0:0:
323,184,45127,5,2,3:2:0:0:
441,311,45284,1,0,1:2:0:0:
268,364,45441,1,10,0:2:0:0:
318,300,45598,5,0,0:0:0:0:
318,300,45677,1,0,0:2:0:0:
318,300,45755,2,0,P|307:251|290:197,1,80.9999975280763,6|0,1:2|0:2,0:2:0:0:
364,22,46069,2,0,P|375:71|392:125,1,80.9999975280763,8|0,0:2|0:2,0:2:0:0:
433,183,46383,6,0,P|488:187|520:195,1,80.9999975280763,2|0,1:2|0:2,0:0:0:0:
257,115,46698,2,0,P|199:129|145:125,1,80.9999975280763,10|0,0:2|0:2,0:2:0:0:
150,120,46933,5,0,0:0:0:0:
150,120,47012,2,0,P|121:164|130:214,1,80.9999975280763,2|0,1:2|0:2,0:0:0:0:
229,384,47326,2,0,P|258:340|249:290,1,80.9999975280763,12|0,0:2|0:0,0:0:0:0:
213,247,47640,5,0,1:2:0:0:
180,247,47718,1,0,1:2:0:0:
149,257,47797,1,8,1:2:0:0:
124,278,47876,1,0,1:2:0:0:
112,308,47954,1,0,1:2:0:0:
99,337,48033,1,0,1:2:0:0:
72,354,48111,1,8,0:2:0:0:
39,358,48190,1,0,1:2:0:0:
25,347,48268,6,0,P|13:283|-3:229,1,107.999996704102,6|0,1:2|0:0,0:2:0:0:
223,41,48582,2,0,P|219:135|89:184,1,215.999993408203,10|2,0:2|1:2,0:2:0:0:
0,129,49054,5,0,1:2:0:0:
37,64,49211,2,0,P|98:83|157:93,1,107.999996704102,10|0,0:2|0:2,0:2:0:0:
284,208,49525,1,2,1:2:0:0:
213,247,49682,1,0,1:2:0:0:
299,114,49839,6,0,P|288:54|277:5,1,107.999996704102,10|0,0:2|3:2,0:2:0:0:
445,176,50153,2,0,P|456:116|467:67,1,107.999996704102,2|0,1:2|1:2,0:0:0:0:
284,208,50467,1,10,0:2:0:0:
284,208,50624,1,0,0:2:0:0:
478,285,50781,6,0,P|414:292|354:308,1,107.999996704102,2|0,1:2|1:2,0:2:0:0:
284,208,51095,2,0,B|157:243|236:316|101:341,1,215.999993408203,10|2,0:2|1:2,3:2:0:0:
25,189,51567,5,0,1:2:0:0:
83,139,51724,2,0,P|113:193|101:258,1,107.999996704102,10|0,0:2|0:2,3:2:0:0:
38,360,52038,1,2,1:2:0:0:
9,289,52195,1,0,1:2:0:0:
195,167,52352,6,0,P|266:173|313:186,1,107.999996704102,10|0,0:2|3:2,0:0:0:0:
131,34,52666,2,0,P|202:28|249:15,1,107.999996704102,2|0,1:2|1:2,0:0:0:0:
83,139,52980,2,0,B|73:204|73:204|86:228|86:228|72:316,1,161.999995056153,8|0,0:2|0:0,3:2:0:0:
28,355,53294,6,0,P|109:345|147:342,1,107.999996704102,6|0,1:2|0:0,0:2:0:0:
284,208,53609,2,0,P|395:225|504:254,1,215.999993408203,10|2,0:2|1:2,0:2:0:0:
304,288,54080,5,0,1:2:0:0:
228,297,54237,2,0,P|196:248|204:186,1,107.999996704102,10|0,0:2|0:2,0:2:0:0:
308,55,54551,1,2,1:2:0:0:
342,125,54708,1,0,1:2:0:0:
175,55,54865,6,0,L|39:28,1,107.999996704102,10|0,0:2|0:2,0:2:0:0:
228,182,55179,2,0,L|92:209,1,107.999996704102,0|0,1:2|1:2,0:0:0:0:
10,217,55493,2,0,P|93:244|119:338,1,161.999995056153,12|0,0:2|0:0,0:0:0:0:
78,370,55807,5,14,0:2:0:0:
228,293,55965,1,0,1:2:0:0:
286,343,56122,1,0,1:2:0:0:
121,307,56279,1,10,0:2:0:0:
183,360,56436,1,0,1:2:0:0:
228,293,56593,1,0,1:2:0:0:
78,370,56750,1,10,0:2:0:0:
163,226,56907,1,0,1:2:0:0:
175,55,57064,5,12,0:2:0:0:
347,143,57222,1,2,1:2:0:0:
414,86,57379,1,10,0:2:0:0:
224,127,57536,1,10,0:2:0:0:
296,66,57693,1,0,3:2:0:0:
347,143,57850,1,0,1:2:0:0:
175,55,58007,1,8,0:2:0:0:
275,213,58163,1,0,1:2:0:0:
122,297,58321,6,0,P|108:226|94:173,1,107.999996704102,4|0,1:2|0:0,0:2:0:0:
228,0,58635,2,0,P|261:85|143:163,1,215.999993408203,10|2,0:2|1:2,0:2:0:0:
13,73,59106,5,0,1:2:0:0:
72,29,59263,2,0,B|126:39|126:39|130:46|130:46|184:57,1,107.999996704102,10|0,0:2|0:2,0:2:0:0:
275,213,59577,1,2,1:2:0:0:
352,194,59734,1,0,1:2:0:0:
419,19,59891,6,0,P|403:93|398:147,1,107.999996704102,10|0,0:2|0:2,0:2:0:0:
263,0,60205,2,0,P|279:74|284:128,1,107.999996704102,2|0,1:2|1:2,0:2:0:0:
155,235,60519,2,0,P|85:242|51:151,1,161.999995056153,10|0,0:2|0:0,0:2:0:0:
54,153,60834,6,0,P|120:143|171:132,1,107.999996704102,6|0,1:2|0:2,0:2:0:0:
275,213,61148,2,0,B|394:246|327:309|456:334,1,215.999993408203,10|2,0:2|1:2,0:2:0:0:
512,191,61619,1,0,1:2:0:0:
449,143,61776,2,0,B|427:181|427:181|448:257,1,107.999996704102,10|0,0:2|0:2,0:2:0:0:
251,377,62090,1,2,1:2:0:0:
270,304,62247,1,0,1:2:0:0:
155,235,62404,6,0,P|88:243|33:253,1,107.999996704102,10|0,0:2|3:2,0:0:0:0:
282,106,62718,2,0,P|215:98|160:88,1,107.999996704102,2|0,1:2|1:2,0:0:0:0:
103,24,63033,1,8,0:2:0:0:
103,24,63190,1,0,0:2:0:0:
48,249,63347,6,0,P|34:166|22:122,1,107.999996704102,6|0,1:2|1:0,0:2:0:0:
186,0,63661,2,0,P|212:57|123:171,1,215.999993408203,10|2,0:2|1:2,0:2:0:0:
93,102,64132,1,0,1:2:0:0:
285,31,64289,6,0,B|336:36|336:36|339:39|339:39|409:47,1,107.999996704102,10|0,0:2|0:2,0:2:0:0:
465,122,64603,1,2,1:2:0:0:
429,196,64760,1,0,1:2:0:0:
346,255,64917,1,10,0:2:0:0:
375,334,65074,1,0,0:2:0:0:
441,380,65232,1,2,1:2:0:0:
450,303,65389,5,0,1:2:0:0:
450,303,65467,1,0,0:0:0:0:
450,303,65546,2,0,B|363:302|420:383|265:390,1,161.999995056153,10|0,0:2|0:0,0:0:0:0:
255,345,65860,5,14,1:2:0:0:
196,208,66017,1,0,1:2:0:0:
230,221,66174,1,0,1:2:0:0:
355,85,66331,1,10,0:2:0:0:
285,31,66488,1,0,3:2:0:0:
272,122,66645,1,0,1:2:0:0:
364,176,66802,2,0,P|430:159|492:155,1,107.999996704102,10|0,0:2|1:2,0:0:0:0:
285,31,67116,5,12,0:2:0:0:
161,141,67273,1,0,1:2:0:0:
149,108,67430,1,0,3:2:0:0:
17,47,67588,1,8,1:2:0:0:
107,10,67745,1,2,3:2:0:0:
19,170,67902,1,0,1:2:0:0:
90,203,68059,2,0,P|122:263|133:332,1,135,10|0,0:2|0:0,0:0:0:0:
115,344,68373,6,0,P|53:336|10:337,1,90,6|0,1:2|0:0,0:2:0:0:
184,152,68687,2,0,P|193:210|198:258,1,90,10|0,0:2|0:2,0:2:0:0:
303,384,69001,2,0,P|308:339|315:294,1,90,2|0,1:2|1:2,0:2:0:0:
405,207,69315,2,0,P|467:199|510:200,1,90,10|0,0:2|0:2,0:2:0:0:
334,154,69629,5,2,1:2:0:0:
334,154,69787,1,0,1:2:0:0:
404,17,69944,2,0,P|411:71|421:119,1,90,10|0,0:2|0:2,0:2:0:0:
288,297,70258,2,0,P|281:243|271:195,1,90,2|0,1:2|1:2,0:2:0:0:
184,152,70572,2,0,P|118:131|11:130,1,135,10|0,0:2|0:0,0:2:0:0:
29,112,70886,6,0,P|35:45|145:54,1,180,6|8,1:2|0:2,0:2:0:0:
275,111,71357,1,2,3:2:0:0:
327,30,71514,2,0,P|240:38|210:40,1,90,2|0,1:2|1:2,0:0:0:0:
95,185,71828,2,0,P|181:176|211:174,1,90,10|0,0:2|0:2,0:2:0:0:
262,229,72143,1,0,1:2:0:0:
262,229,72300,1,0,1:2:0:0:
199,358,72457,6,0,P|170:312|170:262,1,90,10|0,0:2|0:2,0:2:0:0:
303,108,72771,2,0,P|332:154|332:204,1,90,2|0,1:2|1:2,0:2:0:0:
184,176,73085,2,0,P|133:163|77:159,1,90,10|0,0:2|0:2,0:2:0:0:
286,310,73399,6,0,P|357:296|398:294,1,90,6|0,1:2|1:2,0:0:0:0:
444,226,73713,1,10,0:2:0:0:
334,188,73870,1,0,0:2:0:0:
442,54,74027,2,0,P|427:108|421:153,1,90,2|0,1:2|1:2,0:0:0:0:
263,231,74341,2,0,P|252:168|328:109,1,135,10|0,0:2|0:0,0:2:0:0:
307,118,74656,5,0,1:2:0:0:
131,47,74813,1,0,1:2:0:0:
204,1,74970,2,0,P|207:63|211:100,1,90,8|0,0:2|0:2,0:2:0:0:
46,222,75284,5,2,1:2:0:0:
46,222,75441,1,0,1:2:0:0:
43,145,75598,2,0,B|144:156|89:218|218:225,1,166.050002533722,10|0,0:2|0:0,0:2:0:0:
280,135,75912,5,4,1:2:0:0:
280,280,76069,1,0,0:0:0:0:
342,89,76226,5,10,0:2:0:0:
255,208,76383,1,0,1:2:0:0:
418,89,76540,5,10,0:2:0:0:
280,135,76698,1,0,1:2:0:0:
480,135,76855,5,10,0:2:0:0:
342,89,77012,1,0,1:2:0:0:
504,208,77169,5,10,0:2:0:0:
418,89,77326,1,0,1:2:0:0:
480,280,77483,6,0,P|408:259|346:248,1,110.700001689148,10|0,0:2|1:2,0:0:0:0:
101,109,77797,2,0,P|174:99|219:87,1,110.700001689148,10|0,0:2|1:2,0:0:0:0:
269,322,78111,6,0,B|219:283|223:203|283:165|283:165|326:142|355:68|293:20,2,323.999990112305,10|6|10,0:2|1:2|0:2,0:0:0:0:
269,322,79054,5,2,1:2:0:0:
366,374,79211,2,0,P|421:362|439:361,1,62.9999980773926,2|0,3:2|1:2,0:0:0:0:
492,217,79525,1,10,0:2:0:0:
411,215,79682,2,0,P|403:262|403:289,2,62.9999980773926,2|2|8,3:2|1:2|0:2,0:2:0:0:
309,134,80153,5,0,0:0:0:0:
384,104,80310,1,2,1:2:0:0:
384,104,80467,1,2,1:2:0:0:
305,216,80624,2,0,P|248:207|215:204,1,62.9999980773926,8|0,0:2|3:2,0:0:0:0:
68,80,80938,6,0,P|125:89|158:92,1,62.9999980773926,6|2,1:2|0:2,0:2:0:0:
208,56,81252,1,8,0:2:0:0:
139,164,81410,1,0,0:2:0:0:
131,16,81567,1,2,1:2:0:0:
131,16,81724,1,2,3:2:0:0:
242,206,82038,5,8,0:2:0:0:
183,281,82195,2,0,P|145:287|105:301,1,62.9999980773926,2|2,3:2|1:2,0:2:0:0:
14,199,82509,1,8,0:2:0:0:
130,101,82666,5,0,1:2:0:0:
130,101,82745,1,0,1:2:0:0:
130,101,82823,2,0,L|140:143,1,31.4999990386963,2|0,0:2|0:0,0:2:0:0:
14,199,82980,1,2,3:2:0:0:
4,179,83059,1,0,0:0:0:0:
22,160,83137,2,0,B|105:162|64:217|158:212,1,135,12|0,0:2|0:2,0:2:0:0:
213,152,83451,6,0,P|270:142|296:142,1,62.9999980773926,6|2,1:2|0:2,0:2:0:0:
346,25,83766,2,0,P|341:78|335:109,1,62.9999980773926,10|0,0:2|0:2,0:2:0:0:
420,229,84080,1,2,1:2:0:0:
420,229,84237,2,0,P|425:176|431:145,1,62.9999980773926,2|0,3:2|0:2,0:2:0:0:
494,121,84551,1,10,0:2:0:0:
350,167,84708,1,2,1:2:0:0:
350,167,84865,1,2,1:2:0:0:
492,306,85022,6,0,P|446:308|416:315,1,62.9999980773926,8|0,0:2|0:2,0:2:0:0:
334,366,85336,1,2,1:2:0:0:
358,276,85493,1,2,1:2:0:0:
212,309,85650,2,0,P|258:307|288:300,1,62.9999980773926,14|0,0:2|0:2,0:2:0:0:
295,231,85886,5,0,0:0:0:0:
295,231,85965,1,10,0:2:0:0:
168,78,86122,1,10,0:2:0:0:
246,29,86279,5,2,0:2:0:0:
246,29,86357,1,2,0:2:0:0:
246,29,86436,1,10,0:2:0:0:
131,188,86593,1,10,0:2:0:0:
202,235,86750,5,2,0:2:0:0:
202,235,86828,1,2,0:2:0:0:
202,235,86907,1,10,0:2:0:0:
79,30,87064,1,10,0:2:0:0:
150,0,87221,5,2,0:2:0:0:
150,0,87300,1,2,0:2:0:0:
150,0,87378,1,10,0:2:0:0:
18,265,87535,1,14,0:2:0:0:
