osu file format v14

[General]
AudioFilename: audio.mp3
AudioLeadIn: 0
PreviewTime: 48268
Countdown: 0
SampleSet: Soft
StackLeniency: 0.4
Mode: 0
LetterboxInBreaks: 0
WidescreenStoryboard: 1

[Editor]
DistanceSpacing: 0.8
BeatDivisor: 4
GridSize: 16
TimelineZoom: 1.8

[Metadata]
Title:After Dark (TV Size)
TitleUnicode:アフターダーク (TV Size)
Artist:ASIAN KUNG-FU GENERATION
ArtistUnicode:ASIAN KUNG-FU GENERATION
Creator:Nelliel
Version:Haruto's Insane
Source:BLEACH
Tags:ブリーチ op 7 opening j-pop japanese agatsu haruto yuuya_ke my_angel_ram haruto_aizawa -mikan World ワールド pop jpop yuuya ke bazz b bazz_b my angel ram aizawa
BeatmapID:2425317
BeatmapSetID:1129438

[Difficulty]
HPDrainRate:5
CircleSize:4.1
OverallDifficulty:7.5
ApproachRate:9
SliderMultiplier:1.6
SliderTickRate:1

[Events]
//Background and Video events
0,0,"cropped-1920-1080-219388.jpg",0,0
0,0,"cropped-1920-1080-219388.jpg",0,0
Video,0,"Video-1.mp4"
//Break Periods
//Storyboard Layer 0 (Background)
//Storyboard Layer 1 (Fail)
//Storyboard Layer 2 (Pass)
//Storyboard Layer 3 (Foreground)
//Storyboard Layer 4 (Overlay)
//Storyboard Sound Samples

[TimingPoints]
520,314.13612565445,4,2,22,50,1,0
520,-133.333333333333,4,2,22,50,0,0
1305,-105.263157894737,4,2,22,50,0,0
1619,-133.333333333334,4,2,22,50,0,0
2718,-100,4,2,22,50,0,0
3033,-125,4,2,22,60,0,0
8059,-100,4,2,22,70,0,0
12771,-76.9230769230769,4,2,22,70,0,0
13085,-100,4,2,22,80,0,0
18111,-111.111111111111,4,2,22,70,0,0
23137,-111.111111111111,4,2,22,80,0,0
26750,-76.9230769230769,4,2,22,80,0,0
26985,-76.9230769230769,4,2,22,5,0,0
27064,-111.111111111111,4,2,22,80,0,0
27849,-83.3333333333333,4,2,22,80,0,0
28163,-111.111111111111,4,2,22,70,0,0
32876,-95.2380952380952,4,2,22,70,0,0
33190,-111.111111111111,4,2,22,80,0,0
35389,-90.9090909090908,4,2,22,80,0,0
35703,-111.111111111111,4,2,22,80,0,0
38216,-125,4,2,22,70,0,0
45755,-111.111111111111,4,2,22,70,0,0
47640,-76.9230769230769,4,2,22,70,0,0
48268,-100,4,2,22,90,0,1
68294,-100,4,2,22,90,0,1
68373,-100,4,2,22,90,0,1
78425,-100,4,2,22,70,0,0
79211,-125,4,2,22,70,0,0

[Colours]
Combo1 : 223,0,0
Combo2 : 255,128,64
Combo3 : 255,255,170

[HitObjects]
236,174,520,6,0,L|254:49,2,120.000004577637,4|8|0,1:2|0:2|1:2,0:2:0:0:
150,202,1305,2,0,P|105:201|63:253,1,113.999996955872,0|0,1:2|0:0,0:2:0:0:
48,240,1619,6,0,P|42:285|88:342,1,120.000004577637,8|0,0:2|1:2,0:2:0:0:
236,174,2090,2,0,P|242:129|196:72,1,120.000004577637,8|0,0:2|1:2,0:2:0:0:
72,41,2561,5,0,1:2:0:0:
72,41,2718,2,0,L|86:142,1,80,8|0,0:2|1:2,0:0:0:0:
218,266,3033,6,0,P|249:260|281:256,1,64,6|2,1:2|0:2,0:2:0:0:
368,241,3347,1,8,0:2:0:0:
329,44,3661,5,2,1:2:0:0:
329,44,3818,2,0,P|319:106|309:174,2,128,2|8|2,1:2|0:2|1:2,0:2:0:0:
461,133,4603,2,0,P|456:164|451:196,1,64,8|0,0:2|0:2,0:2:0:0:
358,304,4917,2,0,P|363:272|368:240,1,64,2|2,1:2|1:2,0:0:0:0:
451,197,5232,1,8,0:2:0:0:
451,197,5389,1,0,1:2:0:0:
329,44,5546,6,0,P|297:39|265:34,1,64,6|2,1:2|0:0,0:2:0:0:
191,91,5860,2,0,B|131:76|125:109|63:97,1,128,8|2,0:2|1:2,0:2:0:0:
94,303,6331,2,0,P|101:255|108:208,1,96,2|0,1:2|0:0,0:2:0:0:
100,194,6645,2,0,P|131:179|164:180,1,64,8|2,0:2|3:2,0:0:0:0:
319,5,6959,1,2,1:2:0:0:
319,5,7116,2,0,P|288:20|255:19,1,64,8|0,0:2|0:2,0:2:0:0:
276,138,7430,5,2,1:2:0:0:
279,163,7509,1,8,0:2:0:0:
282,189,7588,2,0,P|284:204|286:220,1,32,2|0,1:2|1:2,0:0:0:0:
367,288,7745,2,0,P|374:240|381:193,1,96,12|0,0:2|0:0,0:0:0:0:
377,174,8059,6,0,P|423:171|472:266,1,160,6|10,1:2|0:2,0:2:0:0:
306,359,8530,2,0,P|266:353|226:347,1,80,0|2,0:2|1:2,0:0:0:0:
206,209,8844,2,0,P|245:214|285:220,1,80,2|0,1:2|0:2,0:2:0:0:
377,174,9158,6,0,P|365:94|353:15,1,160,8|2,0:2|1:2,0:0:0:0:
281,106,9629,2,0,P|225:97|169:89,1,80,8|0,0:2|0:2,0:2:0:0:
452,15,9944,2,0,P|477:53|477:105,1,80,2|2,1:2|1:2,0:0:0:0:
405,245,10258,2,0,P|382:212|376:173,1,80,8|0,0:2|1:2,0:2:0:0:
201,93,10572,6,0,P|121:81|42:69,1,160,6|10,1:2|0:2,0:2:0:0:
125,172,11043,1,0,3:2:0:0:
22,236,11200,6,0,P|29:182|37:130,1,80,2|2,0:2|0:2,0:0:0:0:
212,13,11514,2,0,P|204:66|196:118,1,80,0|8,0:2|0:2,0:0:0:0:
330,265,11828,6,0,P|346:218|306:147,1,120,2|0,1:2|0:0,0:0:0:0:
227,187,12143,2,0,P|232:226|238:266,1,80,8|0,0:2|3:2,0:2:0:0:
230,286,12378,1,8,0:2:0:0:
230,286,12457,2,0,P|206:289|182:293,2,40,0|8|0,3:2|0:2|1:2,0:2:0:0:
470,84,12771,2,0,B|397:65|390:105|314:91,1,155.999992858887,14|0,0:2|0:2,0:2:0:0:
306,77,13085,6,0,P|311:116|317:156,1,80,6|0,1:2|0:2,0:2:0:0:
446,260,13399,2,0,P|440:220|434:180,1,80,8|2,0:2|3:2,0:2:0:0:
230,286,13713,2,0,P|150:295|71:309,1,160,2|8,1:2|0:2,0:0:0:0:
113,115,14184,6,0,P|190:119|226:186,1,160,6|0,1:2|1:2,0:2:0:0:
71,309,14656,2,0,P|41:273|39:231,1,80,8|0,0:2|0:0,0:2:0:0:
195,25,14970,6,0,P|235:19|275:13,1,80,0|0,1:2|1:2,0:0:0:0:
113,115,15284,2,0,P|73:121|33:127,1,80,10|2,0:2|3:2,0:2:0:0:
226,186,15598,6,0,B|301:165|306:213|384:194,1,160,6|8,1:2|0:2,0:2:0:0:
430,95,16069,1,2,0:2:0:0:
430,95,16226,6,0,P|390:101|350:107,1,80,2|0,1:2|1:2,0:0:0:0:
379,13,16540,1,8,0:2:0:0:
382,194,16698,6,0,P|391:257|407:356,1,160,6|0,1:2|1:2,0:2:0:0:
482,265,17169,2,0,P|495:213|486:170,1,80,8|0,0:2|3:2,0:2:0:0:
299,277,17483,2,0,P|296:316|308:354,1,80,0|0,1:2|1:2,0:0:0:0:
202,281,17797,2,0,P|153:273|78:261,1,120,10|0,0:2|0:0,0:0:0:0:
67,273,18111,6,0,P|72:237|77:201,1,71.9999978027344,6|0,1:2|0:2,0:2:0:0:
180,99,18425,2,0,P|174:134|169:170,1,71.9999978027344,10|0,0:2|0:2,0:2:0:0:
299,277,18739,2,0,P|337:254|354:192,1,107.999996704102,0|0,1:2|0:0,0:0:0:0:
349,182,19054,1,0,1:2:0:0:
321,90,19211,6,0,B|252:70|247:114|176:97,1,143.999995605469,8|0,0:2|1:2,0:0:0:0:
247,4,19682,1,10,0:2:0:0:
349,182,19839,2,0,P|384:176|420:171,2,71.9999978027344,2|0|0,3:2|1:2|1:2,0:0:0:0:
284,250,20310,6,0,P|292:299|304:374,1,107.999996704102,10|0,0:2|0:0,0:2:0:0:
290,377,20624,2,0,P|261:355|226:351,1,71.9999978027344,6|0,1:2|0:0,0:2:0:0:
349,182,20938,2,0,P|384:178|412:156,1,71.9999978027344,10|0,0:2|0:2,0:2:0:0:
327,53,21252,6,0,P|278:75|266:165,1,143.999995605469,2|2,1:2|0:2,0:0:0:0:
504,176,21724,2,0,P|497:133|490:90,1,71.9999978027344,8|0,0:2|3:2,0:0:0:0:
479,19,22038,1,0,1:2:0:0:
327,53,22195,6,0,P|255:64|184:75,1,143.999995605469,10|0,0:2|1:2,0:0:0:0:
66,95,22666,1,0,1:2:0:0:
66,95,22823,2,0,P|71:59|77:23,1,71.9999978027344,10|2,0:2|0:2,0:0:0:0:
205,219,23137,6,0,P|230:251|224:329,1,107.999996704102,6|0,1:2|0:0,0:2:0:0:
162,356,23451,1,8,0:2:0:0:
136,159,23609,1,2,0:2:0:0:
79,227,23766,2,0,P|43:232|7:238,2,71.9999978027344,2|0|8,1:2|1:2|0:2,0:2:0:0:
273,123,24237,6,0,B|339:105|347:147|417:128,1,143.999995605469,2|0,3:2|1:2,0:2:0:0:
341,212,24708,2,0,P|346:247|352:283,1,71.9999978027344,10|0,0:2|0:2,0:2:0:0:
486,71,25022,2,0,P|480:35|474:0,1,71.9999978027344,2|0,1:2|1:2,0:0:0:0:
382,43,25336,2,0,P|327:34|272:25,1,107.999996704102,10|0,0:2|0:0,0:0:0:0:
194,69,25650,6,0,P|176:99|174:135,1,71.9999978027344,6|0,1:2|3:2,0:2:0:0:
321,278,25965,2,0,P|338:247|340:211,1,71.9999978027344,8|2,0:2|3:2,0:0:0:0:
172,384,26279,2,0,P|166:348|160:313,2,71.9999978027344,2|0|8,1:2|1:2|0:2,0:2:0:0:
223,247,26750,6,0,B|187:207|135:219|135:219|114:245|84:247,1,155.999992858887,2|0,0:2|0:2,0:2:0:0:
72,262,27064,1,0,0:2:0:0:
0,94,27221,1,10,0:2:0:0:
68,158,27378,1,0,0:2:0:0:
203,102,27535,2,0,P|167:96|132:90,1,71.9999978027344,0|0,1:2|1:2,0:0:0:0:
321,278,27849,6,0,B|387:260|395:302|465:283,1,143.999995605469,8|0,0:2|0:0,0:0:0:0:
483,293,28163,2,0,P|477:257|471:222,1,71.9999978027344,6|0,1:2|0:2,0:2:0:0:
375,115,28478,2,0,P|381:150|386:185,1,71.9999978027344,10|0,0:2|0:2,0:2:0:0:
274,366,28792,2,0,P|237:329|227:277,1,107.999996704102,2|0,1:2|0:0,0:0:0:0:
229,261,29106,1,2,0:2:0:0:
375,115,29263,6,0,P|446:103|516:91,1,143.999995605469,8|0,0:2|1:2,0:0:0:0:
463,8,29734,2,0,P|427:13|392:19,1,71.9999978027344,8|2,0:2|0:2,0:0:0:0:
457,220,30048,2,0,P|421:214|386:208,1,71.9999978027344,0|0,1:2|1:2,0:0:0:0:
286,128,30362,1,10,0:2:0:0:
286,128,30519,1,0,1:2:0:0:
279,289,30677,6,0,P|284:253|290:218,1,71.9999978027344,2|0,1:2|0:0,0:2:0:0:
201,83,30991,2,0,P|194:118|189:153,1,71.9999978027344,10|0,0:2|0:2,0:2:0:0:
107,254,31305,2,0,P|69:244|43:211,2,71.9999978027344,2|0|2,1:2|3:2|0:2,0:0:0:0:
286,128,31776,6,0,P|357:116|427:104,1,143.999995605469,8|0,0:2|1:2,0:0:0:0:
334,28,32247,2,0,P|298:22|263:15,1,71.9999978027344,10|2,0:2|0:2,0:0:0:0:
290,217,32561,2,0,P|325:222|360:229,1,71.9999978027344,0|0,1:2|1:2,0:0:0:0:
200,292,32876,6,0,P|188:221|176:152,1,125.999996154785,10|0,0:2|0:0,0:0:0:0:
188,153,33190,6,0,P|150:158|122:181,1,71.9999978027344,6|0,1:2|0:0,0:2:0:0:
199,384,33504,2,0,P|237:379|265:356,1,71.9999978027344,8|0,0:2|0:2,0:0:0:0:
106,270,33818,2,0,P|70:276|35:282,2,71.9999978027344,0|0|8,1:2|3:2|0:2,0:0:0:0:
290,217,34289,6,0,B|350:207|388:202|388:202|407:223|433:227,1,143.999995605469,0|0,3:1|1:2,0:2:0:0:
348,59,34760,2,0,P|328:90|324:130,1,71.9999978027344,8|0,0:2|0:2,0:2:0:0:
200,292,35074,1,2,1:2:0:0:
106,270,35232,1,0,1:2:0:0:
9,51,35389,6,0,P|74:62|139:73,1,132.00000402832,8|0,0:2|0:0,0:2:0:0:
150,87,35703,2,0,P|156:51|162:16,1,71.9999978027344,4|0,1:2|0:0,0:2:0:0:
79,157,36017,2,0,P|72:192|66:227,1,71.9999978027344,8|0,0:2|0:2,0:0:0:0:
242,129,36331,1,0,1:2:0:0:
242,129,36488,1,0,1:2:0:0:
150,87,36645,1,8,0:2:0:0:
206,272,36802,6,0,B|273:253|280:295|348:278,1,143.999995605469,0|0,3:2|1:2,0:2:0:0:
388,181,37273,2,0,P|352:187|317:192,1,71.9999978027344,8|0,0:2|0:2,0:2:0:0:
347,374,37588,2,0,P|382:367|417:362,1,71.9999978027344,0|0,1:2|1:2,0:0:0:0:
486,225,37902,2,0,P|493:184|462:121,1,107.999996704102,8|0,0:2|0:0,0:0:0:0:
388,181,38216,6,0,P|381:216|376:251,1,64,6|0,1:2|1:2,0:0:0:0:
412,46,38530,1,8,0:2:0:0:
337,105,38687,6,0,P|305:99|278:82,2,64,2|2|8,3:2|1:2|0:2,0:0:0:0:
239,208,39158,2,0,P|271:202|298:185,2,64,2|2|8,3:2|1:2|0:2,0:0:0:0:
334,323,39629,2,0,P|302:317|275:300,2,64,2|2|8,3:2|1:2|0:2,0:0:0:0:
179,283,40101,5,0,1:3:0:0:
88,264,40258,1,8,0:2:0:0:
0,245,40415,1,0,3:2:0:0:
113,105,40572,5,0,0:0:0:0:
113,105,40729,2,0,P|108:137|103:169,1,64,4|2,1:2|1:2,0:0:0:0:
88,264,41043,1,8,0:2:0:0:
261,354,41200,5,0,3:2:0:0:
244,266,41357,2,0,P|239:234|234:202,1,64,0|8,1:2|0:2,0:2:0:0:
363,54,41671,5,0,3:2:0:0:
363,54,41828,1,0,1:2:0:0:
348,146,41985,2,0,P|343:178|338:210,1,64,8|0,0:2|1:2,0:0:0:0:
434,115,42300,6,0,P|466:120|498:125,1,64,0|8,1:2|0:2,0:0:0:0:
278,90,42614,2,0,P|246:85|214:80,1,64,0|8,3:2|0:2,0:0:0:0:
323,297,42928,1,0,3:2:0:0:
323,297,43242,6,0,P|355:302|387:307,2,64,6|2|8,1:2|1:2|0:2,0:0:0:0:
198,377,43713,2,0,P|230:372|262:367,2,64,2|2|8,3:2|1:2|0:2,0:0:0:0:
76,292,44184,2,0,P|108:297|140:302,2,64,2|2|8,3:2|1:2|0:2,0:0:0:0:
216,204,44656,5,2,3:2:0:0:
216,204,44813,2,0,P|184:209|152:214,1,64,2|8,1:2|0:2,0:2:0:0:
35,127,45127,2,0,P|67:132|99:137,1,64,2|0,3:2|1:2,0:0:0:0:
177,87,45441,2,0,P|207:47|211:0,1,96,10|0,0:2|0:2,0:2:0:0:
211,2,45755,6,0,P|290:14|369:26,2,143.999995605469,6|8|2,1:2|0:2|1:2,0:2:0:0:
267,170,46540,1,0,0:2:0:0:
267,170,46698,2,0,P|272:134|277:98,1,71.9999978027344,10|0,0:2|0:2,0:2:0:0:
451,3,47012,2,0,P|445:38|440:74,1,71.9999978027344,2|0,1:2|0:2,0:0:0:0:
344,224,47326,6,0,P|314:261|236:274,1,107.999996704102,12|0,0:2|0:0,0:0:0:0:
215,162,47640,2,0,P|250:167|286:172,3,51.999997619629,0|0|8|0,1:2|1:2|1:2|1:2,0:0:0:0:
231,73,47954,2,0,P|256:76|282:80,3,51.999997619629,0|0|8|0,1:2|1:2|0:2|1:2,0:0:0:0:
141,105,48268,6,0,B|83:88|77:124|18:110,1,120,6|0,1:2|0:2,0:2:0:0:
12,126,48582,2,0,P|19:176|26:226,1,80,10|0,0:2|0:2,0:2:0:0:
135,298,48896,1,2,1:2:0:0:
215,162,49054,1,0,1:2:0:0:
32,305,49211,2,0,P|25:344|20:384,1,80,10|0,0:2|0:2,0:2:0:0:
257,277,49525,6,0,P|298:275|339:249,1,80,2|0,1:2|1:2,0:0:0:0:
277,61,49839,2,0,P|236:63|195:89,1,80,10|0,0:2|3:2,0:2:0:0:
265,166,50153,2,0,P|304:160|392:147,1,120,2|0,1:2|0:0,0:0:0:0:
400,160,50467,2,8,P|394:120|388:80,1,80,10|0,0:2|0:2,0:2:0:0:
485,210,50781,6,0,P|508:248|509:294,1,80,2|0,1:2|1:2,0:2:0:0:
265,166,51095,2,0,P|269:126|291:93,1,80,10|0,0:2|0:2,3:2:0:0:
437,0,51410,5,2,1:2:0:0:
437,0,51567,1,0,1:2:0:0:
291,93,51724,2,0,P|251:87|211:81,1,80,10|0,0:2|0:2,3:2:0:0:
512,282,52038,6,0,B|454:264|448:300|391:286,1,120,2|0,1:2|0:0,0:0:0:0:
383,274,52352,2,0,P|377:314|371:354,1,80,10|0,0:2|3:2,0:0:0:0:
253,245,52666,2,0,P|259:205|265:165,1,80,2|0,1:2|1:2,0:0:0:0:
99,7,52980,2,0,P|64:39|55:116,1,120,8|0,0:2|0:0,3:2:0:0:
165,162,53294,6,0,P|159:122|153:82,1,80,6|0,1:2|0:0,0:2:0:0:
0,213,53609,2,0,P|6:253|12:293,1,80,10|0,0:2|0:2,0:2:0:0:
253,245,53923,5,2,1:2:0:0:
271,158,54080,1,0,1:2:0:0:
153,82,54237,2,0,P|113:76|73:70,1,80,10|0,0:2|0:2,0:2:0:0:
4,310,54551,6,0,B|79:286|87:333|162:315,1,160,2|10,1:2|0:2,0:0:0:0:
274,138,55022,1,0,0:2:0:0:
274,138,55101,1,0,0:0:0:0:
274,138,55179,2,0,P|289:95|286:46,1,80,0|0,1:2|1:2,0:0:0:0:
84,25,55493,2,0,P|69:68|72:117,1,80,12|0,0:2|0:0,0:0:0:0:
165,162,55807,6,0,P|171:122|177:82,1,80,14|0,0:2|1:2,0:0:0:0:
149,259,56122,1,0,1:2:0:0:
273,137,56279,6,0,P|279:177|285:217,1,80,10|0,0:2|1:2,0:0:0:0:
262,44,56593,1,0,1:2:0:0:
262,44,56750,1,10,0:2:0:0:
446,120,56907,5,0,1:2:0:0:
285,217,57064,2,0,P|325:211|365:205,1,80,12|2,0:2|1:2,0:2:0:0:
434,271,57378,1,10,0:2:0:0:
261,320,57535,6,0,B|217:312|197:280|197:280|165:304|119:300,1,160,10|0,0:2|1:2,0:0:0:0:
262,44,58006,2,0,P|288:83|289:125,1,80,8|0,0:2|1:2,0:0:0:0:
199,159,58321,6,0,P|140:150|81:142,1,120,4|0,1:2|0:2,0:2:0:0:
68,155,58635,2,0,P|74:115|80:75,1,80,10|0,0:2|0:2,0:2:0:0:
126,304,58949,1,2,1:2:0:0:
126,304,59106,1,0,1:2:0:0:
285,217,59263,2,0,P|344:226|403:234,1,120,10|0,0:2|0:0,0:2:0:0:
419,249,59577,6,0,P|443:214|446:171,1,80,2|0,1:2|1:2,0:0:0:0:
371,60,59891,2,0,P|365:99|359:139,1,80,10|0,0:2|0:2,0:2:0:0:
175,332,60205,6,0,P|151:297|148:254,1,80,2|0,1:2|1:2,0:2:0:0:
72,144,60519,2,0,P|111:150|151:155,1,80,10|0,0:2|0:2,0:2:0:0:
371,60,60834,6,0,B|314:41|307:77|250:63,1,120,6|0,1:2|0:0,0:2:0:0:
182,29,61148,2,0,P|167:10|182:26,1,80,10|0,0:2|0:2,0:2:0:0:
273,157,61462,1,2,1:2:0:0:
273,157,61619,1,0,1:2:0:0:
159,331,61776,2,0,P|163:291|170:251,1,80,10|0,0:2|0:2,0:2:0:0:
357,218,62090,6,0,P|379:250|386:292,1,80,2|0,1:2|1:2,0:0:0:0:
172,153,62404,2,0,P|179:112|202:80,1,80,10|0,0:2|3:2,0:0:0:0:
363,0,62718,6,0,P|369:39|374:79,1,80,2|0,1:2|1:2,0:0:0:0:
460,146,63033,2,0,P|464:106|471:66,1,80,8|0,0:2|0:2,0:2:0:0:
259,253,63347,6,0,P|201:245|135:235,1,120,6|0,1:2|0:2,0:2:0:0:
127,252,63661,2,0,P|121:293|114:340,1,80,10|0,0:2|0:2,0:2:0:0:
265,150,63975,1,2,1:2:0:0:
279,66,64132,1,0,1:2:0:0:
96,109,64289,2,0,P|56:103|16:97,1,80,10|0,0:2|0:2,0:2:0:0:
259,253,64603,6,0,B|325:261|356:265|356:265|374:293|407:304,1,160,2|10,1:2|0:2,0:0:0:0:
433,209,65074,1,0,0:2:0:0:
221,362,65232,2,0,P|260:356|300:350,1,80,2|0,1:2|1:2,0:0:0:0:
344,161,65546,2,0,P|304:155|264:149,1,80,10|0,0:2|0:0,0:0:0:0:
44,34,65860,6,0,P|9:73|1:141,1,120,14|0,1:2|0:0,0:0:0:0:
4,152,66174,1,0,1:2:0:0:
106,186,66331,2,0,P|100:146|94:106,1,80,10|0,0:2|3:2,0:0:0:0:
16,290,66645,1,0,1:2:0:0:
193,136,66802,2,0,P|232:130|272:124,1,80,10|0,0:2|1:2,0:0:0:0:
44,34,67116,5,12,0:2:0:0:
193,235,67273,1,0,1:2:0:0:
27,199,67430,2,0,P|66:192|106:186,1,80,0|8,3:2|1:2,0:0:0:0:
264,38,67745,2,0,P|224:43|184:49,1,80,2|0,3:2|1:2,0:0:0:0:
193,235,68059,2,0,P|192:286|223:348,1,120,10|0,0:2|0:0,0:0:0:0:
283,260,68373,6,0,B|329:266|329:266|348:279|348:279|398:286,1,120,6|0,1:2|0:2,0:2:0:0:
413,298,68687,2,0,P|418:258|425:218,1,80,10|0,0:2|0:2,0:2:0:0:
352,101,69001,2,0,P|345:140|339:180,1,80,2|0,1:2|1:2,0:2:0:0:
221,334,69315,2,0,P|182:322|141:321,1,80,10|0,0:2|0:2,0:2:0:0:
27,199,69629,6,0,P|27:159|69:90,1,120,2|0,1:2|0:0,0:0:0:0:
130,156,69944,2,0,P|136:195|142:235,1,80,10|0,0:2|0:2,0:2:0:0:
14,371,70258,2,0,P|7:331|1:291,1,80,2|0,1:2|1:2,0:2:0:0:
141,346,70572,2,0,P|180:339|220:333,1,80,10|0,0:2|0:2,0:2:0:0:
326,215,70886,6,0,P|365:208|448:264,1,120,6|0,1:2|0:2,0:2:0:0:
449,237,71200,2,0,P|472:193|468:154,1,80,8|2,0:2|3:2,0:2:0:0:
264,110,71514,2,0,P|241:154|245:193,1,80,2|0,1:2|1:2,0:0:0:0:
374,117,71828,2,0,P|379:77|386:38,1,80,10|0,0:2|0:2,0:2:0:0:
176,72,72143,6,0,P|96:59|25:48,1,120,0|0,1:2|0:0,0:0:0:0:
48,43,72457,2,0,P|42:82|35:121,1,80,10|0,0:2|0:2,0:2:0:0:
108,240,72771,2,0,P|113:200|120:161,1,80,2|0,1:2|1:2,0:2:0:0:
254,20,73085,2,0,P|286:68|285:117,1,80,10|0,0:2|0:2,0:2:0:0:
380,211,73399,6,0,B|437:192|442:229|501:214,1,120,6|0,1:2|0:0,0:0:0:0:
512,225,73713,2,0,P|504:185|499:146,1,80,10|0,0:2|0:2,0:2:0:0:
394,38,74027,2,0,P|401:77|406:116,1,80,2|0,1:2|1:2,0:0:0:0:
326,296,74341,2,0,P|286:301|247:308,1,80,10|0,0:2|0:2,0:2:0:0:
415,354,74656,5,0,1:2:0:0:
415,354,74813,1,0,1:2:0:0:
287,213,74970,2,0,P|247:218|208:225,1,80,8|0,0:2|0:2,0:2:0:0:
394,38,75284,5,2,1:2:0:0:
512,225,75441,1,0,1:2:0:0:
310,119,75598,1,10,0:2:0:0:
502,21,75755,1,0,0:2:0:0:
401,232,75912,6,0,P|406:192|413:153,1,80,4|0,1:2|0:0,0:2:0:0:
215,50,76226,2,0,P|209:89|202:128,1,80,10|0,0:2|1:2,0:0:0:0:
315,24,76540,6,0,P|354:31|393:37,1,80,10|0,0:2|1:2,0:0:0:0:
301,258,76855,2,0,P|261:250|222:244,1,80,10|0,0:2|1:2,0:0:0:0:
0,142,77169,6,0,P|-3:101|46:40,1,120,10|0,0:2|0:0,0:0:0:0:
110,108,77483,2,0,P|102:147|96:186,1,80,10|0,0:2|1:2,0:0:0:0:
208,323,77797,6,0,P|215:283|221:244,1,80,10|0,0:2|1:2,0:0:0:0:
93,303,78111,1,10,0:2:0:0:
222,148,78268,1,0,1:2:0:0:
222,148,78347,1,0,0:0:0:0:
222,148,78425,6,0,B|297:124|305:171|379:153,2,160,6|10|2,1:2|0:2|1:2,0:2:0:0:
327,0,79211,2,0,P|320:40|314:79,1,64,2|0,3:2|1:2,0:0:0:0:
459,216,79525,2,0,P|470:152|480:89,1,128,10|2,0:2|1:2,0:0:0:0:
378,153,79996,6,0,P|346:158|314:163,1,64,8|0,0:2|0:0,0:2:0:0:
345,326,80310,2,0,P|376:320|408:315,1,64,2|2,1:2|1:2,0:2:0:0:
265,259,80624,2,0,P|219:272|188:324,1,96,8|0,0:2|0:0,0:0:0:0:
177,300,80938,6,0,P|163:333|163:366,1,64,6|2,1:2|0:2,0:2:0:0:
56,214,81252,2,0,P|89:228|122:228,1,64,8|0,0:2|0:2,0:0:0:0:
231,140,81567,2,0,P|198:154|165:154,1,64,2|2,1:2|3:2,0:2:0:0:
106,84,81881,1,0,1:2:0:0:
106,84,82038,1,8,0:2:0:0:
265,259,82195,6,0,P|303:252|341:246,1,64,2|2,3:2|1:2,0:2:0:0:
490,147,82509,2,0,P|458:152|426:157,1,64,8|0,0:2|1:2,0:0:0:0:
240,51,82823,1,2,0:2:0:0:
240,51,82980,1,2,3:2:0:0:
333,31,83137,6,0,P|327:62|322:94,1,64,12|0,0:2|0:0,0:2:0:0:
410,378,83451,2,0,P|420:314|431:251,2,128,6|10|2,1:2|0:2|1:2,0:2:0:0:
328,247,84237,2,0,P|296:252|264:257,1,64,2|0,3:2|0:2,0:2:0:0:
52,187,84551,6,0,P|53:138|106:83,1,128,10|2,0:2|1:2,0:0:0:0:
170,149,85022,2,0,P|174:180|180:212,1,64,8|0,0:2|0:2,0:2:0:0:
10,342,85336,2,0,P|4:310|0:278,1,64,2|2,1:2|1:2,0:0:0:0:
30,15,85650,5,14,0:2:0:0:
30,15,85965,5,10,0:2:0:0:
100,278,86122,1,10,0:2:0:0:
306,100,86436,5,10,0:2:0:0:
264,257,86593,1,10,0:2:0:0:
366,203,86907,5,10,0:2:0:0:
209,161,87064,1,10,0:2:0:0:
442,286,87378,5,10,0:2:0:0:
179,356,87535,1,14,0:2:0:0:
