osu file format v14

[General]
AudioFilename: audio.mp3
AudioLeadIn: 0
PreviewTime: 48268
Countdown: 0
SampleSet: Soft
StackLeniency: 0.4
Mode: 0
LetterboxInBreaks: 0
WidescreenStoryboard: 1

[Editor]
Bookmarks: 85965
DistanceSpacing: 1.1
BeatDivisor: 4
GridSize: 8
TimelineZoom: 1.8

[Metadata]
Title:After Dark (TV Size)
TitleUnicode:アフターダーク (TV Size)
Artist:ASIAN KUNG-FU GENERATION
ArtistUnicode:ASIAN KUNG-FU GENERATION
Creator:Nelliel
Version:Espada
Source:BLEACH
Tags:ブリーチ op 7 opening j-pop japanese agatsu haruto yuuya_ke my_angel_ram haruto_aizawa -mikan World ワールド pop jpop yuuya ke bazz b bazz_b my angel ram aizawa
BeatmapID:2489792
BeatmapSetID:1129438

[Difficulty]
HPDrainRate:5.7
CircleSize:4
OverallDifficulty:9
ApproachRate:9.3
SliderMultiplier:1.8
SliderTickRate:1

[Events]
//Background and Video events
0,0,"cropped-1920-1080-219388.jpg",0,0
Video,0,"Video-1.mp4"
//Break Periods
//Storyboard Layer 0 (Background)
//Storyboard Layer 1 (Fail)
//Storyboard Layer 2 (Pass)
//Storyboard Layer 3 (Foreground)
//Storyboard Layer 4 (Overlay)
//Storyboard Sound Samples

[TimingPoints]
520,314.13612565445,4,2,22,50,1,0
520,-133.333333333333,4,2,22,50,0,0
3033,-117.647058823529,4,2,22,60,0,0
8059,-117.647058823529,4,2,22,70,0,0
12771,-86.9565217391302,4,2,22,70,0,0
13085,-100,4,2,22,80,0,0
18111,-125,4,2,22,70,0,0
23137,-100,4,2,22,80,0,0
28163,-125,4,2,22,70,0,0
33190,-100,4,2,22,80,0,0
37902,-285.714285714283,4,2,22,80,0,0
38216,-133.333333333333,4,2,22,70,0,0
45755,-125,4,2,22,70,0,0
48268,-83.3333333333333,4,2,22,90,0,1
78425,-100,4,2,22,70,0,0
83137,-80,4,2,22,70,0,0
83451,-100,4,2,22,70,0,0

[Colours]
Combo1 : 223,0,0
Combo2 : 255,128,64
Combo3 : 255,255,170

[HitObjects]
29,80,520,6,0,P|82:73|144:62,1,101.250003862381,4|0,1:2|0:2,0:2:0:0:
165,47,834,1,8,0:2:0:0:
342,212,1148,1,0,1:2:0:0:
342,212,1305,2,0,P|349:170|354:128,1,67.5000025749208,0|0,1:2|0:2,0:2:0:0:
244,159,1619,2,0,P|256:231|267:304,1,135.000005149842,8|0,0:2|1:2,0:2:0:0:
94,244,2090,2,0,P|124:226|160:233,1,67.5000025749208,8|0,0:2|3:2,0:2:0:0:
224,366,2404,1,0,1:2:0:0:
224,366,2561,1,0,1:2:0:0:
354,283,2718,2,0,P|320:278|287:272,1,67.5000025749208,8|0,0:2|1:2,0:0:0:0:
424,215,3033,5,6,1:2:0:0:
361,362,3190,1,2,0:2:0:0:
183,210,3347,2,0,P|269:197|354:181,1,153.000002918243,8|2,0:2|1:2,0:2:0:0:
232,36,3818,2,0,P|223:80|241:112,1,76.5000014591217,2|0,1:2|0:2,0:2:0:0:
427,47,4132,1,8,0:2:0:0:
401,235,4289,5,2,3:2:0:0:
319,65,4446,1,2,1:2:0:0:
172,176,4603,2,0,B|217:172|267:164|267:164|279:188|295:220,1,153.000002918243,8|2,0:2|1:2,0:2:0:0:
316,375,5074,1,2,1:2:0:0:
170,297,5232,2,0,L|245:308,1,76.5000014591217,8|0,0:2|1:2,0:2:0:0:
84,180,5546,5,6,1:2:0:0:
27,350,5703,1,2,0:0:0:0:
153,222,5860,2,0,P|153:142|85:101,1,153.000002918243,8|2,0:2|1:2,0:2:0:0:
295,38,6331,2,0,P|255:45|219:49,1,76.5000014591217,2|0,1:2|0:2,0:2:0:0:
327,205,6645,1,8,0:2:0:0:
406,30,6802,5,2,3:2:0:0:
250,131,6959,1,2,1:2:0:0:
430,243,7116,2,0,P|390:236|354:231,1,76.5000014591217,8|0,0:2|0:2,0:2:0:0:
173,355,7430,1,2,1:2:0:0:
178,317,7508,1,8,0:2:0:0:
203,289,7587,1,2,1:2:0:0:
239,279,7665,1,0,1:2:0:0:
275,291,7744,1,12,0:2:0:0:
275,291,8059,5,6,1:2:0:0:
177,177,8216,1,0,0:0:0:0:
383,208,8373,2,0,L|223:227,1,153.000002918243,10|2,0:2|1:2,0:0:0:0:
105,146,8844,2,0,P|121:113|164:98,1,76.5000014591217,2|0,1:2|0:2,0:2:0:0:
272,122,9158,1,8,0:2:0:0:
164,247,9315,5,2,3:2:0:0:
228,62,9472,1,2,1:2:0:0:
366,212,9629,2,0,L|289:204,1,76.5000014591217,8|0,0:2|0:2,0:2:0:0:
343,61,9944,2,0,P|359:94|349:131,1,76.5000014591217,2|2,1:2|1:2,0:0:0:0:
194,189,10258,2,0,P|185:146|179:112,1,76.5000014591217,8|0,0:2|1:2,0:2:0:0:
296,225,10572,5,6,1:2:0:0:
150,282,10729,1,0,0:0:0:0:
257,384,10886,2,0,L|419:360,1,153.000002918243,10|2,0:2|0:2,0:0:0:0:
296,225,11357,2,0,P|317:257|308:306,1,76.5000014591217,2|0,0:2|0:2,0:2:0:0:
383,144,11671,1,8,0:2:0:0:
217,164,11828,5,2,1:2:0:0:
377,214,11985,1,2,1:2:0:0:
243,88,12143,2,0,L|156:99,1,76.5000014591217,8|0,0:2|3:2,0:2:0:0:
135,118,12378,1,8,0:2:0:0:
135,118,12457,2,0,L|91:112,1,38.2500007295609,0|8,3:2|0:2,0:2:0:0:
23,225,12614,2,0,L|18:187,1,38.2500007295609,0|0,1:2|1:2,0:0:0:0:
177,291,12771,6,0,P|227:235|301:244,1,155.250002961159,14|0,0:2|0:2,0:2:0:0:
336,274,13085,2,0,L|345:183,1,90,6|0,1:2|0:2,0:2:0:0:
37,43,13399,1,8,0:2:0:0:
170,226,13556,1,2,3:2:0:0:
170,0,13713,1,2,1:2:0:0:
37,182,13870,1,0,1:2:0:0:
251,113,14027,1,8,0:2:0:0:
40,204,14184,6,0,B|159:176|159:176|193:236,1,180,6|0,1:2|1:2,0:2:0:0:
371,136,14656,2,0,P|320:129|271:114,1,90,8|0,0:2|0:0,0:2:0:0:
288,322,14970,2,0,P|284:278|309:241,1,90,0|0,1:2|1:2,0:0:0:0:
481,365,15284,2,0,P|430:372|381:387,1,90,10|2,0:2|3:2,0:2:0:0:
405,141,15598,6,0,B|455:169|455:169|427:288,1,180,6|8,1:2|0:2,0:2:0:0:
261,131,16069,1,2,0:2:0:0:
462,46,16226,1,2,1:2:0:0:
340,241,16383,1,0,1:2:0:0:
169,92,16540,1,8,0:2:0:0:
45,291,16698,6,0,B|151:331|151:331|209:268,1,180,6|0,1:2|1:2,0:2:0:0:
163,12,17169,2,0,P|83:71|120:155,1,180,8|0,0:2|1:2,0:2:0:0:
269,313,17640,1,0,1:2:0:0:
415,185,17797,2,0,P|370:179|325:174,1,90,10|0,0:2|0:0,0:0:0:0:
383,23,18111,6,0,P|395:61|361:108,1,72,6|0,1:2|0:2,0:2:0:0:
233,156,18425,2,0,P|227:111|222:66,1,72,10|0,0:2|0:2,0:2:0:0:
358,235,18739,1,0,1:2:0:0:
190,290,18896,1,0,3:2:0:0:
306,181,19054,1,0,1:2:0:0:
293,353,19211,6,0,B|232:336|232:336|203:352|203:352|131:329,1,144,8|0,0:2|1:2,0:0:0:0:
0,290,19682,1,10,0:2:0:0:
198,250,19839,2,0,P|132:229|83:277,1,144,2|0,3:2|1:2,0:0:0:0:
288,227,20310,2,0,P|292:191|297:155,1,72,10|0,0:2|0:2,0:2:0:0:
434,70,20624,6,0,P|398:74|362:79,1,72,6|0,1:2|0:0,0:2:0:0:
198,9,20938,2,0,P|233:13|269:18,1,72,10|0,0:2|0:2,0:2:0:0:
150,166,21252,1,2,1:2:0:0:
91,22,21410,1,0,3:2:0:0:
223,109,21567,1,2,0:2:0:0:
51,204,21724,6,0,B|93:184|127:216|123:225|133:264|198:244,1,144,8|0,0:2|1:2,0:0:0:0:
324,196,22195,1,10,0:2:0:0:
342,357,22352,2,0,B|305:307|245:330|245:330|266:335|283:362,1,144,2|0,0:2|1:2,0:2:0:0:
416,277,22823,1,10,0:2:0:0:
255,237,22980,1,2,0:2:0:0:
483,239,23137,6,0,P|404:201|339:275,1,180,6|8,1:2|0:2,0:2:0:0:
444,64,23609,1,2,0:2:0:0:
243,125,23766,1,2,1:2:0:0:
469,67,23923,1,0,1:2:0:0:
254,4,24080,1,8,0:2:0:0:
290,221,24237,6,0,B|191:187|215:300|101:254,1,180,2|0,3:2|1:2,0:2:0:0:
51,60,24708,2,0,P|91:78|99:130,1,90,10|0,0:2|0:2,0:2:0:0:
36,319,25022,2,0,P|71:293|120:312,1,90,2|0,1:2|1:2,0:0:0:0:
306,227,25336,2,0,L|218:209,1,90,10|0,0:2|0:2,0:0:0:0:
372,356,25650,6,0,B|431:314|431:314|399:200,1,180,6|8,1:2|0:2,0:2:0:0:
342,49,26122,1,2,3:2:0:0:
259,272,26279,1,2,1:2:0:0:
456,142,26436,1,0,1:2:0:0:
233,98,26593,1,8,0:2:0:0:
480,174,26750,6,0,B|361:152|361:152|327:216,1,180,2|0,0:2|0:2,0:2:0:0:
179,28,27221,2,0,P|219:2|272:22,1,90,10|0,0:2|0:2,0:2:0:0:
129,168,27535,2,0,L|42:149,1,90,0|0,1:2|1:2,0:0:0:0:
178,320,27849,2,0,L|265:301,1,90,8|0,0:2|0:0,0:0:0:0:
329,182,28163,6,0,P|305:161|256:163,1,72,6|0,1:2|0:2,0:2:0:0:
412,289,28478,2,0,L|393:376,1,72,10|0,0:2|0:2,0:2:0:0:
470,209,28792,1,2,1:2:0:0:
322,271,28949,1,0,3:2:0:0:
386,128,29106,1,2,0:2:0:0:
255,234,29263,6,0,P|251:303|305:348,1,144,8|0,0:2|1:2,0:0:0:0:
160,215,29734,1,8,0:2:0:0:
63,352,29891,2,0,P|106:299|173:313,1,144,2|0,0:2|1:2,0:0:0:0:
358,239,30362,2,0,L|271:223,1,72,10|0,0:2|1:2,0:2:0:0:
165,87,30677,6,0,L|181:174,1,72,2|0,1:2|0:0,0:2:0:0:
317,21,30991,2,0,L|301:108,1,72,10|0,0:2|0:2,0:2:0:0:
411,74,31305,1,2,1:2:0:0:
235,32,31462,1,0,3:2:0:0:
394,0,31619,1,2,0:2:0:0:
343,167,31776,6,0,L|310:316,1,144,8|0,0:2|1:2,0:0:0:0:
183,201,32247,1,10,0:2:0:0:
99,330,32404,2,0,B|190:352|190:352|228:306,1,144,2|0,0:2|1:2,0:2:0:0:
72,206,32876,1,10,0:2:0:0:
16,337,33033,1,2,3:2:0:0:
151,246,33190,6,0,P|173:165|101:98,1,180,6|8,1:2|0:2,0:2:0:0:
0,75,33661,1,0,0:2:0:0:
198,12,33818,1,0,1:2:0:0:
91,191,33975,1,0,3:2:0:0:
43,0,34132,1,8,0:2:0:0:
215,113,34289,6,0,B|326:94|326:94|371:156,1,180,0|0,3:1|1:2,0:2:0:0:
330,248,34760,2,0,P|282:237|228:227,1,90,8|0,0:2|0:2,0:2:0:0:
483,144,35074,2,0,P|451:176|422:211,1,90,2|0,1:2|1:2,0:0:0:0:
442,384,35389,2,0,P|428:340|412:298,1,90,8|0,0:2|0:2,0:2:0:0:
292,124,35703,6,0,P|268:202|240:302,1,180,4|8,1:2|0:2,0:2:0:0:
70,132,36174,1,0,0:2:0:0:
104,340,36331,1,0,1:2:0:0:
200,176,36488,1,0,1:2:0:0:
166,384,36645,1,8,0:2:0:0:
17,248,36802,6,0,B|113:275|98:190|197:218,1,180,0|0,3:2|1:2,0:2:0:0:
274,348,37273,2,0,P|317:342|364:335,1,90,8|0,0:2|0:2,0:2:0:0:
385,176,37588,2,0,P|334:167|284:162,1,90,0|0,1:2|1:2,0:0:0:0:
486,292,37902,1,8,0:2:0:0:
486,292,38216,5,6,1:2:0:0:
456,151,38373,2,0,P|450:115|446:79,1,67.5000025749208,0|8,1:2|0:2,0:2:0:0:
335,243,38687,1,2,3:2:0:0:
365,102,38844,2,0,P|371:66|375:30,1,67.5000025749208,2|8,1:2|0:2,0:2:0:0:
237,207,39158,1,2,3:2:0:0:
177,71,39315,6,0,P|171:35|167:-1,1,67.5000025749208,2|8,1:2|0:2,0:2:0:0:
305,176,39629,1,2,3:2:0:0:
103,250,39787,2,0,P|139:244|175:240,1,67.5000025749208,2|8,1:2|0:2,0:2:0:0:
318,370,40101,2,0,P|282:364|246:360,1,67.5000025749208,0|8,1:3|0:2,0:0:0:0:
317,175,40415,2,0,P|298:206|307:241,1,67.5000025749208,0|0,3:2|0:0,0:0:0:0:
441,334,40729,5,4,1:2:0:0:
472,175,40886,2,0,P|438:180|405:184,1,67.5000025749208,2|8,1:2|0:2,0:2:0:0:
231,272,41200,1,0,3:2:0:0:
200,113,41357,2,0,P|233:118|266:122,1,67.5000025749208,0|8,1:2|0:2,0:2:0:0:
400,260,41671,1,0,3:2:0:0:
459,90,41828,6,0,P|425:94|392:99,1,67.5000025749208,0|8,1:2|0:2,0:2:0:0:
232,7,42143,1,0,1:2:0:0:
201,192,42300,1,0,1:2:0:0:
325,35,42457,1,8,0:2:0:0:
294,220,42614,1,0,3:2:0:0:
150,101,42771,1,8,0:2:0:0:
348,162,42928,1,0,3:2:0:0:
348,162,43242,5,6,1:2:0:0:
189,312,43399,2,0,P|155:306|122:302,1,67.5000025749208,2|8,1:2|0:2,0:2:0:0:
270,144,43713,1,2,3:2:0:0:
429,294,43870,2,0,P|462:288|495:284,1,67.5000025749208,2|8,1:2|0:2,0:2:0:0:
357,79,44184,1,2,3:2:0:0:
198,229,44341,6,0,P|164:223|131:219,1,67.5000025749208,2|8,1:2|0:2,0:2:0:0:
261,43,44656,1,2,3:2:0:0:
420,193,44813,2,0,P|453:187|486:183,1,67.5000025749208,2|8,1:2|0:2,0:2:0:0:
344,0,45127,1,2,3:2:0:0:
249,177,45284,1,0,1:2:0:0:
445,71,45441,1,10,0:2:0:0:
445,71,45755,6,0,B|366:42|374:119|292:93,1,144,6|8,1:2|0:2,0:2:0:0:
157,30,46226,1,0,0:2:0:0:
199,180,46383,2,0,P|203:144|210:108,1,72,2|0,1:2|0:2,0:0:0:0:
82,278,46698,2,0,P|78:240|71:203,1,72,10|0,0:2|0:2,0:2:0:0:
161,331,47012,5,2,1:2:0:0:
0,222,47169,1,0,0:2:0:0:
160,112,47326,2,0,P|155:147|149:183,1,72,12|0,0:2|0:0,0:0:0:0:
240,291,47640,1,0,1:2:0:0:
256,270,47718,1,0,1:2:0:0:
280,257,47797,1,8,1:2:0:0:
307,255,47875,1,0,1:2:0:0:
333,263,47954,1,0,1:2:0:0:
373,280,48032,1,0,1:2:0:0:
416,271,48111,1,8,0:2:0:0:
444,236,48189,1,0,1:2:0:0:
446,192,48268,6,0,P|388:186|332:179,1,107.999996704102,6|0,1:2|0:0,0:2:0:0:
114,51,48582,2,0,P|171:45|228:38,1,107.999996704102,10|0,0:2|0:2,0:2:0:0:
406,108,48896,2,0,P|415:56|385:12,1,107.999996704102,2|0,1:2|1:2,0:0:0:0:
174,133,49211,2,0,P|144:176|153:228,1,107.999996704102,10|0,0:2|0:2,0:2:0:0:
404,280,49525,5,2,1:2:0:0:
185,381,49682,1,0,1:2:0:0:
273,201,49839,2,0,P|277:254|284:308,1,107.999996704102,10|0,0:2|3:2,0:2:0:0:
45,283,50153,1,2,1:2:0:0:
264,384,50310,1,0,1:2:0:0:
176,204,50467,2,8,P|172:257|165:311,1,107.999996704102,10|0,0:2|0:2,0:2:0:0:
358,100,50781,6,0,P|310:70|250:88,1,107.999996704102,2|0,1:2|1:2,0:2:0:0:
66,193,51095,2,0,P|41:146|55:95,1,107.999996704102,10|0,0:2|0:2,3:2:0:0:
266,189,51410,2,0,P|261:242|254:296,1,107.999996704102,2|0,1:2|1:2,0:0:0:0:
147,58,51724,2,0,P|151:111|158:165,1,107.999996704102,10|0,0:2|0:2,3:2:0:0:
393,166,52038,6,0,P|362:95|237:95,2,215.999993408203,2|10|2,1:2|0:2|1:2,0:0:0:0:
338,328,52823,1,0,1:2:0:0:
490,125,52980,2,0,P|494:178|501:232,1,107.999996704102,8|0,0:2|3:2,3:2:0:0:
264,262,53294,6,0,P|307:227|363:244,1,107.999996704102,6|0,1:2|0:0,0:2:0:0:
202,368,53609,2,0,P|149:364|95:357,1,107.999996704102,10|0,0:2|0:2,0:2:0:0:
18,178,53923,2,0,P|71:171|125:166,1,107.999996704102,2|0,1:2|1:2,0:0:0:0:
307,78,54237,2,0,P|299:26|255:0,1,107.999996704102,10|0,0:2|0:2,0:2:0:0:
224,217,54551,5,2,1:2:0:0:
439,159,54708,1,0,1:2:0:0:
274,322,54865,2,0,P|220:317|166:310,1,107.999996704102,10|0,0:2|0:2,0:2:0:0:
319,141,55179,1,0,1:2:0:0:
377,356,55336,1,0,1:2:0:0:
227,210,55493,2,0,P|220:156|215:102,1,107.999996704102,12|0,0:2|0:0,0:0:0:0:
382,235,55807,5,14,0:2:0:0:
147,160,55965,1,0,1:2:0:0:
265,331,56122,1,0,1:2:0:0:
333,90,56279,5,10,0:2:0:0:
178,284,56437,1,0,1:2:0:0:
131,57,56594,1,0,1:2:0:0:
251,254,56750,5,10,0:2:0:0:
298,27,56907,1,0,1:2:0:0:
112,193,57064,5,12,0:2:0:0:
322,280,57221,1,2,1:2:0:0:
210,21,57378,1,10,0:2:0:0:
104,323,57535,5,10,0:2:0:0:
279,82,57692,1,0,3:2:0:0:
173,384,57849,1,0,1:2:0:0:
32,116,58006,5,8,0:2:0:0:
292,214,58163,1,0,1:2:0:0:
85,383,58321,6,0,P|77:315|72:262,1,107.999996704102,4|0,1:2|0:0,0:2:0:0:
295,301,58635,2,0,P|243:328|187:312,1,107.999996704102,10|0,0:2|0:2,0:2:0:0:
3,173,58949,2,0,P|56:167|110:161,1,107.999996704102,2|0,1:2|1:2,0:2:0:0:
253,67,59263,2,0,P|201:40|145:56,1,107.999996704102,10|0,0:2|0:2,0:2:0:0:
364,20,59577,5,2,1:2:0:0:
254,233,59734,1,0,1:2:0:0:
83,65,59891,2,0,P|136:71|190:76,1,107.999996704102,10|0,0:2|0:2,0:2:0:0:
392,229,60205,1,2,1:2:0:0:
182,323,60362,1,0,1:2:0:0:
337,134,60519,2,0,P|390:128|444:122,1,107.999996704102,10|0,0:2|0:2,0:2:0:0:
387,331,60834,6,0,P|333:324|279:319,1,107.999996704102,6|0,1:2|0:2,0:2:0:0:
126,170,61148,2,0,P|179:164|233:158,1,107.999996704102,10|0,0:2|0:2,0:2:0:0:
190,371,61462,2,0,P|162:327|183:271,1,107.999996704102,2|0,1:2|1:2,0:0:0:0:
346,110,61776,2,0,P|362:159|334:203,1,107.999996704102,10|0,0:2|0:2,0:2:0:0:
130,57,62090,5,2,1:2:0:0:
376,8,62247,1,0,1:2:0:0:
250,224,62404,2,0,P|227:173|238:116,1,107.999996704102,10|0,0:2|3:2,0:0:0:0:
468,71,62718,1,2,1:2:0:0:
222,22,62875,1,0,1:2:0:0:
353,230,63033,2,0,P|376:179|365:122,1,107.999996704102,8|0,0:2|0:2,0:2:0:0:
490,286,63347,6,0,P|495:232|501:178,1,107.999996704102,6|0,1:2|1:0,0:2:0:0:
321,298,63661,2,0,P|315:244|309:190,1,107.999996704102,10|0,0:2|0:2,0:2:0:0:
144,323,63975,2,0,P|149:269|155:215,1,107.999996704102,2|0,1:2|1:2,0:0:0:0:
12,278,64289,2,0,P|6:224|1:170,1,107.999996704102,10|0,0:2|0:2,0:2:0:0:
283,122,64603,6,0,B|169:48|169:48|87:96,2,215.999993408203,2|10|2,1:2|0:2|1:2,0:0:0:0:
463,242,65389,1,0,1:2:0:0:
289,353,65546,2,0,P|342:347|396:342,1,107.999996704102,10|0,0:2|0:0,0:0:0:0:
423,38,65860,5,14,1:2:0:0:
336,265,66017,1,0,1:2:0:0:
249,38,66174,1,0,1:2:0:0:
456,229,66331,5,10,0:2:0:0:
224,186,66488,1,0,3:2:0:0:
327,384,66645,1,0,1:2:0:0:
420,113,66802,5,10,0:2:0:0:
261,337,66959,1,0,1:2:0:0:
121,105,67116,5,12,0:2:0:0:
345,264,67273,1,0,1:2:0:0:
92,372,67430,1,0,3:2:0:0:
251,148,67588,5,8,1:2:0:0:
45,284,67745,1,2,3:2:0:0:
204,60,67902,1,0,1:2:0:0:
292,326,68059,5,10,0:2:0:0:
68,167,68216,1,0,1:2:0:0:
127,384,68373,6,0,P|187:373|255:366,1,107.999996704102,6|0,1:2|0:0,0:2:0:0:
381,207,68687,2,0,P|327:200|274:190,1,107.999996704102,10|0,0:2|0:2,0:2:0:0:
127,30,69001,2,0,P|181:23|234:13,1,107.999996704102,2|0,1:2|1:2,0:2:0:0:
177,300,69315,2,0,B|124:170|124:170|189:102,1,215.999993408203,10|2,0:2|1:2,0:2:0:0:
277,343,69787,5,0,1:2:0:0:
449,161,69944,2,0,P|395:154|342:144,1,107.999996704102,10|0,0:2|0:2,0:2:0:0:
382,339,70258,2,0,P|368:286|406:237,1,107.999996704102,2|0,1:2|1:2,0:2:0:0:
363,42,70572,2,0,P|310:49|257:59,1,107.999996704102,10|0,0:2|0:2,0:2:0:0:
2,171,70886,6,0,B|121:139|92:243|218:215,1,215.999993408203,6|8,1:2|0:2,0:2:0:0:
336,109,71357,1,2,3:2:0:0:
374,307,71514,2,0,P|364:253|357:200,1,107.999996704102,2|0,1:2|1:2,0:0:0:0:
195,16,71828,2,0,P|188:69|178:122,1,107.999996704102,10|0,0:2|0:2,0:2:0:0:
428,116,72143,6,0,P|382:78|321:98,1,107.999996704102,0|0,1:2|1:2,0:0:0:0:
151,236,72457,2,0,P|189:269|245:265,1,107.999996704102,10|0,0:2|0:2,0:2:0:0:
84,97,72771,1,2,1:2:0:0:
0,308,72928,1,0,1:2:0:0:
253,141,73085,2,0,L|144:155,1,107.999996704102,10|0,0:2|0:2,0:2:0:0:
318,329,73399,5,6,1:2:0:0:
381,98,73556,1,0,1:2:0:0:
210,250,73713,2,0,L|223:357,1,107.999996704102,10|0,0:2|0:2,0:2:0:0:
414,163,74027,2,0,L|400:270,1,107.999996704102,2|0,1:2|1:2,0:0:0:0:
252,71,74341,2,0,B|164:81|164:81|146:112|146:112|40:121,1,215.999993408203,10|0,0:2|1:2,0:2:0:0:
364,0,74813,5,0,1:2:0:0:
245,255,74970,2,0,P|217:220|231:147,1,107.999996704102,8|0,0:2|0:2,0:2:0:0:
418,358,75284,2,0,P|376:325|323:330,1,107.999996704102,2|0,1:2|1:2,0:2:0:0:
110,268,75598,2,0,L|231:252,1,107.999996704102,10|0,0:2|0:2,0:2:0:0:
351,91,75912,5,4,1:2:0:0:
351,91,76226,5,10,0:2:0:0:
281,368,76383,1,0,1:2:0:0:
282,48,76540,5,10,0:2:0:0:
352,325,76697,1,0,1:2:0:0:
355,16,76855,5,10,0:2:0:0:
230,301,77012,1,0,1:2:0:0:
79,0,77169,5,10,0:2:0:0:
355,151,77326,1,0,1:2:0:0:
79,321,77483,5,10,0:2:0:0:
249,57,77640,1,0,1:2:0:0:
264,315,77797,5,10,0:2:0:0:
0,145,77954,1,0,1:2:0:0:
322,31,78111,5,10,0:2:0:0:
58,201,78268,1,0,1:2:0:0:
336,378,78425,5,6,1:2:0:0:
244,170,78582,1,0,0:0:0:0:
127,283,78739,2,0,B|219:258|212:341|307:309,1,180,10|2,0:2|1:2,0:0:0:0:
437,177,79211,2,0,P|381:205|378:314,1,180,2|10,3:2|0:2,0:0:0:0:
284,173,79682,5,2,3:2:0:0:
431,73,79839,1,2,1:2:0:0:
283,249,79996,2,0,L|95:217,1,180,8|2,0:2|1:2,0:2:0:0:
4,94,80467,1,2,1:2:0:0:
157,144,80624,2,0,P|175:104|164:61,1,90,8|0,0:2|3:2,0:0:0:0:
19,181,80938,5,6,1:2:0:0:
160,266,81095,1,2,0:2:0:0:
25,361,81252,2,0,B|106:350|106:350|125:364|125:364|213:352,1,180,8|2,0:2|1:2,0:0:0:0:
358,228,81724,2,0,B|303:259|303:259|320:379,1,180,2|8,3:2|0:2,0:0:0:0:
426,277,82195,5,2,3:2:0:0:
282,173,82352,1,2,1:2:0:0:
451,110,82509,2,0,L|440:213,1,90,8|0,0:2|1:2,0:0:0:0:
441,199,82745,1,0,1:2:0:0:
441,199,82823,1,2,0:2:0:0:
319,100,82980,1,2,3:2:0:0:
278,261,83137,6,0,P|224:212|130:235,1,168.75,12|0,0:2|0:2,0:2:0:0:
124,249,83451,5,6,1:2:0:0:
160,370,83609,1,2,0:2:0:0:
38,205,83766,2,0,P|29:305|22:388,1,180,10|2,0:2|1:2,0:2:0:0:
290,290,84237,2,0,B|198:245|199:328|97:295,1,180,2|10,3:2|0:2,0:2:0:0:
136,119,84708,5,2,1:2:0:0:
260,243,84865,1,2,1:2:0:0:
226,84,85022,2,0,P|220:154|214:212,1,90,8|0,0:2|0:2,0:2:0:0:
311,29,85336,1,2,1:2:0:0:
141,51,85493,1,2,1:2:0:0:
296,141,85650,2,0,P|366:135|424:129,1,90,14|0,0:2|0:2,0:2:0:0:
468,38,85965,5,10,0:2:0:0:
352,224,86122,2,0,P|307:220|262:216,1,90,10|2,0:2|0:2,0:0:0:0:
55,116,86436,1,10,0:2:0:0:
171,302,86593,2,0,P|215:298|260:294,1,90,10|2,0:2|0:2,0:0:0:0:
456,190,86907,1,10,0:2:0:0:
340,376,87064,6,0,P|295:372|250:368,1,90,10|2,0:2|0:2,0:0:0:0:
250,368,87300,1,2,0:2:0:0:
250,368,87378,1,10,0:2:0:0:
198,124,87535,1,14,0:2:0:0:
