osu file format v14

[General]
AudioFilename: audio.mp3
AudioLeadIn: 0
PreviewTime:48268
Countdown: 0
SampleSet: Soft
StackLeniency: 0.4
Mode: 0
LetterboxInBreaks: 0
WidescreenStoryboard: 1

[Editor]
DistanceSpacing: 0.8
BeatDivisor: 4
GridSize: 8
TimelineZoom: 1.8

[Metadata]
Title:After Dark (TV Size)
TitleUnicode:アフターダーク (TV Size)
Artist:ASIAN KUNG-FU GENERATION
ArtistUnicode:ASIAN KUNG-FU GENERATION
Creator:Nelliel
Version:Agatsu's Extra
Source:BLEACH
Tags:ブリーチ op 7 opening j-pop japanese agatsu haruto yuuya_ke my_angel_ram haruto_aizawa -mikan World ワールド pop jpop yuuya ke bazz b bazz_b my angel ram aizawa
BeatmapID:2378562
BeatmapSetID:1129438

[Difficulty]
HPDrainRate:5.5
CircleSize:4
OverallDifficulty:8.8
ApproachRate:9.2
SliderMultiplier:1.8
SliderTickRate:1

[Events]
//Background and Video events
0,0,"cropped-1920-1080-219388.jpg",0,0
Video,0,"Video-1.mp4"
//Break Periods
//Storyboard Layer 0 (Background)
//Storyboard Layer 1 (Fail)
//Storyboard Layer 2 (Pass)
//Storyboard Layer 3 (Foreground)
//Storyboard Layer 4 (Overlay)
//Storyboard Sound Samples

[TimingPoints]
520,314.13612565445,4,2,22,50,1,0
520,-125,4,2,22,50,0,0
3033,-111.111111111111,4,2,22,60,0,0
8059,-111.111111111111,4,2,22,70,0,0
12771,-76.9230769230769,4,2,22,70,0,0
13085,-100,4,2,22,80,0,0
18111,-111.111111111111,4,2,22,70,0,0
23137,-100,4,2,22,80,0,0
28163,-111.111111111111,4,2,22,70,0,0
33190,-100,4,2,22,80,0,0
38216,-125,4,2,22,70,0,0
45755,-111.111111111111,4,2,22,70,0,0
48268,-83.3333333333333,4,2,22,90,0,1
78425,-100,4,2,22,70,0,0
87849,-100,4,2,22,5,0,0

[Colours]
Combo1 : 223,0,0
Combo2 : 255,128,64
Combo3 : 255,255,170

[HitObjects]
92,255,520,6,0,P|80:179|63:95,2,144,4|8|0,1:2|0:2|1:2,0:2:0:0:
194,133,1305,2,0,P|233:121|286:113,1,72,0|0,1:2|0:2,0:2:0:0:
389,271,1619,2,0,B|310:266|337:225|249:227,1,144,8|0,0:2|1:2,0:2:0:0:
452,184,2090,1,8,0:2:0:0:
452,184,2404,1,0,1:2:0:0:
357,311,2561,1,0,1:2:0:0:
352,121,2718,2,0,P|361:163|374:210,1,72,8|0,0:2|1:2,0:0:0:0:
232,359,3033,6,0,P|241:324|252:275,1,80.9999975280763,6|2,1:2|0:2,0:2:0:0:
86,136,3347,2,0,P|17:141|-12:231,1,161.999995056153,8|2,0:2|1:2,0:2:0:0:
196,193,3818,2,0,P|187:147|174:87,1,80.9999975280763,2|0,1:2|0:2,0:2:0:0:
279,157,4132,1,8,0:2:0:0:
116,236,4289,1,2,3:2:0:0:
116,236,4446,1,2,1:2:0:0:
265,304,4603,2,0,B|368:285|327:339|428:316,1,161.999995056153,8|2,0:2|1:2,0:2:0:0:
353,139,5074,1,2,1:2:0:0:
490,272,5232,2,0,P|479:225|470:171,1,80.9999975280763,8|0,0:2|1:2,0:2:0:0:
333,229,5546,5,6,1:2:0:0:
333,229,5703,1,2,0:0:0:0:
469,96,5860,2,0,P|455:162|434:271,1,161.999995056153,8|2,0:2|1:2,0:2:0:0:
308,88,6331,2,0,P|299:46|288:-1,1,80.9999975280763,2|0,1:2|0:2,0:2:0:0:
261,166,6645,1,8,0:2:0:0:
215,42,6802,1,2,3:2:0:0:
215,42,6959,1,2,1:2:0:0:
135,152,7116,2,0,P|53:168|35:173,1,80.9999975280763,8|0,0:2|0:2,0:2:0:0:
190,295,7430,2,0,L|200:242,1,40.4999987640381,2|8,1:2|0:2,1:2:0:0:
98,332,7588,2,0,L|105:371,1,40.4999987640381,2|0,1:2|1:2,0:0:0:0:
239,237,7745,2,0,P|279:221|328:209,1,80.9999975280763,12|0,0:2|0:0,0:0:0:0:
445,362,8059,6,0,P|396:347|352:328,1,80.9999975280763,6|0,1:2|0:0,0:2:0:0:
417,94,8373,2,0,P|429:173|457:284,1,161.999995056153,10|2,0:2|1:2,0:0:0:0:
324,98,8844,2,0,P|286:87|223:87,1,80.9999975280763,2|0,1:2|0:2,0:2:0:0:
378,35,9158,1,8,0:2:0:0:
294,179,9315,1,2,3:2:0:0:
294,179,9472,1,2,1:2:0:0:
175,44,9629,2,0,P|75:44|42:119,1,161.999995056153,8|2,0:2|1:2,0:2:0:0:
81,250,10101,1,2,1:2:0:0:
206,153,10258,2,0,P|263:131|303:122,1,80.9999975280763,8|0,0:2|1:2,0:2:0:0:
99,142,10572,1,6,1:2:0:0:
191,280,10729,1,0,0:0:0:0:
45,196,10886,6,0,P|17:295|0:375,1,161.999995056153,10|2,0:2|0:2,0:0:0:0:
171,205,11357,2,0,P|158:151|136:90,1,80.9999975280763,2|0,0:2|0:2,0:2:0:0:
264,297,11671,1,8,0:2:0:0:
286,146,11828,1,2,1:2:0:0:
286,146,11985,1,2,1:2:0:0:
364,255,12143,2,0,P|352:312|337:367,1,80.9999975280763,8|0,0:2|3:2,0:2:0:0:
185,171,12457,2,0,L|124:162,1,40.4999987640381,0|8,3:2|0:2,0:2:0:0:
91,320,12614,2,0,L|131:314,1,40.4999987640381,0|0,1:2|1:2,0:0:0:0:
220,168,12771,1,14,0:2:0:0:
212,357,12928,1,2,0:2:0:0:
306,94,13085,6,0,P|331:182|335:218,1,90,6|0,1:2|0:2,0:2:0:0:
190,61,13399,1,8,0:2:0:0:
327,302,13556,2,0,P|376:286|425:276,1,90,2|2,3:2|1:2,0:0:0:0:
326,71,13870,1,0,1:2:0:0:
222,247,14027,1,8,0:2:0:0:
419,127,14184,2,0,P|347:114|212:99,1,180,6|0,1:2|1:2,0:2:0:0:
403,249,14656,2,0,P|420:311|435:373,1,90,8|0,0:2|0:0,0:2:0:0:
426,140,14970,1,0,1:2:0:0:
296,282,15127,1,0,1:2:0:0:
500,300,15284,1,10,0:2:0:0:
331,194,15441,1,2,3:2:0:0:
512,78,15598,6,0,B|418:61|443:130|319:111,1,180,6|8,1:2|0:2,0:2:0:0:
166,190,16069,2,0,P|145:258|133:303,1,90,2|2,0:2|1:2,0:0:0:0:
213,106,16383,1,0,1:2:0:0:
50,240,16540,1,8,0:2:0:0:
252,111,16698,2,0,P|278:231|294:325,1,180,6|0,1:2|1:2,0:2:0:0:
117,98,17169,2,0,P|57:82|2:75,1,90,8|0,0:2|3:2,0:2:0:0:
183,208,17483,1,0,1:2:0:0:
156,28,17640,1,0,1:2:0:0:
263,183,17797,2,0,P|281:119|294:61,1,90,10|0,0:2|0:0,0:0:0:0:
86,204,18111,6,0,P|105:299|121:391,2,161.999995056153,6|10|0,1:2|0:2|1:2,0:2:0:0:
190,306,18896,1,0,3:2:0:0:
236,176,19054,1,0,1:2:0:0:
266,324,19211,2,0,P|330:346|403:269,1,161.999995056153,8|0,0:2|1:2,0:0:0:0:
288,242,19682,1,10,0:2:0:0:
427,115,19839,2,0,P|453:193|480:283,1,161.999995056153,2|0,3:2|1:2,0:0:0:0:
329,132,20310,2,0,P|268:109|234:100,1,80.9999975280763,10|0,0:2|0:2,0:2:0:0:
114,179,20624,6,0,B|103:79|72:135|74:3,2,161.999995056153,6|10|2,1:2|0:2|1:2,0:2:0:0:
6,374,21410,1,0,3:2:0:0:
42,213,21567,1,2,0:2:0:0:
124,354,21724,2,0,P|203:341|308:322,1,161.999995056153,8|0,0:2|1:2,0:0:0:0:
192,241,22195,1,10,0:2:0:0:
362,365,22352,2,0,P|436:365|470:267,1,161.999995056153,2|0,0:2|1:2,0:2:0:0:
279,164,22823,1,10,0:2:0:0:
393,271,22980,1,2,0:2:0:0:
256,122,23137,6,0,P|221:189|206:231,1,90,6|0,1:2|0:0,0:2:0:0:
343,80,23451,1,8,0:2:0:0:
242,310,23609,2,0,B|130:320|168:263|35:285,1,180,2|0,0:2|1:2,0:0:0:0:
271,219,24080,1,8,0:2:0:0:
46,307,24237,2,0,P|25:213|10:97,1,180,2|0,3:2|1:2,0:2:0:0:
166,298,24708,2,0,P|184:235|194:180,1,90,10|0,0:2|0:2,0:2:0:0:
294,365,25022,1,2,1:2:0:0:
292,215,25179,1,0,1:2:0:0:
401,355,25336,2,0,P|383:292|373:237,1,90,10|0,0:2|0:2,0:0:0:0:
492,58,25650,6,0,P|386:51|345:124,1,180,6|8,1:2|0:2,0:2:0:0:
495,277,26122,2,0,P|478:221|442:157,1,90,2|2,3:2|1:2,0:0:0:0:
279,325,26436,1,0,1:2:0:0:
369,195,26593,1,8,0:2:0:0:
198,300,26750,2,0,P|123:277|-10:248,1,180,2|0,0:2|0:2,0:2:0:0:
175,184,27221,2,0,P|217:170|277:162,1,90,10|0,0:2|0:2,0:2:0:0:
94,303,27535,1,0,1:2:0:0:
137,110,27692,1,0,1:2:0:0:
257,274,27849,2,0,P|299:288|359:296,1,90,8|0,0:2|0:0,0:0:0:0:
512,126,28163,6,0,B|516:229|472:181|475:291,2,161.999995056153,6|10|2,1:2|0:2|1:2,0:2:0:0:
366,226,28949,2,0,P|312:235|262:245,1,80.9999975280763,0|2,3:2|0:2,0:0:0:0:
502,377,29263,2,0,P|425:361|311:343,1,161.999995056153,8|0,0:2|1:2,0:0:0:0:
438,285,29734,1,8,0:2:0:0:
260,366,29891,2,0,P|194:330|215:231,1,161.999995056153,2|0,0:2|1:2,0:0:0:0:
318,114,30362,1,10,0:2:0:0:
276,258,30519,1,0,1:2:0:0:
390,53,30677,6,0,P|410:120|405:145,1,80.9999975280763,2|0,1:2|0:0,0:2:0:0:
240,180,30991,2,0,P|220:113|225:88,1,80.9999975280763,10|0,0:2|0:2,0:2:0:0:
408,162,31305,1,2,1:2:0:0:
254,286,31462,2,0,P|212:286|173:257,1,80.9999975280763,0|2,3:2|0:2,0:0:0:0:
422,189,31776,2,0,P|397:275|375:376,1,161.999995056153,8|0,0:2|1:2,0:0:0:0:
316,198,32247,1,10,0:2:0:0:
172,355,32404,2,0,B|71:344|123:300|-4:294,1,161.999995056153,2|0,0:2|1:2,0:2:0:0:
201,271,32876,1,10,0:2:0:0:
9,365,33033,1,2,3:2:0:0:
163,181,33190,6,0,P|213:173|251:187,1,90,6|0,1:2|0:0,0:2:0:0:
301,359,33504,1,8,0:2:0:0:
341,89,33661,2,0,P|366:190|376:280,1,180,0|0,0:2|3:2,0:0:0:0:
252,100,34132,1,8,0:2:0:0:
131,274,34289,2,0,P|49:264|23:171,1,180,0|0,3:1|1:2,0:2:0:0:
216,47,34760,2,0,P|229:113|241:168,1,90,8|0,0:2|0:2,0:2:0:0:
257,335,35074,1,2,1:2:0:0:
319,180,35232,1,0,1:2:0:0:
205,369,35389,2,0,P|218:303|230:248,1,90,8|0,0:2|0:2,0:2:0:0:
343,97,35703,6,0,B|235:79|285:144|164:121,1,180,4|8,1:2|0:2,0:2:0:0:
356,249,36174,2,0,P|377:313|388:354,1,90,0|0,0:2|1:2,0:0:0:0:
402,159,36488,1,0,1:2:0:0:
272,288,36645,1,8,0:2:0:0:
356,83,36802,2,0,P|446:75|497:178,1,180,0|0,3:2|1:2,0:2:0:0:
256,212,37273,2,0,P|245:160|224:101,1,90,8|0,0:2|0:2,0:2:0:0:
369,219,37588,1,0,1:2:0:0:
194,314,37745,1,0,1:2:0:0:
339,130,37902,2,0,P|412:135|444:168,1,90,8|0,0:2|0:0,0:0:0:0:
290,335,38216,5,6,1:2:0:0:
144,217,38373,2,0,P|157:166|174:115,1,72,0|8,1:2|0:2,0:2:0:0:
237,264,38687,1,2,3:2:0:0:
352,175,38844,2,0,P|339:124|322:73,1,72,2|8,1:2|0:2,0:2:0:0:
222,229,39158,1,2,3:2:0:0:
76,111,39315,2,0,P|89:60|106:9,1,72,2|8,1:2|0:2,0:2:0:0:
169,158,39629,1,2,3:2:0:0:
284,69,39786,2,0,P|271:18|254:-33,1,72,2|8,1:2|0:2,0:2:0:0:
253,164,40101,1,0,1:3:0:0:
371,22,40258,1,8,0:2:0:0:
189,76,40415,1,0,3:2:0:0:
411,246,40729,5,4,1:2:0:0:
267,356,40886,2,0,P|228:368|175:372,1,72,2|8,1:2|0:2,0:2:0:0:
338,250,41200,1,0,3:2:0:0:
239,155,41357,2,0,P|200:143|147:139,1,72,0|8,1:2|0:2,0:2:0:0:
433,234,41671,1,0,3:2:0:0:
306,369,41828,2,0,P|267:381|214:385,1,72,0|8,1:2|0:2,0:2:0:0:
349,151,42143,2,0,P|358:214|364:243,1,72,0|0,1:2|1:2,0:0:0:0:
479,374,42457,2,0,P|485:338|489:302,1,72,8|0,0:2|3:2,0:0:0:0:
442,181,42771,1,8,0:2:0:0:
365,310,42928,1,0,3:2:0:0:
115,3,43242,5,6,1:2:0:0:
292,22,43399,2,0,P|241:28|188:43,1,72,2|8,1:2|0:2,0:2:0:0:
320,129,43713,1,2,3:2:0:0:
127,114,43870,2,0,P|178:120|231:135,1,72,2|8,1:2|0:2,0:2:0:0:
348,210,44184,1,2,3:2:0:0:
197,210,44341,2,0,P|175:263|162:297,1,72,2|8,1:2|0:2,0:2:0:0:
272,157,44656,1,2,3:2:0:0:
348,297,44813,2,0,P|370:350|383:384,1,72,2|8,1:2|0:2,0:2:0:0:
393,168,45127,1,2,3:2:0:0:
249,280,45284,1,0,1:2:0:0:
455,332,45441,1,10,0:2:0:0:
203,169,45755,6,0,P|130:156|17:138,1,161.999995056153,6|8,1:2|0:2,0:2:0:0:
228,237,46226,1,0,0:2:0:0:
97,303,46383,2,0,P|29:318|-18:324,1,80.9999975280763,2|0,1:2|0:2,0:0:0:0:
199,106,46698,2,0,P|171:172|162:202,1,80.9999975280763,10|0,0:2|0:2,0:2:0:0:
338,370,47012,6,0,P|324:331|307:295,1,80.9999975280763,2|0,1:2|0:2,0:0:0:0:
70,231,47326,2,0,P|117:265|155:289,1,80.9999975280763,12|0,0:2|0:0,0:0:0:0:
345,279,47640,1,0,1:2:0:0:
366,245,47718,1,0,1:2:0:0:
369,205,47797,1,8,1:2:0:0:
352,168,47875,1,0,1:2:0:0:
320,145,47954,2,0,L|263:159,1,40.4999987640381,0|0,1:2|1:2,0:0:0:0:
167,215,48111,2,0,L|127:204,1,40.4999987640381,8|0,0:2|1:2,0:2:0:0:
235,22,48268,6,0,P|277:87|269:142,1,107.999996704102,6|0,1:2|0:0,0:2:0:0:
169,297,48582,2,0,P|127:232|135:177,1,107.999996704102,10|0,0:2|0:2,0:2:0:0:
358,115,48896,2,0,P|322:183|271:204,1,107.999996704102,2|0,1:2|1:2,0:0:0:0:
47,212,49210,2,0,P|82:143|133:122,1,107.999996704102,10|0,0:2|0:2,0:2:0:0:
340,265,49525,2,0,P|262:268|219:234,1,107.999996704102,2|0,1:2|1:2,0:0:0:0:
66,63,49839,2,0,P|143:59|186:93,1,107.999996704102,10|0,0:2|3:2,0:2:0:0:
239,298,50153,1,2,1:2:0:0:
259,109,50310,1,0,1:2:0:0:
171,339,50467,1,10,0:2:0:0:
139,129,50624,1,0,0:2:0:0:
273,317,50781,6,0,P|328:334|391:318,1,107.999996704102,2|0,1:2|1:2,0:2:0:0:
381,119,51095,2,0,P|328:110|277:127,1,107.999996704102,10|0,0:2|0:2,3:2:0:0:
171,339,51410,2,0,P|116:356|53:340,1,107.999996704102,2|0,1:2|1:2,0:0:0:0:
63,141,51724,2,0,P|115:132|166:149,1,107.999996704102,10|0,0:2|0:2,3:2:0:0:
265,369,52038,1,2,1:2:0:0:
113,253,52195,1,0,1:2:0:0:
315,162,52352,2,0,P|293:224|277:282,1,107.999996704102,10|0,0:2|3:2,0:0:0:0:
104,164,52666,1,2,1:2:0:0:
204,315,52823,1,0,1:2:0:0:
0,191,52980,2,0,P|22:253|38:311,1,107.999996704102,8|0,0:2|3:2,3:2:0:0:
218,68,53294,6,0,P|154:43|95:55,1,107.999996704102,6|0,1:2|0:0,0:2:0:0:
67,257,53609,2,0,P|131:282|190:270,1,107.999996704102,10|0,0:2|0:2,0:2:0:0:
376,93,53923,1,2,1:2:0:0:
310,282,54080,1,0,1:2:0:0:
278,52,54237,2,0,P|292:122|306:180,1,107.999996704102,10|0,0:2|0:2,0:2:0:0:
395,366,54551,2,0,P|407:313|417:260,1,107.999996704102,2|0,1:2|1:2,0:0:0:0:
178,204,54865,2,0,P|241:246|281:273,1,107.999996704102,10|0,0:2|0:2,0:2:0:0:
459,143,55179,1,0,1:2:0:0:
363,314,55336,1,0,1:2:0:0:
485,164,55493,2,0,P|505:234|514:289,1,107.999996704102,12|0,0:2|0:0,0:0:0:0:
292,106,55807,6,0,P|232:80|158:70,1,107.999996704102,14|0,0:2|1:2,0:0:0:0:
338,175,56122,1,0,1:2:0:0:
209,310,56279,2,0,P|149:336|75:346,1,107.999996704102,10|0,0:2|1:2,0:0:0:0:
261,130,56593,1,0,1:2:0:0:
364,373,56750,2,0,B|378:298|394:236|403:222,1,107.999996704102,10|0,0:2|1:2,0:0:0:0:
154,182,57064,1,12,0:2:0:0:
385,91,57221,1,2,1:2:0:0:
291,326,57378,1,10,0:2:0:0:
210,91,57535,1,10,0:2:0:0:
188,293,57692,1,0,3:2:0:0:
308,111,57849,1,0,1:2:0:0:
286,347,58006,1,8,0:2:0:0:
104,11,58321,6,0,P|44:7|-24:50,1,107.999996704102,4|0,1:2|0:0,0:2:0:0:
21,221,58635,2,0,P|74:226|123:206,1,107.999996704102,10|0,0:2|0:2,0:2:0:0:
277,37,58949,1,2,1:2:0:0:
253,249,59106,1,0,1:2:0:0:
314,51,59263,2,0,P|330:141|345:194,1,107.999996704102,10|0,0:2|0:2,0:2:0:0:
195,108,59577,1,2,1:2:0:0:
353,18,59734,1,0,1:2:0:0:
204,197,59891,2,0,P|141:189|105:140,1,107.999996704102,10|0,0:2|0:2,0:2:0:0:
255,18,60205,1,2,1:2:0:0:
307,233,60362,1,0,1:2:0:0:
394,42,60519,2,0,P|457:50|493:99,1,107.999996704102,10|0,0:2|0:2,0:2:0:0:
209,283,60834,6,0,P|168:247|159:170,1,107.999996704102,6|0,1:2|0:2,0:2:0:0:
201,9,61148,2,0,P|242:45|251:122,1,107.999996704102,10|0,0:2|0:2,0:2:0:0:
63,206,61462,2,0,P|73:152|135:106,1,107.999996704102,2|0,1:2|1:2,0:0:0:0:
338,83,61776,2,0,P|327:136|265:182,1,107.999996704102,10|0,0:2|0:2,0:2:0:0:
51,58,62090,2,0,P|102:40|173:71,1,107.999996704102,2|0,1:2|1:2,0:0:0:0:
342,231,62404,2,0,P|290:248|219:217,1,107.999996704102,10|0,0:2|3:2,0:0:0:0:
154,87,62718,1,2,1:2:0:0:
120,288,62876,1,0,1:2:0:0:
240,28,63033,2,0,P|261:84|270:172,1,107.999996704102,8|0,0:2|0:2,0:2:0:0:
33,289,63347,6,0,P|42:235|62:185,1,107.999996704102,6|0,1:2|1:0,0:2:0:0:
306,122,63661,2,0,P|297:193|275:253,1,107.999996704102,10|0,0:2|0:2,0:2:0:0:
165,97,63975,1,2,1:2:0:0:
223,292,64132,1,0,1:2:0:0:
131,109,64289,2,0,P|65:89|6:84,1,107.999996704102,10|0,0:2|0:2,0:2:0:0:
142,353,64603,2,0,P|129:292|105:214,1,107.999996704102,2|0,1:2|1:2,0:0:0:0:
310,58,64917,2,0,P|295:110|284:162,1,107.999996704102,10|0,0:2|0:2,0:2:0:0:
431,353,65232,1,2,1:2:0:0:
397,168,65389,1,0,1:2:0:0:
283,341,65546,2,0,P|219:331|183:291,1,107.999996704102,10|0,0:2|0:0,0:0:0:0:
413,128,65860,6,0,P|434:222|446:256,1,107.999996704102,14|0,1:2|1:2,0:0:0:0:
310,81,66174,1,0,1:2:0:0:
220,256,66331,2,0,P|199:350|187:384,1,107.999996704102,10|0,0:2|3:2,0:0:0:0:
419,249,66645,1,0,1:2:0:0:
242,144,66802,2,0,P|153:157|121:206,1,107.999996704102,10|0,0:2|1:2,0:0:0:0:
338,342,67116,1,12,0:2:0:0:
364,140,67273,1,0,1:2:0:0:
237,311,67430,1,0,3:2:0:0:
204,64,67588,1,8,1:2:0:0:
317,235,67745,1,2,3:2:0:0:
325,28,67902,1,0,1:2:0:0:
209,211,68059,2,0,P|145:212|98:166,1,107.999996704102,10|0,0:2|1:2,0:0:0:0:
292,22,68373,6,0,P|317:94|328:152,1,107.999996704102,6|0,1:2|0:0,0:2:0:0:
408,335,68687,2,0,P|420:282|439:232,1,107.999996704102,10|0,0:2|0:2,0:2:0:0:
267,302,69001,2,0,P|194:325|135:306,1,107.999996704102,2|0,1:2|1:2,0:2:0:0:
10,100,69315,2,0,B|139:106|70:171|232:179,1,215.999993408203,10|2,0:2|1:2,0:2:0:0:
32,201,69787,1,0,1:2:0:0:
199,68,69944,2,0,P|279:88|323:137,1,107.999996704102,10|0,0:2|0:2,0:2:0:0:
281,317,70258,2,0,P|201:297|157:248,1,107.999996704102,2|0,1:2|1:2,0:2:0:0:
345,91,70572,2,0,P|316:189|306:229,1,107.999996704102,10|0,0:2|0:2,0:2:0:0:
149,369,70886,6,0,P|121:235|91:126,1,215.999993408203,6|8,1:2|0:2,0:2:0:0:
226,310,71357,1,2,3:2:0:0:
0,180,71514,2,0,P|10:112|63:78,1,107.999996704102,2|0,1:2|1:2,0:0:0:0:
226,271,71828,2,0,B|381:276|282:349|455:348,1,215.999993408203,10|0,0:2|1:2,0:2:0:0:
220,361,72300,1,0,1:2:0:0:
406,216,72457,2,0,P|488:238|541:284,1,107.999996704102,10|0,0:2|0:2,0:2:0:0:
314,375,72771,2,0,P|308:314|292:230,1,107.999996704102,2|0,1:2|1:2,0:2:0:0:
491,99,73085,2,0,P|482:152|477:206,1,107.999996704102,10|0,0:2|0:2,0:2:0:0:
286,186,73399,5,6,1:2:0:0:
425,313,73556,1,0,1:2:0:0:
333,115,73713,2,0,P|267:98|195:102,1,107.999996704102,10|0,0:2|0:2,0:2:0:0:
130,315,74027,2,0,P|183:312|235:297,1,107.999996704102,2|0,1:2|1:2,0:0:0:0:
206,49,74341,2,0,P|191:138|174:193,1,107.999996704102,10|0,0:2|0:2,0:2:0:0:
395,352,74656,2,0,P|367:217|351:101,1,215.999993408203,0|8,1:2|0:2,0:0:0:0:
257,315,75127,1,0,0:2:0:0:
136,133,75284,2,0,P|69:126|24:169,1,107.999996704102,2|0,1:2|1:2,0:2:0:0:
43,335,75598,2,0,P|110:342|155:299,1,107.999996704102,10|0,0:2|0:2,0:2:0:0:
255,108,75912,5,4,1:2:0:0:
255,108,76226,1,10,0:2:0:0:
344,324,76383,1,0,1:2:0:0:
327,55,76540,5,10,0:2:0:0:
188,335,76698,1,0,1:2:0:0:
183,57,76855,5,10,0:2:0:0:
384,321,77012,1,0,1:2:0:0:
119,157,77169,5,10,0:2:0:0:
408,110,77326,1,0,1:2:0:0:
108,232,77483,5,10,0:2:0:0:
428,277,77640,1,0,1:2:0:0:
115,133,77797,5,10,0:2:0:0:
435,82,77954,1,0,1:2:0:0:
112,265,78111,6,0,P|83:325|70:372,1,107.999996704102,10|0,0:2|1:2,0:0:0:0:
304,221,78425,6,0,B|408:218|371:276|486:270,2,180,6|10|2,1:2|0:2|1:2,0:2:0:0:
452,81,79211,2,0,P|466:139|477:186,1,90,2|0,3:2|1:2,0:0:0:0:
337,134,79525,1,10,0:2:0:0:
446,271,79682,1,2,3:2:0:0:
238,331,79839,1,2,1:2:0:0:
394,198,79996,2,0,P|301:176|199:164,1,180,8|2,0:2|1:2,0:2:0:0:
267,264,80467,1,2,1:2:0:0:
198,76,80624,2,0,P|128:112|89:139,1,90,8|0,0:2|3:2,0:0:0:0:
199,329,80938,5,6,1:2:0:0:
217,166,81095,1,2,0:2:0:0:
108,336,81252,2,0,P|48:342|3:239,1,180,8|2,0:2|1:2,0:0:0:0:
116,77,81724,2,0,P|137:156|146:193,1,90,2|0,3:2|1:2,0:0:0:0:
15,93,82038,1,8,0:2:0:0:
192,35,82195,1,2,3:2:0:0:
46,170,82352,1,2,1:2:0:0:
219,125,82509,2,0,B|330:111|280:174|399:163,1,180,8|2,0:2|0:2,0:0:0:0:
229,201,82980,1,2,3:2:0:0:
372,64,83137,2,0,P|437:75|479:113,1,90,12|0,0:2|0:0,0:2:0:0:
356,311,83451,6,0,B|354:197|305:262|309:139,2,180,6|10|2,1:2|0:2|1:2,0:2:0:0:
503,158,84237,2,0,P|485:228|475:268,1,90,2|0,3:2|0:2,0:2:0:0:
370,178,84551,1,10,0:2:0:0:
455,317,84708,5,2,1:2:0:0:
277,367,84865,1,2,1:2:0:0:
428,230,85022,2,0,B|325:207|363:270|249:248,1,180,8|2,0:2|1:2,0:2:0:0:
346,139,85493,1,2,1:2:0:0:
173,308,85650,2,0,P|158:258|153:189,1,90,14|0,0:2|0:2,0:2:0:0:
310,18,85965,5,10,0:2:0:0:
325,340,86122,2,0,P|338:273|341:219,1,90,10|2,0:2|0:2,0:0:0:0:
201,49,86436,5,10,0:2:0:0:
186,371,86593,2,0,P|173:304|170:250,1,90,10|2,0:2|0:2,0:0:0:0:
335,10,86907,5,10,0:2:0:0:
350,332,87064,2,0,P|363:265|366:211,1,90,10|2,0:2|0:2,0:0:0:0:
363,162,87300,1,2,0:2:0:0:
363,162,87378,5,10,0:2:0:0:
167,371,87535,2,0,B|62:362|130:300|-24:299,1,180,14|0,0:2|0:0,0:0:0:0:
