osu file format v14

[General]
AudioFilename: audio.mp3
AudioLeadIn: 0
PreviewTime: 49237
Countdown: 0
SampleSet: Soft
StackLeniency: 0.4
Mode: 0
LetterboxInBreaks: 0
EpilepsyWarning: 1
WidescreenStoryboard: 1

[Editor]
DistanceSpacing: 1
BeatDivisor: 4
GridSize: 4
TimelineZoom: 2.1

[Metadata]
Title:Judgement (TV Size)
TitleUnicode:Judgement (TV Size)
Artist:ASH DA HERO
ArtistUnicode:ASH DA HERO
Creator:KaedeharaKazuha
Version:Light Insane
Source:ブルーロック
Tags:Addy2607 Kaedehara Kazuha AirinCat Some Hero Some_Hero Heroine Kyouren KittyAdventure gokugohan12468 -Mikan Mikan Bazz B Bazz_B Flask killian rk657 Matsuyuki Ame Matsuyuki_Ame muya- arronchu1207 Irohas MugiwaraSekai kanor Gorou Wanpachi Cycopton jrock j-rock japanese rock BLUE LOCK BLUELOCK anime 2nd second opening op intro theme song 2 two football soccer ASH Narukaze Sato WANI DJ Dhalsim ADH
BeatmapID:3961609
BeatmapSetID:1918519

[Difficulty]
HPDrainRate:5
CircleSize:3.6
OverallDifficulty:7
ApproachRate:8.5
SliderMultiplier:1.6
SliderTickRate:1

[Events]
//Background and Video events
Video,0,"video.mp4"
0,0,"BG.jpg",0,0
//Break Periods
//Storyboard Layer 0 (Background)
//Storyboard Layer 1 (Fail)
//Storyboard Layer 2 (Pass)
//Storyboard Layer 3 (Foreground)
//Storyboard Layer 4 (Overlay)
//Storyboard Sound Samples

[TimingPoints]
-346,333.333333333333,4,2,1,100,1,0
487,-125,4,2,1,50,0,0
987,-100,4,2,1,70,0,0
6320,-100,4,2,1,80,0,0
11653,-100,4,2,1,90,0,0
12153,-142.857142857143,4,2,1,50,0,0
13653,392.156862745098,4,2,1,50,1,0
13849,292.682926829268,4,2,1,50,1,0
13849,-142.857142857143,4,2,1,50,0,0
14320,333.333333333333,4,2,1,50,1,0
14320,-142.857142857143,4,2,1,50,0,0
14653,359.281437125748,4,2,1,50,1,0
14832,333.333333333333,4,2,1,50,1,0
14832,-142.857142857143,4,2,1,50,0,0
14998,359.281437125748,4,2,1,50,1,0
15177,333.333333333333,4,2,1,50,1,0
15177,-142.857142857143,4,2,1,50,0,0
15510,292.682926829268,4,2,1,50,1,0
15656,333.333333333333,4,2,1,60,1,0
15656,-122.249388753056,4,2,1,60,0,0
16072,288.461538461538,4,2,1,60,1,0
16144,310.880829015544,4,2,1,60,1,0
16299,333.333333333333,4,2,1,60,1,0
16465,377.358490566038,4,2,1,70,1,0
16465,-100,4,2,1,70,0,0
16653,333.333333333333,4,2,1,70,1,0
16987,333.333333333333,4,2,1,60,1,0
16987,-125,4,2,1,60,0,0
27487,-111.111111111111,4,2,1,60,0,0
28987,-111.111111111111,4,2,1,70,0,0
29487,-100,4,2,1,70,0,0
30320,-111.111111111111,4,2,1,60,0,0
31653,-111.111111111111,4,2,1,70,0,0
32153,-100,4,2,1,70,0,0
32987,-111.111111111111,4,2,1,60,0,0
34320,-111.111111111111,4,2,1,70,0,0
34820,-100,4,2,1,70,0,0
35654,-111.111111111111,4,2,1,60,0,0
36987,-111.111111111111,4,2,1,70,0,0
38320,-125,4,2,1,60,0,0
43653,-111.111111111111,4,2,1,70,0,0
46320,-100,4,2,1,80,0,0
48987,-125,4,2,1,80,0,0
49320,-125,4,2,1,60,0,0
49653,-142.857142857143,4,2,1,80,0,0
50320,-83.3333333333333,4,2,1,90,0,1
71653,-80,4,2,1,90,0,1
75487,-76.9230769230769,4,2,1,90,0,1
76987,-83.3333333333333,4,2,1,90,0,1
82320,340.909090909091,4,2,1,70,1,0
82320,-100,4,2,1,70,0,0
83172,333.333333333333,4,2,1,70,1,0
83338,324.324324324324,4,2,1,70,1,0
83500,338.983050847458,4,2,1,70,1,0
84516,314.13612565445,4,2,1,70,1,0
84987,333.333333333333,4,2,1,70,1,0
85070,337.078651685393,4,2,1,70,1,0
85659,333.333333333333,4,2,1,50,1,0
85659,-333.333333333333,4,2,1,50,0,0
87659,333.333333333333,4,2,1,60,1,0
87659,-200,4,2,1,60,0,0
88992,-200,4,2,1,5,0,0

[Colours]
Combo1 : 212,212,212
Combo2 : 238,72,68
Combo3 : 95,95,95
Combo4 : 62,82,225

[HitObjects]
403,329,487,6,0,P|400:297|397:266,2,64,2|2|2,0:0|0:0|0:0,0:0:0:0:
482,345,987,2,0,P|475:277|468:210,1,120,6|0,3:2|0:0,0:0:0:0:
498,156,1320,2,0,P|459:142|422:180,1,80,2|4,3:2|0:3,0:0:0:0:
338,213,1653,2,0,P|331:145|324:78,1,120,2|0,3:2|0:0,0:0:0:0:
284,29,1986,2,0,P|318:9|354:24,1,80,4|4,3:0|3:0,0:0:0:0:
245,103,2320,6,0,P|181:96|108:93,1,120,2|0,3:2|0:0,0:0:0:0:
113,101,2653,1,4,3:0:0:0:
37,49,2820,1,4,0:3:0:0:
0,145,2987,2,0,L|7:197,3,40,4|4|4|4,3:0|0:3|0:3|0:3,0:0:0:0:
70,225,3320,2,0,L|77:277,3,40,4|4|4|4,3:0|0:3|0:3|0:3,0:0:0:0:
13,355,3653,6,0,P|47:303|146:335,1,160,6|4,3:2|3:0,0:0:0:0:
194,382,4153,1,4,0:3:0:0:
275,287,4320,2,0,P|278:228|284:163,1,120,4|0,3:0|0:0,0:0:0:0:
207,182,4653,2,0,P|203:222|201:262,1,80,4|0,3:0|0:0,0:0:0:0:
283,372,4987,6,0,P|333:363|421:353,1,120,2|0,3:2|0:0,0:0:0:0:
459,306,5320,2,0,P|483:347|465:386,1,80,4|4,3:0|0:3,0:0:0:0:
376,273,5653,1,0,3:0:0:0:
498,141,5820,1,2,0:0:0:0:
477,225,5987,1,2,3:2:0:0:
417,164,6153,1,4,0:3:0:0:
451,7,6320,6,0,P|445:56|441:98,1,80,6|0,3:2|0:0,0:0:0:0:
498,141,6653,1,4,0:3:0:0:
370,30,6820,2,0,P|364:79|360:121,1,80,4|0,3:2|0:0,0:0:0:0:
417,164,7153,1,4,0:3:0:0:
295,7,7320,2,0,P|289:56|285:98,1,80,4|4,3:2|0:3,0:0:0:0:
148,162,7653,6,0,P|154:211|158:253,1,80,4|0,3:2|0:0,0:0:0:0:
101,296,7986,1,4,0:3:0:0:
229,185,8153,2,0,P|235:234|239:276,1,80,4|0,3:2|0:0,0:0:0:0:
182,319,8486,1,4,0:3:0:0:
304,162,8653,2,0,P|310:211|314:253,1,80,4|0,3:2|0:0,0:0:0:0:
481,359,8987,6,0,P|493:306|464:277,1,80,4|0,3:2|0:0,0:0:0:0:
410,231,9320,1,4,0:3:0:0:
326,334,9487,2,0,P|376:325|415:324,1,80,4|0,3:2|0:0,0:0:0:0:
491,208,9820,1,4,0:3:0:0:
425,103,9987,1,4,3:2:0:0:
425,103,10070,1,0,3:0:0:0:
425,103,10153,2,0,L|435:176,1,40,0|0,3:0|3:0,0:0:0:0:
358,171,10320,6,0,L|285:161,3,40,4|4|4|4,0:3|0:3|0:3|0:3,0:0:0:0:
288,94,10653,2,0,L|215:84,3,40,4|4|4|4,0:3|0:3|0:3|0:3,0:0:0:0:
199,147,10987,2,0,L|126:137,3,40,8|8|8|8,0:3|0:3|0:3|0:3,0:0:0:0:
129,70,11320,2,0,L|56:60,3,40,8|8|8|8,0:3|0:3|0:3|0:3,0:0:0:0:
26,108,11653,6,0,P|41:207|49:268,1,160,4|0,3:2|0:0,0:0:0:0:
102,336,12153,2,0,P|65:309|1:349,2,111.999996582031,2|2|2,0:0|0:0|0:0,0:0:0:0:
176,380,12903,1,2,0:0:0:0:
176,380,12987,6,0,P|232:366|296:358,1,111.999996582031,2|0,0:0|0:0,0:0:0:0:
350,314,13487,2,0,P|370:351|359:377,1,55.9999982910157,2|0,0:0|0:0,0:0:0:0:
220,291,13849,1,0,3:0:0:0:
220,291,13922,1,0,3:0:0:0:
220,291,13995,2,0,L|224:252,3,27.9999991455078,8|8|4|4,0:3|0:3|0:3|0:3,0:0:0:0:
168,208,14320,6,0,P|162:150|154:84,1,111.999996582031,2|0,3:2|0:0,0:0:0:0:
175,14,14832,2,0,P|134:19|107:22,1,55.9999982910157,2|0,0:0|0:0,0:0:0:0:
100,103,15177,2,0,P|141:98|168:95,1,55.9999982910157,2|0,0:0|0:0,0:0:0:0:
256,74,15510,1,8,0:0:0:0:
256,74,15583,1,8,0:0:0:0:
256,74,15656,6,0,P|287:77|325:84,1,65.4399995207031,8|0,0:0|0:0,0:0:0:0:
390,47,15906,2,0,P|421:50|459:57,1,65.4399995207031,8|0,0:0|0:0,0:0:0:0:
486,126,16144,1,8,0:0:0:0:
386,33,16299,1,8,0:0:0:0:
302,164,16465,1,10,0:0:0:0:
302,164,16559,1,8,0:3:0:0:
302,164,16653,2,0,L|296:225,3,40,2|2|2|2,3:2|0:0|0:0|0:0,0:0:0:0:
364,247,16987,6,0,P|398:283|372:342,1,96,4|0,3:2|3:0,0:0:0:0:
380,336,17320,1,10,0:0:0:0:
291,369,17487,2,0,P|245:363|214:361,1,64,2|2,3:2|0:3,0:0:0:0:
231,282,17820,2,0,P|262:284|294:289,1,64,2|8,3:2|0:0,0:0:0:0:
161,319,18153,6,0,P|99:325|30:348,1,128,2|2,0:0|3:2,0:0:0:0:
26,352,18570,1,0,3:0:0:0:
18,359,18653,1,8,0:0:0:0:
112,239,18820,2,0,P|116:208|96:184,1,64,2|2,3:2|0:3,0:0:0:0:
17,205,19153,2,0,P|13:236|33:260,1,64,2|8,3:2|0:0,0:0:0:0:
207,204,19487,6,0,P|272:208|339:218,1,128,2|2,0:0|3:2,0:0:0:0:
409,189,19903,1,0,3:0:0:0:
409,189,19987,2,0,P|420:223|391:258,1,64,10|2,0:0|3:2,0:0:0:0:
338,134,20320,2,0,P|344:86|352:36,1,96,2|2,0:0|3:2,0:0:0:0:
355,26,20653,1,8,0:0:0:0:
505,47,20820,6,0,P|482:101|415:84,1,128,2|2,3:2|3:2,0:0:0:0:
274,27,21320,2,0,P|223:34|166:46,1,96,10|8,0:0|0:0,0:0:0:0:
115,89,21653,2,0,L|111:129,2,32,2|8|2,3:2|0:0|0:3,0:0:0:0:
42,24,21987,1,10,0:0:0:0:
0,180,22153,1,10,0:0:0:0:
0,180,22237,1,8,0:0:0:0:
0,180,22320,6,0,P|8:256|13:300,1,96,4|0,3:2|3:0,0:0:0:0:
1,354,22653,2,0,P|32:348|66:340,1,64,10|0,0:0|3:0,0:0:0:0:
195,366,22987,1,2,0:0:0:0:
195,366,23153,2,0,P|164:372|130:380,1,64,2|8,3:2|0:0,0:0:0:0:
87,265,23487,6,0,P|154:251|228:234,1,128,2|2,0:0|3:2,0:0:0:0:
220,245,23903,1,0,3:0:0:0:
228,252,23987,1,8,0:0:0:0:
119,183,24153,2,0,P|115:151|110:119,1,64,2|2,3:2|0:3,0:0:0:0:
53,14,24487,1,0,3:0:0:0:
53,14,24653,2,0,P|37:48|53:79,1,64,10|2,0:0|0:3,0:0:0:0:
196,126,24987,6,0,P|261:120|308:117,1,96,2|0,3:2|3:0,0:0:0:0:
272,43,25320,2,0,P|240:45|209:49,1,64,10|0,0:0|3:0,0:0:0:0:
351,170,25653,2,0,P|416:164|463:161,1,96,2|0,0:0|0:0,0:0:0:0:
428,87,25986,2,0,P|396:89|364:92,1,64,10|4,0:0|3:2,0:0:0:0:
274,193,26320,6,0,P|280:258|283:305,1,96,2|0,0:0|3:2,0:0:0:0:
220,335,26653,2,0,P|223:367|224:390,3,32,8|8|0|0,0:0|0:0|3:0|3:0,0:0:0:0:
162,285,26987,2,0,P|158:252|157:229,3,32,8|8|0|0,0:3|0:3|3:0|3:0,0:0:0:0:
112,342,27320,1,8,0:0:0:0:
7,262,27487,6,0,L|168:241,1,143.999995605469,2|2,0:0|3:2,0:0:0:0:
196,182,27903,1,0,3:0:0:0:
196,182,27987,2,0,P|234:170|265:196,1,71.9999978027344,10|2,0:0|3:2,0:0:0:0:
336,303,28320,2,0,P|306:276|313:236,1,71.9999978027344,2|0,0:0|3:0,0:0:0:0:
371,122,28653,2,0,P|362:160|324:174,1,71.9999978027344,10|2,0:0|0:0,0:0:0:0:
172,103,28987,6,0,P|108:115|45:132,1,107.999996704102,2|2,3:2|3:2,0:0:0:0:
54,132,29320,1,8,0:0:0:0:
176,25,29487,2,0,P|94:38|16:59,2,160,2|0|2,3:2|3:0|0:3,0:0:0:0:
247,72,30237,1,2,0:3:0:0:
247,72,30320,5,0,3:0:0:0:
343,1,30486,1,2,3:2:0:0:
343,1,30570,1,0,3:0:0:0:
343,1,30653,1,10,0:0:0:0:
420,50,30820,1,2,3:2:0:0:
351,154,30987,2,0,P|345:112|335:79,1,71.9999978027344,2|2,0:0|3:2,0:0:0:0:
512,28,31320,2,0,P|502:62|497:98,1,71.9999978027344,10|0,0:0|3:0,0:0:0:0:
512,219,31653,6,0,P|487:178|423:196,1,107.999996704102,2|2,3:2|3:2,0:0:0:0:
426,194,31987,1,8,0:0:0:0:
303,255,32153,2,0,P|375:259|461:301,2,160,2|0|8,3:2|3:0|0:0,0:0:0:0:
240,303,32903,1,8,0:0:0:0:
240,303,32987,5,0,3:0:0:0:
128,228,33153,1,2,3:2:0:0:
128,228,33237,1,0,3:0:0:0:
128,228,33320,1,10,0:0:0:0:
181,155,33487,1,2,3:2:0:0:
116,93,33653,2,0,P|58:101|2:115,2,107.999996704102,2|2|2,0:0|0:0|0:0,0:0:0:0:
194,28,34320,6,0,P|240:48|276:-3,1,107.999996704102,2|2,3:2|3:2,0:0:0:0:
269,0,34653,1,8,0:0:0:0:
357,71,34820,2,0,P|349:116|346:156,1,80,2|0,3:2|0:0,0:0:0:0:
437,208,35153,2,0,P|364:197|261:192,1,160,2|2,3:2|0:3,0:0:0:0:
129,105,35653,5,0,3:2:0:0:
58,154,35820,2,0,P|66:207|69:244,2,71.9999978027344,2|10|2,3:2|0:0|3:2,0:0:0:0:
137,265,36320,2,0,P|84:275|19:298,1,107.999996704102,2|2,0:0|0:0,0:0:0:0:
21,299,36653,1,8,0:0:0:0:
161,184,36820,1,6,3:2:0:0:
219,245,36987,6,0,P|246:299|219:344,2,107.999996704102,2|2|2,0:0|0:0|3:2,0:0:0:0:
307,194,37653,2,0,L|355:200,3,35.9999989013672,4|4|4|4,3:0|3:0|3:0|3:0,0:0:0:0:
400,249,37987,2,0,L|448:243,3,35.9999989013672,8|8|8|8,0:3|0:3|0:3|0:3,0:0:0:0:
493,194,38320,6,0,P|523:141|494:82,1,128,6|0,3:2|3:0,0:0:0:0:
375,121,38820,2,0,P|410:126|444:139,1,64,2|0,0:0|3:0,0:0:0:0:
507,4,39153,1,2,0:3:0:0:
507,4,39320,2,0,P|472:9|438:22,1,64,2|0,3:2|0:0,0:0:0:0:
275,15,39653,6,0,P|310:51|362:25,1,96,2|2,3:2|0:0,0:0:0:0:
358,29,39987,1,0,3:0:0:0:
261,115,40153,2,0,P|268:174|279:253,1,128,2|2,0:0|0:0,0:0:0:0:
349,159,40653,1,0,3:0:0:0:
197,221,40820,1,2,0:3:0:0:
360,152,40987,6,0,P|365:201|375:268,1,96,2|2,3:2|0:0,0:0:0:0:
382,255,41320,1,0,3:0:0:0:
322,345,41487,2,0,P|270:335|243:332,1,64,2|0,0:0|3:0,0:0:0:0:
110,375,41820,1,2,0:0:0:0:
110,375,41987,2,0,P|162:365|189:362,1,64,2|0,3:2|0:0,0:0:0:0:
195,236,42320,6,0,P|151:236|139:295,1,96,2|2,3:2|0:0,0:0:0:0:
141,288,42653,1,0,3:0:0:0:
294,258,42820,2,0,P|288:219|283:180,1,64,2|8,0:0|0:0,0:0:0:0:
363,134,43153,1,8,0:0:0:0:
363,134,43237,1,8,0:0:0:0:
363,134,43320,2,0,L|413:144,2,32,4|4|4,0:3|0:3|0:3,0:0:0:0:
265,47,43653,6,0,P|215:66|171:21,1,107.999996704102,6|2,3:2|0:0,0:0:0:0:
182,22,43987,1,8,0:0:0:0:
25,72,44153,2,0,P|32:122|35:155,1,71.9999978027344,2|0,0:0|3:0,0:0:0:0:
181,159,44487,1,2,0:3:0:0:
101,41,44653,2,0,P|108:91|111:124,1,71.9999978027344,10|0,0:0|0:0,0:0:0:0:
0,217,44987,6,0,P|9:286|13:332,1,107.999996704102,2|2,3:2|0:0,0:0:0:0:
9,338,45320,1,8,0:0:0:0:
141,232,45487,2,0,P|110:214|77:224,1,71.9999978027344,2|0,0:0|3:0,0:0:0:0:
110,372,45820,2,0,P|105:329|99:287,1,71.9999978027344,2|8,0:0|0:0,0:0:0:0:
189,166,46153,1,0,3:0:0:0:
189,166,46237,1,0,3:0:0:0:
189,166,46320,6,0,P|233:172|271:190,1,80,12|0,0:0|3:0,0:0:0:0:
275,194,46570,1,0,3:0:0:0:
283,202,46653,1,2,3:2:0:0:
217,87,46820,2,0,P|261:93|299:111,1,80,14|0,0:0|3:0,0:0:0:0:
303,115,47070,1,0,3:0:0:0:
311,123,47153,1,2,3:2:0:0:
384,13,47320,1,14,0:0:0:0:
510,80,47487,1,0,3:0:0:0:
510,80,47570,1,0,3:0:0:0:
510,80,47653,6,0,L|501:143,3,40,2|0|0|2,3:2|3:0|3:0|3:2,0:0:0:0:
432,141,47987,2,0,L|423:204,3,40,0|0|2|0,3:2|3:0|3:2|3:0,0:0:0:0:
491,223,48320,2,0,L|482:286,3,40,8|8|10|8,0:0|0:0|0:0|0:0,0:0:0:0:
413,284,48654,2,0,L|404:347,3,40,10|8|8|8,0:0|0:0|0:0|0:0,0:0:0:0:
477,370,48987,5,4,3:2:0:0:
477,370,49653,6,0,L|280:347,1,195.999994018555,8|0,0:3|0:0,0:0:0:0:
206,376,50320,6,0,P|198:321|229:293,1,95.9999970703126,4|0,3:1|0:0,0:0:0:0:
359,181,50653,2,0,P|351:237|345:293,1,95.9999970703126,10|0,0:0|0:0,0:0:0:0:
165,243,50987,2,0,P|208:208|248:221,1,95.9999970703126,2|0,3:2|0:0,0:0:0:0:
437,180,51320,2,0,P|429:236|423:292,1,95.9999970703126,10|0,0:0|0:0,0:0:0:0:
287,148,51653,5,2,3:2:0:0:
383,83,51820,1,2,0:0:0:0:
450,173,51987,1,10,0:0:0:0:
291,57,52153,2,0,P|233:65|142:90,1,143.999995605469,2|0,3:2|0:0,0:0:0:0:
73,80,52487,2,0,P|43:38|76:-3,1,95.9999970703126,2|8,0:0|0:0,0:0:0:0:
209,26,52820,1,2,0:0:0:0:
117,167,52987,6,0,P|66:167|11:163,1,95.9999970703126,2|0,3:2|0:0,0:0:0:0:
10,168,53237,2,0,P|10:219|6:274,1,95.9999970703126,2|0,0:0|0:0,0:0:0:0:
3,277,53487,1,2,0:0:0:0:
74,357,53653,2,0,P|125:357|180:361,1,95.9999970703126,2|0,3:2|0:0,0:0:0:0:
181,356,53903,2,0,P|181:305|185:250,1,95.9999970703126,2|0,0:0|0:0,0:0:0:0:
188,247,54153,1,2,0:0:0:0:
293,138,54320,6,0,P|263:165|192:102,1,143.999995605469,2|0,3:2|0:0,0:0:0:0:
199,103,54653,1,10,0:0:0:0:
381,82,54820,2,0,P|372:145|371:185,1,95.9999970703126,0|0,3:0|3:0,0:0:0:0:
323,315,55153,2,0,P|296:277|319:234,1,95.9999970703126,2|8,0:0|0:0,0:0:0:0:
476,267,55487,1,2,0:0:0:0:
443,341,55653,6,0,P|351:350|242:370,1,191.999994140625,4|8,3:2|0:0,0:0:0:0:
89,313,56153,1,2,0:0:0:0:
89,313,56237,1,2,0:3:0:0:
89,313,56320,2,0,P|139:318|188:333,1,95.9999970703126,2|2,3:2|0:0,0:0:0:0:
14,265,56653,2,0,P|-13:304|13:350,1,95.9999970703126,10|2,0:0|0:0,0:0:0:0:
181,245,56987,6,0,P|176:181|169:94,1,143.999995605469,2|2,3:2|0:3,0:0:0:0:
179,89,57320,1,10,0:0:0:0:
102,216,57487,1,2,3:2:0:0:
102,216,57570,1,8,0:0:0:0:
102,216,57653,2,0,P|98:175|94:120,1,95.9999970703126,2|2,3:2|0:3,0:0:0:0:
16,15,57987,1,8,0:0:0:0:
94,109,58153,1,2,0:0:0:0:
225,20,58320,6,0,P|284:25|378:47,1,143.999995605469,2|0,3:2|0:0,0:0:0:0:
421,104,58653,2,0,P|453:70|447:24,1,95.9999970703126,8|0,0:0|3:0,0:0:0:0:
441,10,58903,1,0,3:0:0:0:
433,2,58987,1,8,0:0:0:0:
340,116,59153,2,0,P|344:143|347:164,2,47.9999985351563,0|0|8,3:0|3:0|0:0,0:0:0:0:
474,182,59487,6,0,P|413:191|276:220,1,191.999994140625,6|2,3:2|3:2,0:0:0:0:
244,284,59903,1,0,3:0:0:0:
244,284,59987,2,0,L|255:339,2,47.9999985351563,8|8|2,0:0|0:0|3:2,0:0:0:0:
263,144,60320,2,0,L|253:96,3,47.9999985351563,2|8|0|0,3:2|0:0|3:0|3:0,0:0:0:0:
263,18,60653,2,0,L|215:27,3,47.9999985351563,8|8|8|8,0:0|0:0|0:0|0:0,0:0:0:0:
133,5,60987,6,0,L|154:112,1,95.9999970703126,4|0,3:1|0:0,0:0:0:0:
36,301,61320,2,0,L|14:193,1,95.9999970703126,10|0,0:0|0:0,0:0:0:0:
254,97,61653,2,0,L|275:204,1,95.9999970703126,2|0,3:2|0:0,0:0:0:0:
63,134,61987,2,0,L|41:26,1,95.9999970703126,10|0,0:0|0:0,0:0:0:0:
254,97,62320,5,2,3:2:0:0:
168,189,62487,1,2,0:0:0:0:
249,86,62653,1,10,0:0:0:0:
396,148,62820,2,0,L|367:291,1,143.999995605469,2|0,3:2|0:0,0:0:0:0:
420,346,63153,2,0,P|468:365|502:323,1,95.9999970703126,2|8,0:0|0:0,0:0:0:0:
422,229,63487,1,2,0:0:0:0:
312,348,63653,6,0,P|253:356|210:367,1,95.9999970703126,2|0,3:2|0:0,0:0:0:0:
204,358,63903,2,0,P|196:299|185:256,1,95.9999970703126,2|0,0:0|0:0,0:0:0:0:
194,251,64153,1,2,0:0:0:0:
255,160,64320,2,0,P|301:149|349:143,1,95.9999970703126,2|0,3:2|0:0,0:0:0:0:
360,137,64570,2,0,P|349:90|343:42,1,95.9999970703126,2|0,0:0|0:0,0:0:0:0:
351,31,64820,1,2,0:0:0:0:
169,13,64987,6,0,P|195:68|268:43,1,143.999995605469,2|0,3:2|0:0,0:0:0:0:
263,37,65320,1,10,0:0:0:0:
98,89,65487,2,0,P|108:145|112:186,1,95.9999970703126,2|0,3:2|3:0,0:0:0:0:
162,316,65820,2,0,P|187:265|155:226,1,95.9999970703126,2|8,0:0|0:0,0:0:0:0:
10,285,66153,1,2,0:0:0:0:
58,351,66320,6,0,P|132:355|272:378,1,191.999994140625,4|8,3:2|0:0,0:0:0:0:
344,217,66820,1,2,0:0:0:0:
344,217,66903,1,2,0:3:0:0:
344,217,66987,2,0,P|295:203|258:236,1,95.9999970703126,2|2,3:2|0:0,0:0:0:0:
327,383,67320,2,0,P|319:322|310:277,1,95.9999970703126,10|2,0:0|0:0,0:0:0:0:
512,161,67653,6,0,P|497:239|487:318,1,143.999995605469,2|2,3:2|0:3,0:0:0:0:
497,314,67987,1,8,0:0:0:0:
430,180,68153,1,2,3:2:0:0:
430,180,68237,1,8,0:0:0:0:
430,180,68320,2,0,P|419:235|412:292,1,95.9999970703126,0|0,3:0|0:0,0:0:0:0:
512,161,68653,1,8,0:0:0:0:
421,74,68820,1,2,0:0:0:0:
304,182,68987,6,0,P|250:188|153:212,1,143.999995605469,2|0,3:2|0:0,0:0:0:0:
102,264,69320,2,0,P|73:218|90:173,1,95.9999970703126,10|2,0:0|3:2,0:0:0:0:
91,172,69570,1,0,3:0:0:0:
98,162,69653,1,10,0:0:0:0:
4,81,69820,2,0,L|14:148,2,47.9999985351563,2|0|8,3:2|3:0|0:0,0:0:0:0:
176,0,70153,1,4,3:2:0:0:
210,91,70320,6,0,P|136:84|99:81,1,95.9999970703126,2|2,0:0|3:2,0:0:0:0:
108,73,70570,1,0,3:0:0:0:
102,65,70653,1,10,0:0:0:0:
281,26,70820,2,0,P|313:28|346:32,3,47.9999985351563,2|0|8|8,3:2|3:0|0:3|0:0,0:0:0:0:
401,0,71153,2,0,P|433:2|466:6,3,47.9999985351563,2|0|8|8,3:2|3:0|0:0|0:0,0:0:0:0:
512,65,71487,1,10,0:0:0:0:
512,65,71570,1,8,0:0:0:0:
512,65,71653,6,0,P|501:132|490:214,1,150,4|0,3:1|3:0,0:0:0:0:
496,224,71987,1,8,0:0:0:0:
428,280,72153,1,0,3:0:0:0:
352,240,72320,1,8,0:0:0:0:
428,92,72487,2,0,P|420:138|412:194,2,100,2|8|2,3:2|0:0|3:2,0:0:0:0:
317,15,72987,6,0,P|270:69|199:31,1,150,8|0,0:0|3:0,0:0:0:0:
196,33,73320,1,8,0:0:0:0:
126,83,73487,1,0,3:0:0:0:
65,23,73653,1,8,0:0:0:0:
20,177,73820,2,0,P|12:118|4:75,2,100,2|10|2,3:2|0:0|3:2,0:0:0:0:
1,323,74320,6,0,P|59:260|117:306,1,150,8|0,0:0|3:0,0:0:0:0:
174,348,74653,2,0,P|124:356|78:375,1,100,10|0,0:0|3:0,0:0:0:0:
231,281,74987,2,0,P|272:310|268:359,1,100,10|0,0:0|3:0,0:0:0:0:
262,367,75237,1,0,3:0:0:0:
254,376,75320,1,10,0:0:0:0:
168,225,75487,6,0,P|163:196|155:154,1,51.999997619629,2|0,3:2|0:0,0:0:0:0:
150,166,75653,1,8,0:0:0:0:
243,185,75820,2,0,P|238:156|230:114,1,51.999997619629,2|0,3:2|0:0,0:0:0:0:
225,126,75986,1,8,0:0:0:0:
317,150,76153,2,0,P|312:121|304:79,1,51.999997619629,0|0,3:0|0:0,0:0:0:0:
299,91,76319,1,8,0:0:0:0:
399,157,76487,2,0,P|385:84|375:40,1,103.999995239258,2|8,3:2|0:0,0:0:0:0:
365,245,76820,1,8,0:3:0:0:
365,245,76903,1,4,0:3:0:0:
365,245,76987,6,0,P|432:229|484:222,1,95.9999970703126,6|2,3:2|3:2,0:0:0:0:
477,305,77237,1,0,3:0:0:0:
477,305,77320,2,0,P|429:313|383:325,1,95.9999970703126,10|2,0:0|3:2,0:0:0:0:
230,307,77653,2,0,P|281:326|312:292,2,95.9999970703126,0|2|10,3:2|3:2|0:0,0:0:0:0:
133,372,78153,6,0,P|125:282|114:219,1,143.999995605469,6|0,3:2|0:0,0:0:0:0:
45,264,78487,2,0,P|52:311|56:359,1,95.9999970703126,0|8,3:0|0:0,0:0:0:0:
196,238,78820,2,0,P|199:190|207:142,1,95.9999970703126,0|0,3:0|3:0,0:0:0:0:
46,48,79153,1,2,3:2:0:0:
46,48,79237,1,0,3:0:0:0:
46,48,79320,2,0,P|50:77|52:104,3,47.9999985351563,10|8|10|8,0:0|0:0|0:0|0:0,0:0:0:0:
14,162,79653,6,0,P|73:150|119:144,1,95.9999970703126,6|2,3:2|3:2,0:0:0:0:
157,85,79903,1,0,3:0:0:0:
157,85,79987,2,0,P|201:60|244:76,1,95.9999970703126,10|2,0:0|3:2,0:0:0:0:
196,238,80320,2,0,P|199:190|207:142,2,95.9999970703126,2|0|10,3:2|3:0|0:0,0:0:0:0:
120,342,80820,6,0,P|186:347|280:355,1,143.999995605469,6|0,3:2|0:0,0:0:0:0:
341,380,81153,2,0,P|344:339|352:282,1,95.9999970703126,2|8,3:2|0:0,0:0:0:0:
492,210,81487,1,2,3:2:0:0:
492,210,81570,1,0,3:0:0:0:
492,210,81653,2,0,L|497:147,3,47.9999985351563,4|4|2|0,0:3|0:3|3:2|3:0,0:0:0:0:
438,107,81987,2,0,L|443:44,3,47.9999985351563,10|8|2|0,0:0|0:0|3:2|3:0,0:0:0:0:
502,7,82320,5,10,0:0:0:0:
510,15,83172,5,2,3:2:0:0:
510,15,83255,1,0,3:0:0:0:
510,15,83338,1,10,0:0:0:0:
360,71,83500,1,10,0:0:0:0:
368,78,84516,5,2,3:2:0:0:
368,78,84594,1,0,3:0:0:0:
368,78,84673,2,0,L|375:134,3,40,8|8|4|4,0:3|0:3|0:3|0:3,0:0:0:0:
318,174,84987,1,4,3:2:0:0:
318,174,85659,6,0,P|255:167|214:164,2,95.9999970703126,2|2|2,0:0|0:0|0:0,0:0:0:0:
477,214,87659,6,0,B|500:179|494:140|466:110|416:104|378:133|378:182|392:258|436:300,1,320,6|0,3:2|0:0,0:0:0:0:
