osu file format v14

[General]
AudioFilename: audio.mp3
AudioLeadIn: 0
PreviewTime: 49237
Countdown: 0
SampleSet: Soft
StackLeniency: 0.4
Mode: 0
LetterboxInBreaks: 0
EpilepsyWarning: 1
WidescreenStoryboard: 1

[Editor]
DistanceSpacing: 1
BeatDivisor: 4
GridSize: 4
TimelineZoom: 1.4

[Metadata]
Title:Judgement (TV Size)
TitleUnicode:Judgement (TV Size)
Artist:ASH DA HERO
ArtistUnicode:ASH DA HERO
Creator:KaedeharaKazuha
Version:Insane
Source:ブルーロック
Tags:Addy2607 Kaedehara Kazuha AirinCat Some Hero Some_Hero Heroine Kyouren KittyAdventure gokugohan12468 -Mikan Mikan Bazz B Bazz_B Flask killian rk657 Matsuyuki Ame Matsuyuki_Ame muya- arronchu1207 Irohas MugiwaraSekai kanor Gorou Wanpachi Cycopton jrock j-rock japanese rock BLUE LOCK BLUELOCK anime 2nd second opening op intro theme song 2 two football soccer ASH Narukaze Sato WANI DJ Dhalsim ADH
BeatmapID:3963167
BeatmapSetID:1918519

[Difficulty]
HPDrainRate:6
CircleSize:3.6
OverallDifficulty:7.5
ApproachRate:8.8
SliderMultiplier:1.8
SliderTickRate:1

[Events]
//Background and Video events
Video,0,"video.mp4"
0,0,"BG.jpg",0,0
//Break Periods
//Storyboard Layer 0 (Background)
//Storyboard Layer 1 (Fail)
//Storyboard Layer 2 (Pass)
//Storyboard Layer 3 (Foreground)
//Storyboard Layer 4 (Overlay)
//Storyboard Sound Samples

[TimingPoints]
-346,333.333333333333,4,2,1,100,1,0
487,-125,4,2,1,50,0,0
987,-100,4,2,1,70,0,0
6320,-100,4,2,1,80,0,0
11653,-100,4,2,1,90,0,0
12153,-142.857142857143,4,2,1,50,0,0
13653,392.156862745098,4,2,1,50,1,0
13849,292.682926829268,4,2,1,50,1,0
13849,-142.857142857143,4,2,1,50,0,0
14320,333.333333333333,4,2,1,50,1,0
14320,-142.857142857143,4,2,1,50,0,0
14653,359.281437125748,4,2,1,50,1,0
14832,333.333333333333,4,2,1,50,1,0
14832,-142.857142857143,4,2,1,50,0,0
14998,359.281437125748,4,2,1,50,1,0
15177,333.333333333333,4,2,1,50,1,0
15177,-142.857142857143,4,2,1,50,0,0
15510,292.682926829268,4,2,1,50,1,0
15656,333.333333333333,4,2,1,60,1,0
15656,-125,4,2,1,60,0,0
16072,288.461538461538,4,2,1,60,1,0
16144,310.880829015544,4,2,1,60,1,0
16299,333.333333333333,4,2,1,60,1,0
16465,377.358490566038,4,2,1,70,1,0
16465,-100,4,2,1,70,0,0
16653,333.333333333333,4,2,1,70,1,0
16987,333.333333333333,4,2,1,60,1,0
16987,-125,4,2,1,60,0,0
27487,-111.111111111111,4,2,1,60,0,0
28987,-111.111111111111,4,2,1,70,0,0
29487,-100,4,2,1,70,0,0
30320,-111.111111111111,4,2,1,60,0,0
31653,-111.111111111111,4,2,1,70,0,0
32153,-100,4,2,1,70,0,0
32987,-111.111111111111,4,2,1,60,0,0
34320,-111.111111111111,4,2,1,70,0,0
34820,-100,4,2,1,70,0,0
35654,-111.111111111111,4,2,1,60,0,0
36987,-111.111111111111,4,2,1,70,0,0
38320,-125,4,2,1,60,0,0
43653,-111.111111111111,4,2,1,70,0,0
46320,-100,4,2,1,80,0,0
48987,-125,4,2,1,80,0,0
49320,-125,4,2,1,60,0,0
49653,-142.857142857143,4,2,1,80,0,0
50320,-83.3333333333333,4,2,1,90,0,1
71653,-80,4,2,1,90,0,1
75487,-76.9230769230769,4,2,1,90,0,1
76987,-83.3333333333333,4,2,1,90,0,1
82320,340.909090909091,4,2,1,70,1,0
82320,-100,4,2,1,70,0,0
83172,333.333333333333,4,2,1,70,1,0
83338,324.324324324324,4,2,1,70,1,0
83500,338.983050847458,4,2,1,70,1,0
84516,314.13612565445,4,2,1,70,1,0
84987,333.333333333333,4,2,1,70,1,0
85070,337.078651685393,4,2,1,70,1,0
85659,333.333333333333,4,2,1,50,1,0
85659,-333.333333333333,4,2,1,50,0,0
87659,333.333333333333,4,2,1,60,1,0
87659,-200,4,2,1,60,0,0
88992,-200,4,2,1,5,0,0

[Colours]
Combo1 : 212,212,212
Combo2 : 238,72,68
Combo3 : 95,95,95
Combo4 : 62,82,225

[HitObjects]
7,310,487,6,0,P|13:341|17:382,2,72,2|2|2,0:0|0:0|0:0,0:0:0:0:
92,353,987,6,0,P|144:346|160:302,1,90,6|0,3:2|0:0,0:0:0:0:
230,119,1320,2,0,P|178:126|162:169,1,90,2|4,3:2|0:3,0:0:0:0:
228,355,1653,2,0,P|247:306|217:270,1,90,2|4,3:2|0:3,0:0:0:0:
94,117,1987,2,0,P|74:165|104:201,1,90,4|4,3:0|3:0,0:0:0:0:
297,238,2320,6,0,P|264:196|218:204,1,90,2|0,3:2|0:0,0:0:0:0:
24,233,2653,2,0,P|56:274|102:266,1,90,4|4,3:0|0:3,0:0:0:0:
231,119,2987,2,0,L|224:61,3,45,4|4|4|4,3:0|0:3|0:3|0:3,0:0:0:0:
300,49,3320,2,0,L|307:107,3,45,4|4|4|4,3:0|0:3|0:3|0:3,0:0:0:0:
410,133,3653,6,0,L|218:118,1,180,6|4,3:2|3:0,0:0:0:0:
168,180,4153,1,4,0:3:0:0:
53,135,4320,2,0,P|46:62|39:-5,1,135,4|0,3:0|0:0,0:0:0:0:
117,20,4653,2,0,P|122:71|127:122,1,90,4|0,3:0|0:0,0:0:0:0:
1,204,4987,6,0,P|42:177|95:243,1,135,2|0,3:2|0:0,0:0:0:0:
138,303,5320,2,0,P|87:308|42:324,1,90,4|4,3:0|0:3,0:0:0:0:
182,224,5653,1,0,3:0:0:0:
239,360,5820,1,2,0:0:0:0:
187,217,5987,1,2,3:2:0:0:
138,303,6153,1,4,0:3:0:0:
325,360,6320,6,0,P|380:348|427:343,1,90,6|0,3:2|0:0,0:0:0:0:
491,375,6653,1,4,0:3:0:0:
321,284,6820,2,0,P|376:272|423:267,1,90,4|0,3:2|0:0,0:0:0:0:
487,299,7153,1,4,0:3:0:0:
268,226,7320,2,0,P|234:267|246:307,1,90,4|4,3:2|0:3,0:0:0:0:
378,194,7653,6,0,P|384:133|393:94,1,90,4|0,3:2|0:0,0:0:0:0:
359,31,7987,1,4,0:3:0:0:
455,202,8153,2,0,P|461:141|470:102,1,90,4|0,3:2|0:0,0:0:0:0:
436,39,8487,1,4,0:3:0:0:
313,97,8653,2,0,P|266:109|236:75,1,90,4|0,3:2|0:0,0:0:0:0:
105,11,8987,6,0,P|99:72|90:111,1,90,4|0,3:2|0:0,0:0:0:0:
124,174,9321,1,4,0:3:0:0:
28,3,9487,2,0,P|22:64|13:103,1,90,4|0,3:2|0:0,0:0:0:0:
47,166,9821,1,4,0:3:0:0:
171,106,9987,1,4,3:2:0:0:
200,90,10070,1,0,3:0:0:0:
232,95,10153,1,0,3:0:0:0:
255,119,10237,1,0,3:0:0:0:
258,152,10320,6,0,L|252:208,3,45,4|4|4|4,0:3|0:3|0:3|0:3,0:0:0:0:
243,270,10653,2,0,L|237:326,3,45,4|4|4|4,0:3|0:3|0:3|0:3,0:0:0:0:
314,347,10987,2,0,L|320:291,3,45,8|8|8|8,0:3|0:3|0:3|0:3,0:0:0:0:
329,229,11320,2,0,L|335:173,3,45,8|8|8|8,0:3|0:3|0:3|0:3,0:0:0:0:
437,135,11653,6,0,P|320:146|240:153,1,180,4|0,3:2|0:0,0:0:0:0:
243,25,12153,2,0,P|299:13|310:87,2,125.999996154785,2|2|2,0:0|0:0|0:0,0:0:0:0:
202,93,12903,1,2,0:0:0:0:
202,93,12987,6,0,P|149:100|64:119,1,125.999996154785,2|0,0:0|0:0,0:0:0:0:
159,24,13487,2,0,P|130:27|84:37,1,62.9999980773926,2|0,0:0|0:0,0:0:0:0:
0,112,13849,1,0,3:0:0:0:
0,112,13922,1,0,3:0:0:0:
0,112,13995,2,0,L|10:161,3,31.4999990386963,8|8|4|4,0:3|0:3|0:3|0:3,0:0:0:0:
0,222,14320,6,0,P|58:228|134:238,1,125.999996154785,2|0,3:2|0:0,0:0:0:0:
149,382,14832,2,0,P|78:376|63:375,1,62.9999980773926,2|0,0:0|0:0,0:0:0:0:
0,297,15177,2,0,P|71:303|86:304,1,62.9999980773926,2|0,0:0|0:0,0:0:0:0:
199,294,15510,1,8,0:0:0:0:
199,294,15583,1,8,0:0:0:0:
199,294,15656,6,0,P|247:300|290:310,1,72,8|0,0:0|0:0,0:0:0:0:
338,344,15906,2,0,P|373:337|409:333,1,72,8|0,0:0|0:0,0:0:0:0:
362,259,16144,1,8,0:0:0:0:
217,382,16299,1,8,0:0:0:0:
248,227,16465,1,10,0:0:0:0:
248,227,16559,1,8,0:3:0:0:
248,227,16653,2,0,L|241:171,3,45,2|2|2|2,3:2|0:0|0:0|0:0,0:0:0:0:
283,114,16987,6,0,P|330:101|368:147,1,108,4|0,3:2|3:0,0:0:0:0:
364,152,17320,1,10,0:0:0:0:
495,84,17487,2,0,P|519:50|500:14,1,72,2|2,3:2|0:3,0:0:0:0:
434,7,17820,2,0,P|410:41|429:77,1,72,2|8,3:2|0:0,0:0:0:0:
508,212,18153,6,0,P|433:220|345:238,1,144,2|2,0:0|3:2,0:0:0:0:
356,236,18570,1,0,3:0:0:0:
348,240,18654,1,8,0:0:0:0:
462,142,18820,2,0,P|426:146|391:153,1,72,2|2,3:2|0:3,0:0:0:0:
416,298,19153,2,0,P|452:291|488:288,1,72,2|8,3:2|0:0,0:0:0:0:
313,164,19487,6,0,P|256:147|194:209,1,144,2|2,0:0|3:2,0:0:0:0:
258,297,19903,1,0,3:0:0:0:
258,297,19987,2,0,P|262:252|270:215,1,72,10|2,0:0|3:2,0:0:0:0:
129,148,20320,2,0,P|123:87|112:38,1,108,2|2,0:0|3:2,0:0:0:0:
112,30,20653,1,8,0:0:0:0:
287,19,20820,6,0,P|261:90|190:71,1,144,2|2,3:2|3:2,0:0:0:0:
37,55,21320,2,0,P|47:108|52:163,1,108,10|8,0:0|0:0,0:0:0:0:
7,224,21653,2,0,P|10:248|14:274,3,36,2|8|2|2,3:2|0:0|0:3|3:2,0:0:0:0:
8,272,21987,1,10,0:0:0:0:
121,365,22153,1,10,0:0:0:0:
121,365,22237,1,8,0:0:0:0:
121,365,22320,6,0,P|192:352|237:349,1,108,4|0,3:2|3:0,0:0:0:0:
281,297,22653,2,0,P|307:331|291:371,1,72,10|0,0:0|3:0,0:0:0:0:
122,259,22987,1,2,0:0:0:0:
192,205,23153,2,0,P|201:236|207:288,1,72,2|8,3:2|0:0,0:0:0:0:
377,377,23487,6,0,P|386:299|407:223,1,144,2|2,0:0|3:2,0:0:0:0:
411,224,23903,1,0,3:0:0:0:
417,214,23987,1,8,0:0:0:0:
255,126,24153,2,0,P|286:194|351:175,1,144,2|0,3:2|3:0,0:0:0:0:
481,151,24653,2,0,P|433:137|397:132,1,72,10|2,0:0|0:3,0:0:0:0:
361,17,24987,6,0,P|293:36|243:43,1,108,2|0,3:2|3:0,0:0:0:0:
190,77,25320,2,0,P|173:41|186:10,1,72,10|0,0:0|3:0,0:0:0:0:
237,170,25653,2,0,P|169:150|119:143,1,108,2|0,0:0|0:0,0:0:0:0:
66,110,25986,2,0,P|49:146|62:177,1,72,10|4,0:0|3:2,0:0:0:0:
113,292,26320,6,0,P|116:248|121:209,1,72,2|0,0:0|3:0,0:0:0:0:
55,374,26653,1,8,0:0:0:0:
90,369,26736,1,8,0:0:0:0:
126,365,26819,1,0,3:0:0:0:
162,360,26902,1,0,3:0:0:0:
197,356,26987,2,0,P|195:333|192:312,3,36,8|8|0|0,0:3|0:3|3:0|3:0,0:0:0:0:
237,257,27320,1,8,0:0:0:0:
452,355,27487,6,0,P|352:341|265:334,1,161.999995056153,2|2,0:0|3:2,0:0:0:0:
338,264,27903,1,0,3:0:0:0:
338,264,27987,2,0,P|378:267|418:273,1,80.9999975280763,10|2,0:0|3:2,0:0:0:0:
503,116,28320,2,0,P|463:113|423:107,1,80.9999975280763,2|0,0:0|3:0,0:0:0:0:
503,300,28653,1,10,0:0:0:0:
449,193,28820,1,2,0:0:0:0:
256,269,28987,6,0,P|249:206|235:126,1,121.499996292114,2|2,3:2|3:2,0:0:0:0:
244,138,29320,1,8,0:0:0:0:
422,106,29487,2,0,P|405:162|324:140,1,135,2|0,3:2|0:0,0:0:0:0:
306,90,29820,2,0,P|288:34|207:56,1,135,0|0,3:0|0:0,0:0:0:0:
166,88,30153,1,2,0:3:0:0:
170,97,30237,1,2,0:3:0:0:
174,106,30320,5,0,3:0:0:0:
109,18,30487,1,2,3:2:0:0:
113,9,30571,1,0,3:0:0:0:
117,0,30654,1,10,0:0:0:0:
0,96,30820,1,2,3:2:0:0:
104,189,30987,1,2,0:0:0:0:
85,101,31153,1,2,3:2:0:0:
0,257,31320,2,0,P|67:262|131:286,1,121.499996292114,10|0,0:0|0:0,0:0:0:0:
182,233,31653,6,0,P|224:270|201:331,1,121.499996292114,2|2,3:2|3:2,0:0:0:0:
194,326,31987,1,8,0:0:0:0:
104,189,32153,2,0,P|171:184|235:160,1,135,2|0,3:2|0:0,0:0:0:0:
287,216,32487,2,0,P|354:221|418:245,1,135,0|0,3:0|0:0,0:0:0:0:
477,199,32820,1,8,0:0:0:0:
474,188,32903,1,8,0:0:0:0:
471,177,32986,5,0,3:0:0:0:
506,91,33153,1,2,3:2:0:0:
509,80,33236,1,0,3:0:0:0:
512,69,33319,1,10,0:0:0:0:
457,0,33487,1,2,3:2:0:0:
337,100,33653,2,0,P|380:120|430:65,2,121.499996292114,2|2|2,0:0|0:0|0:0,0:0:0:0:
174,7,34320,6,0,P|184:88|187:143,1,121.499996292114,2|2,3:2|3:2,0:0:0:0:
182,139,34653,1,8,0:0:0:0:
324,27,34820,2,0,P|286:-1|243:26,1,90,2|0,3:2|0:0,0:0:0:0:
106,74,35153,2,0,P|61:104|10:7,1,180,2|2,3:2|0:3,0:0:0:0:
174,7,35653,5,0,3:2:0:0:
266,86,35820,1,2,3:2:0:0:
262,96,35903,1,0,3:0:0:0:
258,106,35987,1,10,0:0:0:0:
182,1,36153,1,2,3:2:0:0:
106,74,36320,2,0,P|116:147|122:208,1,121.499996292114,2|2,0:0|0:0,0:0:0:0:
44,184,36653,2,0,P|39:143|33:102,1,80.9999975280763,8|6,0:0|3:2,0:0:0:0:
192,151,36987,6,0,P|265:161|326:170,1,121.499996292114,2|2,0:0|0:0,0:0:0:0:
364,225,37320,2,0,P|369:261|373:292,3,40.4999987640381,4|4|2|0,0:3|0:3|3:2|3:0,0:0:0:0:
416,168,37653,2,0,P|421:131|425:100,3,40.4999987640381,4|4|4|4,3:0|3:0|3:0|3:0,0:0:0:0:
464,229,37987,1,8,0:3:0:0:
468,259,38070,1,8,0:3:0:0:
472,289,38153,1,8,0:3:0:0:
476,319,38237,1,8,0:3:0:0:
480,349,38320,6,0,L|308:333,1,144,6|0,3:2|3:0,0:0:0:0:
200,347,38820,2,0,P|234:363|270:336,1,72,2|0,0:0|3:0,0:0:0:0:
305,203,39153,1,2,0:3:0:0:
305,203,39320,2,0,P|293:249|289:286,1,72,2|0,3:2|0:0,0:0:0:0:
109,379,39653,6,0,P|100:321|84:265,1,108,2|2,3:2|0:0,0:0:0:0:
78,266,39987,1,0,3:0:0:0:
228,184,40153,2,0,P|216:230|212:267,1,72,2|0,0:0|3:0,0:0:0:0:
32,381,40487,2,0,P|26:345|16:310,1,72,2|0,0:0|3:0,0:0:0:0:
139,214,40820,1,2,0:3:0:0:
0,66,40987,6,0,P|15:140|29:217,1,144,2|0,3:2|3:0,0:0:0:0:
80,79,41487,2,0,P|88:118|95:159,1,72,2|0,0:0|3:0,0:0:0:0:
213,254,41820,1,2,0:0:0:0:
213,254,41987,2,0,P|219:218|226:183,1,72,2|0,3:2|0:0,0:0:0:0:
160,91,42320,6,0,P|207:103|234:56,1,108,2|2,3:2|0:0,0:0:0:0:
227,47,42653,1,0,3:0:0:0:
289,132,42820,1,2,0:0:0:0:
440,50,42987,2,0,L|433:3,3,36,8|8|8|8,0:0|0:0|0:0|0:0,0:0:0:0:
358,0,43320,2,0,L|373:106,1,108,4|4,0:3|0:3,0:0:0:0:
356,182,43653,6,0,P|393:138|448:163,1,121.499996292114,6|2,3:2|0:0,0:0:0:0:
452,170,43987,1,8,0:0:0:0:
344,293,44153,2,0,P|290:280|256:280,1,80.9999975280763,2|0,0:0|3:0,0:0:0:0:
410,247,44487,1,2,0:3:0:0:
334,368,44653,2,0,P|280:355|246:355,1,80.9999975280763,10|0,0:0|0:0,0:0:0:0:
96,330,44987,6,0,P|158:348|191:298,1,121.499996292114,2|2,3:2|0:0,0:0:0:0:
189,299,45320,1,8,0:0:0:0:
8,297,45487,2,0,P|19:359|22:387,1,80.9999975280763,2|0,0:0|3:0,0:0:0:0:
125,239,45820,1,2,0:0:0:0:
0,183,45987,1,8,0:0:0:0:
96,330,46153,1,0,3:0:0:0:
233,219,46320,6,0,P|226:161|219:117,1,90,12|0,0:0|3:0,0:0:0:0:
218,118,46570,1,0,3:0:0:0:
214,108,46653,1,2,3:2:0:0:
313,199,46820,2,0,P|306:141|299:97,1,90,14|0,0:0|3:0,0:0:0:0:
298,98,47070,1,0,3:0:0:0:
294,88,47153,1,2,3:2:0:0:
393,179,47320,2,0,P|386:121|379:77,1,90,14|0,0:0|3:0,0:0:0:0:
507,0,47653,6,0,P|510:29|514:51,3,45,2|0|0|2,3:2|3:0|3:0|3:2,0:0:0:0:
465,103,47987,1,0,3:2:0:0:
465,103,48070,1,0,3:0:0:0:
465,103,48153,2,0,P|468:125|470:147,3,45,2|0|8|8,3:2|3:0|0:0|0:0,0:0:0:0:
423,208,48487,1,10,0:0:0:0:
423,208,48570,1,8,0:0:0:0:
423,208,48653,6,0,P|426:230|428:252,1,45,10|8,0:0|0:0,0:0:0:0:
373,303,48820,2,0,P|376:325|378:347,1,45,8|8,0:0|0:0,0:0:0:0:
451,384,48987,5,4,3:2:0:0:
451,384,49653,6,0,L|209:357,1,220.499993270874,8|0,0:3|0:0,0:0:0:0:
172,311,50320,6,0,L|3:329,1,161.999995056153,4|0,3:1|0:0,0:0:0:0:
34,251,50653,2,0,L|153:237,1,107.999996704102,10|0,0:0|0:0,0:0:0:0:
208,80,50987,6,0,L|46:97,1,161.999995056153,2|0,3:2|0:0,0:0:0:0:
77,169,51320,2,0,L|184:157,1,107.999996704102,10|0,0:0|0:0,0:0:0:0:
276,12,51653,5,2,3:2:0:0:
340,90,51820,1,2,0:0:0:0:
267,5,51987,1,10,0:0:0:0:
431,0,52153,2,0,P|422:84|410:185,1,161.999995056153,2|0,3:2|0:0,0:0:0:0:
491,147,52487,2,0,P|498:83|506:19,1,107.999996704102,2|8,0:0|0:0,0:0:0:0:
340,90,52820,1,2,0:0:0:0:
461,222,52987,6,0,P|468:286|476:350,1,107.999996704102,2|0,3:2|0:0,0:0:0:0:
396,338,53237,2,0,P|390:284|383:230,1,107.999996704102,2|0,0:0|0:0,0:0:0:0:
413,161,53487,1,2,0:0:0:0:
311,327,53653,6,0,P|273:359|217:334,1,107.999996704102,2|0,3:2|0:0,0:0:0:0:
178,280,53903,2,0,P|140:248|84:273,1,107.999996704102,2|0,0:0|0:0,0:0:0:0:
50,332,54153,1,2,0:0:0:0:
257,259,54320,6,0,P|249:189|237:95,1,161.999995056153,2|0,3:2|0:0,0:0:0:0:
280,34,54653,1,10,0:0:0:0:
329,226,54820,2,0,P|322:173|312:101,1,107.999996704102,0|0,3:0|3:0,0:0:0:0:
432,6,55153,2,0,P|409:62|351:41,1,107.999996704102,2|8,0:0|0:0,0:0:0:0:
205,0,55487,1,2,0:0:0:0:
141,58,55653,6,0,P|155:167|167:276,1,215.999993408203,4|8,3:2|0:0,0:0:0:0:
9,371,56153,1,2,0:0:0:0:
9,371,56237,1,2,0:3:0:0:
9,371,56320,1,2,3:2:0:0:
82,219,56487,1,2,0:0:0:0:
221,343,56653,1,10,0:0:0:0:
68,304,56820,1,2,0:0:0:0:
232,155,56987,6,0,P|239:211|245:268,1,107.999996704102,2|2,3:2|0:3,0:0:0:0:
221,343,57237,2,0,P|272:301|316:333,1,107.999996704102,2|0,0:3|0:0,0:0:0:0:
359,369,57487,1,2,3:2:0:0:
470,305,57653,2,0,P|475:251|482:197,1,107.999996704102,2|2,3:2|0:3,0:0:0:0:
377,290,57987,1,8,0:0:0:0:
512,379,58153,1,2,0:0:0:0:
401,211,58320,6,0,P|393:145|374:45,1,161.999995056153,2|0,3:2|0:0,0:0:0:0:
434,2,58653,2,0,P|491:0|502:50,1,107.999996704102,8|0,0:0|3:0,0:0:0:0:
465,105,58903,1,0,3:0:0:0:
465,105,58987,1,8,0:0:0:0:
313,4,59153,1,0,3:0:0:0:
313,4,59237,1,0,3:0:0:0:
313,4,59320,1,8,0:0:0:0:
188,132,59487,6,0,P|249:154|296:73,1,161.999995056153,6|0,3:2|0:0,0:0:0:0:
290,77,59820,1,2,3:2:0:0:
206,229,59987,2,0,L|214:291,3,53.9999983520508,8|8|2|0,0:0|0:0|3:2|3:0,0:0:0:0:
136,279,60320,2,0,L|128:217,3,53.9999983520508,2|8|0|0,3:2|0:0|3:0|3:0,0:0:0:0:
50,209,60653,1,8,0:0:0:0:
55,249,60736,1,8,0:0:0:0:
60,289,60819,1,8,0:0:0:0:
65,329,60903,1,8,0:0:0:0:
70,369,60987,6,0,P|146:375|249:385,1,161.999995056153,4|0,3:1|0:0,0:0:0:0:
308,365,61320,2,0,P|330:309|298:273,1,107.999996704102,10|0,0:0|0:0,0:0:0:0:
169,161,61653,6,0,P|245:155|348:145,1,161.999995056153,2|0,3:2|0:0,0:0:0:0:
407,164,61986,2,0,P|429:220|397:256,1,107.999996704102,10|0,0:0|0:0,0:0:0:0:
266,75,62320,5,2,3:2:0:0:
421,0,62487,1,2,0:0:0:0:
331,147,62653,1,10,0:0:0:0:
183,0,62820,2,0,P|175:80|168:161,1,161.999995056153,2|0,3:2|0:0,0:0:0:0:
97,129,63153,2,0,P|101:74|106:20,1,107.999996704102,2|8,0:0|0:0,0:0:0:0:
266,75,63487,1,2,0:0:0:0:
120,222,63653,6,0,P|52:232|-12:247,1,107.999996704102,2|0,3:2|0:0,0:0:0:0:
27,314,63903,2,0,P|79:303|133:295,1,107.999996704102,2|0,0:0|0:0,0:0:0:0:
191,247,64153,1,2,0:0:0:0:
321,348,64320,6,0,P|388:352|403:303,1,107.999996704102,2|0,3:2|0:0,0:0:0:0:
379,244,64570,2,0,P|312:240|297:289,1,107.999996704102,2|0,0:0|0:0,0:0:0:0:
246,327,64820,1,2,0:0:0:0:
479,373,64987,6,0,P|485:291|495:195,1,161.999995056153,2|0,3:2|0:0,0:0:0:0:
495,199,65320,1,10,0:0:0:0:
339,139,65487,2,0,P|344:85|348:31,1,107.999996704102,2|0,3:2|3:0,0:0:0:0:
512,0,65820,2,0,P|506:53|502:107,1,107.999996704102,2|8,0:0|0:0,0:0:0:0:
282,197,66153,1,2,0:0:0:0:
223,141,66320,6,0,P|94:156|-8:171,1,215.999993408203,4|8,3:2|0:0,0:0:0:0:
142,75,66820,1,2,0:0:0:0:
142,75,66903,1,2,0:3:0:0:
142,75,66987,1,2,3:2:0:0:
161,223,67153,1,2,0:0:0:0:
56,56,67320,1,10,0:0:0:0:
83,262,67486,1,2,0:0:0:0:
227,64,67653,6,0,P|294:71|347:79,1,107.999996704102,2|2,3:2|0:3,0:0:0:0:
398,118,67903,2,0,P|456:119|462:64,1,107.999996704102,2|0,0:3|0:0,0:0:0:0:
430,12,68153,1,2,3:2:0:0:
327,153,68320,2,0,P|340:238|343:280,1,107.999996704102,0|0,3:0|0:0,0:0:0:0:
493,374,68653,1,8,0:0:0:0:
416,286,68820,1,2,0:0:0:0:
287,346,68987,6,0,P|217:330|105:316,1,161.999995056153,2|0,3:2|0:0,0:0:0:0:
73,263,69320,2,0,P|38:304|58:359,1,107.999996704102,10|2,0:0|3:2,0:0:0:0:
59,361,69570,1,0,3:0:0:0:
67,369,69653,1,10,0:0:0:0:
232,246,69820,1,2,3:2:0:0:
232,246,69903,1,0,3:0:0:0:
232,246,69987,1,8,0:0:0:0:
4,158,70153,1,4,3:2:0:0:
73,263,70320,5,2,0:0:0:0:
206,157,70487,1,2,3:2:0:0:
206,157,70570,1,0,3:0:0:0:
206,157,70653,2,0,L|198:93,1,53.9999983520508,10|8,0:0|0:0,0:0:0:0:
274,60,70820,2,0,L|282:124,3,53.9999983520508,2|0|8|8,3:2|3:0|0:3|0:0,0:0:0:0:
362,130,71153,2,0,L|354:66,3,53.9999983520508,2|0|8|8,3:2|3:0|0:0|0:0,0:0:0:0:
410,17,71487,1,10,0:0:0:0:
419,7,71570,1,8,0:0:0:0:
426,0,71653,6,0,L|449:184,1,168.75,4|0,3:1|3:0,0:0:0:0:
437,179,71987,1,8,0:0:0:0:
378,243,72153,1,0,3:0:0:0:
401,338,72320,1,8,0:0:0:0:
496,373,72487,1,2,3:2:0:0:
496,373,72570,1,0,3:0:0:0:
496,373,72653,1,8,0:0:0:0:
388,250,72820,1,2,3:2:0:0:
279,378,72987,6,0,L|256:194,1,168.75,8|0,0:0|3:0,0:0:0:0:
250,201,73320,1,8,0:0:0:0:
198,133,73487,1,0,3:0:0:0:
216,45,73653,1,8,0:0:0:0:
309,29,73820,1,2,3:2:0:0:
309,29,73903,1,0,3:0:0:0:
309,29,73987,1,10,0:0:0:0:
207,127,74153,1,2,3:2:0:0:
91,18,74320,6,0,L|114:202,1,168.75,8|0,0:0|3:0,0:0:0:0:
33,167,74653,2,0,L|18:53,1,112.5,10|0,0:0|3:0,0:0:0:0:
207,127,74987,1,10,0:0:0:0:
66,246,75153,1,0,3:0:0:0:
66,246,75237,1,0,3:0:0:0:
66,246,75320,1,10,0:0:0:0:
207,334,75487,6,0,L|197:258,1,58.4999973220826,2|0,3:2|0:0,0:0:0:0:
183,253,75653,1,8,0:0:0:0:
281,300,75820,2,0,L|271:224,1,58.4999973220826,2|0,3:2|0:0,0:0:0:0:
257,219,75986,1,8,0:0:0:0:
355,266,76153,2,0,L|345:190,1,58.4999973220826,0|0,3:0|0:0,0:0:0:0:
331,185,76319,1,8,0:0:0:0:
436,290,76487,2,0,L|410:95,1,175.499991966248,2|8,3:2|0:0,0:0:0:0:
455,49,76820,1,8,0:3:0:0:
455,49,76903,1,4,0:3:0:0:
455,49,76987,6,0,P|409:11|351:47,1,107.999996704102,6|2,3:2|3:2,0:0:0:0:
313,84,77236,1,0,3:0:0:0:
313,84,77320,2,0,P|267:122|209:86,1,107.999996704102,10|2,0:0|3:2,0:0:0:0:
160,9,77653,1,0,3:2:0:0:
103,84,77820,1,2,3:2:0:0:
103,84,77903,1,0,3:0:0:0:
103,84,77987,1,10,0:0:0:0:
2,3,78153,6,0,P|11:88|21:186,1,161.999995056153,6|0,3:2|0:0,0:0:0:0:
0,240,78487,2,0,P|45:272|99:236,1,107.999996704102,0|8,3:0|0:0,0:0:0:0:
162,155,78820,1,0,3:0:0:0:
162,155,78903,1,8,0:0:0:0:
162,155,78987,1,0,3:0:0:0:
251,268,79153,1,2,3:2:0:0:
251,268,79237,1,0,3:0:0:0:
251,268,79320,2,0,L|246:329,1,53.9999983520508,10|8,0:0|0:0,0:0:0:0:
164,338,79487,2,0,L|169:277,1,53.9999983520508,10|8,0:0|0:0,0:0:0:0:
245,175,79653,6,0,P|303:181|366:189,1,107.999996704102,6|2,3:2|3:2,0:0:0:0:
365,106,79903,1,0,3:0:0:0:
365,106,79987,2,0,P|307:100|244:92,1,107.999996704102,10|2,0:0|3:2,0:0:0:0:
179,10,80320,1,2,3:2:0:0:
121,85,80487,1,0,3:0:0:0:
121,85,80570,1,0,3:0:0:0:
121,85,80653,1,10,0:0:0:0:
2,3,80820,6,0,P|11:88|21:186,1,161.999995056153,6|0,3:2|0:0,0:0:0:0:
12,176,81153,1,2,3:2:0:0:
110,301,81320,2,0,P|106:331|103:367,3,53.9999983520508,8|8|2|0,0:0|0:0|3:2|3:0,0:0:0:0:
26,340,81653,2,0,P|29:309|32:273,3,53.9999983520508,4|4|2|0,0:3|0:3|3:2|3:0,0:0:0:0:
85,224,81987,5,10,0:0:0:0:
116,200,82070,1,8,0:0:0:0:
156,199,82153,1,2,3:2:0:0:
188,223,82236,1,0,3:0:0:0:
200,261,82320,1,10,0:0:0:0:
208,269,83172,5,2,3:2:0:0:
208,269,83255,1,0,3:0:0:0:
208,269,83338,1,10,0:0:0:0:
297,147,83500,1,10,0:0:0:0:
305,154,84516,5,2,3:2:0:0:
305,154,84594,1,0,3:0:0:0:
305,154,84673,2,0,P|303:189|301:221,3,45,8|8|4|4,0:3|0:3|0:3|0:3,0:0:0:0:
361,253,84987,1,4,3:2:0:0:
361,253,85659,6,0,P|420:243|472:237,2,107.999996704102,2|2|2,0:0|0:0|0:0,0:0:0:0:
282,344,87659,6,0,B|220:400|98:308|220:253|105:119|16:205,1,360,6|0,3:2|0:0,0:0:0:0:
