osu file format v14

[General]
AudioFilename: audio.mp3
AudioLeadIn: 0
PreviewTime: 49237
Countdown: 0
SampleSet: Soft
StackLeniency: 0.4
Mode: 0
LetterboxInBreaks: 0
EpilepsyWarning: 1
WidescreenStoryboard: 1

[Editor]
DistanceSpacing: 1
BeatDivisor: 4
GridSize: 4
TimelineZoom: 1.4

[Metadata]
Title:Judgement (TV Size)
TitleUnicode:Judgement (TV Size)
Artist:ASH DA HERO
ArtistUnicode:ASH DA HERO
Creator:KaedeharaKazuha
Version:Expert
Source:ブルーロック
Tags:Addy2607 Kaedehara Kazuha AirinCat Some Hero Some_Hero Heroine Kyouren KittyAdventure gokugohan12468 -Mikan Mikan Bazz B Bazz_B Flask killian rk657 Matsuyuki Ame Matsuyuki_Ame muya- arronchu1207 Irohas MugiwaraSekai kanor Gorou Wanpachi Cycopton jrock j-rock japanese rock BLUE LOCK BLUELOCK anime 2nd second opening op intro theme song 2 two football soccer ASH Narukaze Sato WANI DJ Dhalsim ADH
BeatmapID:3966092
BeatmapSetID:1918519

[Difficulty]
HPDrainRate:6
CircleSize:4
OverallDifficulty:8.5
ApproachRate:9.2
SliderMultiplier:1.8
SliderTickRate:1

[Events]
//Background and Video events
Video,0,"video.mp4"
0,0,"BG.jpg",0,0
//Break Periods
//Storyboard Layer 0 (Background)
//Storyboard Layer 1 (Fail)
//Storyboard Layer 2 (Pass)
//Storyboard Layer 3 (Foreground)
//Storyboard Layer 4 (Overlay)
//Storyboard Sound Samples

[TimingPoints]
-346,333.333333333333,4,2,1,100,1,0
487,-166.666666666667,4,2,1,50,0,0
987,-100,4,2,1,70,0,0
6320,-100,4,2,1,80,0,0
11653,-90.9090909090909,4,2,1,90,0,0
12153,-166.666666666667,4,2,1,50,0,0
13653,392.156862745098,4,2,1,50,1,0
13849,292.682926829268,4,2,1,50,1,0
14320,333.333333333333,4,2,1,50,1,0
14320,-166.666666666667,4,2,1,50,0,0
14653,359.281437125748,4,2,1,50,1,0
14832,333.333333333333,4,2,1,50,1,0
14832,-166.666666666667,4,2,1,50,0,0
14998,359.281437125748,4,2,1,50,1,0
15177,333.333333333333,4,2,1,50,1,0
15177,-166.666666666667,4,2,1,50,0,0
15510,292.682926829268,4,2,1,50,1,0
15656,333.333333333333,4,2,1,60,1,0
15656,-108.51871947911,4,2,1,60,0,0
16072,288.461538461538,4,2,1,60,1,0
16144,310.880829015544,4,2,1,60,1,0
16299,333.333333333333,4,2,1,60,1,0
16465,377.358490566038,4,2,1,70,1,0
16465,-100,4,2,1,70,0,0
16653,333.333333333333,4,2,1,70,1,0
16987,333.333333333333,4,2,1,60,1,0
16987,-125,4,2,1,60,0,0
27487,-111.111111111111,4,2,1,60,0,0
28987,-111.111111111111,4,2,1,70,0,0
29487,-100,4,2,1,70,0,0
30320,-111.111111111111,4,2,1,60,0,0
31653,-111.111111111111,4,2,1,70,0,0
32153,-100,4,2,1,70,0,0
32987,-111.111111111111,4,2,1,60,0,0
34320,-111.111111111111,4,2,1,70,0,0
34820,-100,4,2,1,70,0,0
35654,-111.111111111111,4,2,1,60,0,0
36987,-111.111111111111,4,2,1,70,0,0
38320,-125,4,2,1,60,0,0
43653,-111.111111111111,4,2,1,70,0,0
46320,-100,4,2,1,80,0,0
48987,-125,4,2,1,80,0,0
49320,-125,4,2,1,60,0,0
49653,-1000,4,2,1,80,0,0
50320,-83.3333333333333,4,2,1,90,0,1
71653,-76.9230769230769,4,2,1,90,0,1
75487,-71.4285714285714,4,2,1,90,0,1
76987,-83.3333333333333,4,2,1,90,0,1
82320,340.909090909091,4,2,1,70,1,0
82320,-100,4,2,1,70,0,0
83172,333.333333333333,4,2,1,70,1,0
83338,324.324324324324,4,2,1,70,1,0
83500,338.983050847458,4,2,1,70,1,0
84516,314.13612565445,4,2,1,70,1,0
84516,-100,4,2,1,70,0,0
84987,333.333333333333,4,2,1,70,1,0
85070,337.078651685393,4,2,1,70,1,0
85659,333.333333333333,4,2,1,50,1,0
85659,-500,4,2,1,50,0,0
87659,333.333333333333,4,2,1,60,1,0
87659,-250,4,2,1,60,0,0
88992,-250,4,2,1,5,0,0

[Colours]
Combo1 : 212,212,212
Combo2 : 238,72,68
Combo3 : 95,95,95
Combo4 : 62,82,225

[HitObjects]
446,17,487,5,2,0:0:0:0:
496,74,653,1,2,0:0:0:0:
451,9,820,1,2,0:0:0:0:
374,51,987,6,0,P|382:113|388:193,1,135,6|0,3:2|0:0,0:0:0:0:
314,167,1320,2,0,P|310:115|303:64,1,90,2|4,3:2|0:3,0:0:0:0:
443,235,1653,6,0,P|435:297|429:377,1,135,2|0,3:2|0:0,0:0:0:0:
504,353,1986,2,0,P|507:301|514:250,1,90,4|4,3:0|3:0,0:0:0:0:
357,309,2320,5,2,3:2:0:0:
352,300,2653,1,4,3:0:0:0:
280,372,2820,1,4,0:3:0:0:
206,280,2987,5,4,3:0:0:0:
181,258,3070,1,4,0:3:0:0:
148,253,3153,1,4,0:3:0:0:
119,269,3236,1,4,0:3:0:0:
103,298,3319,1,4,3:0:0:0:
87,328,3403,1,4,0:3:0:0:
58,343,3486,1,4,0:3:0:0:
25,339,3569,1,4,0:3:0:0:
0,316,3653,6,0,P|5:265|16:126,1,180,6|4,3:2|3:0,0:0:0:0:
120,7,4153,1,4,0:3:0:0:
4,14,4320,2,0,P|36:60|74:45,1,90,4|4,3:0|0:3,0:0:0:0:
170,71,4653,2,0,P|138:117|100:102,1,90,4|0,3:0|0:0,0:0:0:0:
239,0,4987,6,0,P|248:74|257:147,1,135,2|0,3:2|0:0,0:0:0:0:
306,186,5320,2,0,P|264:212|214:185,1,90,4|4,3:0|0:3,0:0:0:0:
335,104,5653,1,0,3:0:0:0:
437,204,5820,1,2,0:0:0:0:
455,43,5987,1,2,3:2:0:0:
370,247,6153,1,4,0:3:0:0:
370,247,6237,1,4,0:3:0:0:
370,247,6320,6,0,P|378:303|385:359,1,90,6|0,3:2|0:0,0:0:0:0:
319,384,6653,1,4,0:3:0:0:
437,204,6820,2,0,P|445:260|452:316,1,90,4|0,3:2|0:0,0:0:0:0:
512,358,7153,1,4,0:3:0:0:
301,306,7320,2,0,P|247:286|193:337,1,135,4|0,3:2|0:0,0:0:0:0:
126,382,7653,6,0,P|120:331|110:279,1,90,4|0,3:2|0:0,0:0:0:0:
151,226,7987,1,4,0:3:0:0:
52,384,8153,2,0,P|46:333|36:281,1,90,4|0,3:2|0:0,0:0:0:0:
194,332,8487,1,4,0:3:0:0:
71,228,8653,2,0,P|63:161|50:94,1,135,4|0,3:2|0:0,0:0:0:0:
81,27,8987,6,0,P|127:3|162:38,1,90,4|0,3:2|0:0,0:0:0:0:
211,75,9320,1,4,0:3:0:0:
141,192,9487,2,0,P|135:143|125:95,1,90,4|0,3:2|0:0,0:0:0:0:
227,2,9820,1,4,0:3:0:0:
353,70,9987,1,4,3:2:0:0:
353,70,10071,1,0,3:0:0:0:
353,70,10153,2,0,P|356:94|361:118,1,45,0|0,3:0|3:0,0:0:0:0:
427,156,10320,5,4,0:3:0:0:
448,173,10403,1,4,0:3:0:0:
459,199,10486,1,4,0:3:0:0:
456,227,10570,1,4,0:3:0:0:
441,250,10653,1,4,0:3:0:0:
417,264,10736,1,4,0:3:0:0:
389,266,10820,1,4,0:3:0:0:
364,254,10903,1,4,0:3:0:0:
348,232,10987,5,8,0:3:0:0:
312,196,11070,1,8,0:3:0:0:
263,185,11153,1,8,0:3:0:0:
216,200,11237,1,8,0:3:0:0:
183,238,11320,1,8,0:3:0:0:
176,288,11403,1,8,0:3:0:0:
195,334,11487,1,8,0:3:0:0:
235,364,11570,1,8,0:3:0:0:
285,368,11653,6,0,P|356:360|498:354,1,198.000006042481,4|0,3:2|0:0,0:0:0:0:
430,284,12153,2,0,P|376:285|322:291,2,107.999996704102,2|2|2,0:0|0:0|0:0,0:0:0:0:
493,241,12903,1,2,0:0:0:0:
493,241,12987,6,0,P|508:197|460:160,1,107.999996704102,2|0,0:0|0:0,0:0:0:0:
388,203,13487,1,2,0:0:0:0:
377,210,13849,5,0,3:0:0:0:
354,211,13922,1,0,3:0:0:0:
332,213,13995,1,8,0:3:0:0:
309,214,14068,1,8,0:3:0:0:
287,216,14141,2,0,L|227:219,1,45,4|4,0:3|0:3,0:0:0:0:
261,296,14320,6,0,L|149:303,1,107.999996704102,2|0,3:2|0:0,0:0:0:0:
0,306,14832,2,0,P|6:354|7:371,1,53.9999983520508,2|0,0:0|0:0,0:0:0:0:
81,370,15177,2,0,P|76:316|68:262,1,107.999996704102,2|8,0:0|0:0,0:0:0:0:
15,213,15583,1,8,0:0:0:0:
15,212,15656,6,0,P|-13:174|12:137,1,82.9349976651753,8|0,0:0|0:0,0:0:0:0:
66,110,15906,2,0,P|89:78|60:30,1,82.9349976651753,8|0,0:0|0:0,0:0:0:0:
10,1,16144,1,8,0:0:0:0:
73,120,16299,1,8,0:0:0:0:
224,9,16465,1,10,0:0:0:0:
224,9,16559,1,8,0:3:0:0:
224,9,16653,2,0,L|216:76,1,45,2|2,3:2|0:0,0:0:0:0:
292,99,16819,2,0,L|300:166,1,45,2|2,0:0|0:0,0:0:0:0:
157,199,16987,6,0,P|215:180|248:253,1,144,4|10,3:2|0:0,0:0:0:0:
296,316,17487,2,0,P|258:320|213:338,1,72,2|2,3:2|0:3,0:0:0:0:
326,245,17820,1,2,3:2:0:0:
382,344,17987,1,8,0:0:0:0:
499,266,18153,6,0,P|505:206|515:146,1,108,2|0,0:0|0:0,0:0:0:0:
469,96,18487,1,2,3:2:0:0:
469,96,18570,1,0,3:0:0:0:
469,96,18653,1,8,0:0:0:0:
418,236,18820,2,0,P|421:196|428:156,1,72,2|2,3:2|0:3,0:0:0:0:
374,20,19153,2,0,P|379:55|382:91,1,72,2|8,3:2|0:0,0:0:0:0:
283,181,19487,6,0,P|349:173|442:162,1,144,2|2,0:0|3:2,0:0:0:0:
386,95,19903,1,0,3:0:0:0:
386,95,19987,2,0,P|346:100|305:105,1,72,10|2,0:0|3:2,0:0:0:0:
174,28,20320,2,0,P|217:8|257:59,1,108,2|2,0:0|3:2,0:0:0:0:
253,56,20653,1,8,0:0:0:0:
98,142,20820,6,0,P|92:92|75:-4,1,144,2|2,3:2|3:2,0:0:0:0:
21,122,21320,2,0,P|15:78|7:35,1,72,10|0,0:0|3:0,0:0:0:0:
174,128,21653,1,2,3:2:0:0:
174,128,21737,2,0,P|196:163|170:203,1,72,8|2,0:0|3:2,0:0:0:0:
187,202,21987,2,0,P|143:226|112:212,1,72,10|10,0:0|0:0,0:0:0:0:
48,197,22237,1,8,0:0:0:0:
48,197,22320,6,0,P|58:268|63:316,1,108,4|0,3:2|3:0,0:0:0:0:
47,379,22653,2,0,P|82:374|118:370,1,72,10|0,0:0|3:0,0:0:0:0:
247,256,22987,1,2,0:0:0:0:
271,339,23153,2,0,P|235:334|199:330,1,72,2|8,3:2|0:0,0:0:0:0:
333,236,23487,6,0,P|384:296|362:352,1,144,2|2,0:0|3:2,0:0:0:0:
354,358,23903,1,0,3:0:0:0:
345,365,23987,1,8,0:0:0:0:
247,256,24153,2,0,P|241:185|231:131,1,108,2|0,3:2|0:0,0:0:0:0:
232,137,24487,1,0,3:0:0:0:
178,19,24653,2,0,P|161:58|182:89,1,72,10|2,0:0|0:3,0:0:0:0:
319,148,24987,6,0,P|376:140|438:133,1,108,2|0,3:2|3:0,0:0:0:0:
493,167,25320,2,0,P|506:131|482:95,1,72,10|0,0:0|3:0,0:0:0:0:
408,211,25653,2,0,P|354:217|300:224,1,108,2|0,0:0|0:0,0:0:0:0:
237,258,25986,2,0,P|222:225|236:193,1,72,10|4,0:0|3:2,0:0:0:0:
480,243,26320,6,0,P|508:303|490:337,1,108,2|0,0:0|3:2,0:0:0:0:
429,376,26653,5,8,0:0:0:0:
393,370,26736,1,8,0:0:0:0:
357,365,26819,1,0,3:0:0:0:
322,360,26902,1,0,3:0:0:0:
291,331,26987,5,8,0:3:0:0:
273,333,27070,1,8,0:3:0:0:
255,336,27153,1,0,3:0:0:0:
237,339,27236,1,0,3:0:0:0:
210,365,27320,6,0,L|162:357,1,36,8|0,0:0|0:0,0:0:0:0:
1,327,27487,6,0,L|124:306,1,121.499996292114,2|0,0:0|0:0,0:0:0:0:
170,249,27820,1,2,3:2:0:0:
167,236,27903,1,0,3:0:0:0:
164,224,27987,1,10,0:0:0:0:
84,171,28153,1,2,3:2:0:0:
150,67,28320,2,0,L|27:88,1,121.499996292114,2|0,0:0|0:0,0:0:0:0:
23,96,28653,1,10,0:0:0:0:
64,0,28820,1,2,0:0:0:0:
163,143,28987,6,0,P|235:152|293:163,1,121.499996292114,2|2,3:2|3:2,0:0:0:0:
290,170,29320,1,8,0:0:0:0:
150,67,29487,2,0,P|262:81|352:98,1,180,2|0,3:2|3:0,0:0:0:0:
404,23,29987,1,8,0:0:0:0:
512,118,30153,1,2,0:3:0:0:
512,118,30237,1,2,0:3:0:0:
512,118,30320,5,0,3:0:0:0:
426,182,30487,1,2,3:2:0:0:
426,182,30570,1,0,3:0:0:0:
426,182,30653,2,0,P|417:132|407:95,1,80.9999975280763,10|2,0:0|3:2,0:0:0:0:
512,3,30987,1,2,0:0:0:0:
401,95,31153,1,2,3:2:0:0:
508,196,31320,2,0,P|499:246|489:283,1,80.9999975280763,10|0,0:0|3:0,0:0:0:0:
368,330,31653,6,0,P|413:312|451:374,1,121.499996292114,2|2,3:2|3:2,0:0:0:0:
445,371,31987,1,8,0:0:0:0:
285,384,32153,2,0,P|277:310|263:234,1,135,2|0,3:2|0:0,0:0:0:0:
331,207,32487,2,0,P|339:133|353:57,1,135,0|0,3:0|0:0,0:0:0:0:
283,43,32820,1,8,0:0:0:0:
273,47,32903,1,8,0:0:0:0:
263,51,32987,5,0,3:0:0:0:
161,8,33153,1,2,3:2:0:0:
151,4,33236,1,0,3:0:0:0:
141,0,33320,1,10,0:0:0:0:
45,71,33487,1,2,3:2:0:0:
137,175,33653,2,0,P|129:123|119:77,1,80.9999975280763,2|0,0:0|3:0,0:0:0:0:
196,82,33903,2,0,P|204:134|214:180,1,80.9999975280763,2|0,0:0|0:0,0:0:0:0:
187,233,34153,1,2,0:0:0:0:
31,280,34320,6,0,P|44:214|53:147,1,121.499996292114,2|2,3:2|3:2,0:0:0:0:
46,150,34653,1,8,0:0:0:0:
105,278,34820,2,0,P|114:229|121:180,1,90,2|0,3:2|0:0,0:0:0:0:
28,366,35153,2,0,P|64:308|165:340,1,180,2|2,3:2|0:3,0:0:0:0:
284,384,35653,5,0,3:2:0:0:
352,292,35820,1,2,3:2:0:0:
349,279,35903,1,0,3:0:0:0:
346,266,35987,1,10,0:0:0:0:
258,207,36153,1,2,3:2:0:0:
367,373,36320,2,0,P|421:365|456:362,1,80.9999975280763,2|0,0:0|3:0,0:0:0:0:
500,308,36570,2,0,P|492:254|489:219,1,80.9999975280763,2|0,0:0|0:0,0:0:0:0:
438,169,36820,1,6,3:2:0:0:
273,299,36987,6,0,P|214:303|145:316,1,121.499996292114,2|2,0:0|0:0,0:0:0:0:
85,346,37320,5,4,0:3:0:0:
51,331,37403,1,4,0:3:0:0:
27,304,37486,1,2,3:2:0:0:
18,269,37570,1,0,3:0:0:0:
28,234,37653,1,4,3:0:0:0:
51,207,37736,1,4,3:0:0:0:
85,194,37820,1,4,3:0:0:0:
121,198,37903,1,4,3:0:0:0:
150,218,37987,5,8,0:3:0:0:
193,232,38070,1,8,0:3:0:0:
236,218,38153,1,8,0:3:0:0:
263,182,38237,1,8,0:3:0:0:
265,138,38320,6,0,P|259:92|250:23,1,108,6|2,3:2|0:0,0:0:0:0:
259,20,38653,1,0,3:0:0:0:
191,135,38820,2,0,P|187:102|179:47,1,72,2|0,0:0|3:0,0:0:0:0:
344,29,39153,1,2,0:3:0:0:
344,29,39237,1,2,0:3:0:0:
344,29,39320,2,0,P|348:64|353:100,1,72,2|0,3:2|0:0,0:0:0:0:
443,252,39653,6,0,P|465:218|458:181,1,72,2|0,3:2|0:0,0:0:0:0:
471,182,39903,2,0,P|452:145|417:133,1,72,2|0,0:0|0:0,0:0:0:0:
360,175,40153,2,0,P|329:179|289:189,1,72,2|0,0:0|3:0,0:0:0:0:
278,271,40487,2,0,P|347:253|418:242,1,144,2|2,0:0|0:3,0:0:0:0:
222,330,40987,6,0,P|188:285|217:232,1,108,2|2,3:2|0:0,0:0:0:0:
213,233,41320,1,0,3:0:0:0:
398,318,41487,2,0,P|367:322|327:332,1,72,2|0,0:0|3:0,0:0:0:0:
280,167,41820,1,2,0:0:0:0:
280,167,41987,2,0,P|227:160|160:143,1,108,2|0,3:2|0:0,0:0:0:0:
106,175,42320,6,0,P|88:213|108:243,1,72,2|0,3:2|0:0,0:0:0:0:
110,244,42569,1,2,0:0:0:0:
119,247,42653,1,0,3:0:0:0:
74,329,42820,1,2,0:0:0:0:
198,378,42987,5,8,0:0:0:0:
233,374,43070,1,8,0:0:0:0:
269,370,43153,1,8,0:0:0:0:
305,366,43237,1,8,0:0:0:0:
333,339,43320,5,4,0:3:0:0:
350,340,43403,1,4,0:3:0:0:
368,342,43486,1,4,0:3:0:0:
386,344,43570,1,4,0:3:0:0:
422,363,43653,6,0,P|464:323|432:268,1,121.499996292114,6|2,3:2|0:0,0:0:0:0:
429,270,43987,1,8,0:0:0:0:
512,141,44153,2,0,P|504:189|501:226,1,80.9999975280763,2|0,0:0|3:0,0:0:0:0:
342,261,44487,1,2,0:3:0:0:
342,261,44570,1,2,0:3:0:0:
342,261,44653,2,0,P|337:215|329:170,1,80.9999975280763,10|0,0:0|0:0,0:0:0:0:
406,19,44987,6,0,P|441:47|439:85,1,80.9999975280763,2|0,3:2|0:0,0:0:0:0:
452,91,45237,2,0,P|426:132|386:136,1,80.9999975280763,2|0,0:0|0:0,0:0:0:0:
324,105,45487,2,0,P|276:112|237:125,1,80.9999975280763,2|0,0:0|3:0,0:0:0:0:
136,1,45820,2,0,P|199:14|179:79,1,121.499996292114,2|0,0:0|0:0,0:0:0:0:
149,113,46153,1,0,3:0:0:0:
132,110,46237,1,0,3:0:0:0:
115,107,46320,6,0,L|58:98,1,45,12|0,0:0|0:0,0:0:0:0:
179,196,46487,1,0,3:0:0:0:
153,191,46571,1,0,3:0:0:0:
127,186,46653,1,2,3:2:0:0:
101,182,46737,1,0,3:0:0:0:
75,177,46820,6,0,L|15:167,1,45,14|0,0:0|0:0,0:0:0:0:
187,281,46987,1,0,3:0:0:0:
152,274,47071,1,0,3:0:0:0:
118,267,47153,1,2,3:2:0:0:
83,262,47237,1,0,3:0:0:0:
49,255,47320,6,0,L|-29:242,1,45,14|0,0:0|0:0,0:0:0:0:
149,113,47487,2,0,L|227:125,1,45,0|0,3:0|3:0,0:0:0:0:
286,261,47653,5,2,3:2:0:0:
313,288,47736,1,0,3:0:0:0:
351,298,47819,1,0,3:0:0:0:
390,285,47903,1,2,3:2:0:0:
414,251,47986,1,0,3:2:0:0:
418,212,48069,1,0,3:0:0:0:
397,176,48153,1,2,3:2:0:0:
361,158,48236,1,0,3:0:0:0:
320,161,48319,5,8,0:0:0:0:
271,178,48403,1,8,0:0:0:0:
222,161,48486,1,10,0:0:0:0:
194,119,48570,1,8,0:0:0:0:
196,68,48653,1,10,0:0:0:0:
229,29,48736,1,8,0:0:0:0:
279,17,48820,1,8,0:0:0:0:
326,37,48903,1,8,0:0:0:0:
351,81,48986,1,4,3:2:0:0:
351,81,49653,6,0,L|345:114,1,31.5,8|0,0:3|0:0,0:0:0:0:
419,147,50320,6,0,L|237:166,1,161.999995056153,4|0,3:1|0:0,0:0:0:0:
298,233,50653,2,0,L|420:220,1,107.999996704102,10|0,0:0|0:0,0:0:0:0:
510,360,50987,6,0,L|328:379,1,161.999995056153,2|0,3:2|0:0,0:0:0:0:
366,300,51320,2,0,L|488:287,1,107.999996704102,10|0,0:0|0:0,0:0:0:0:
298,233,51653,5,2,3:2:0:0:
193,375,51820,1,2,0:0:0:0:
137,181,51987,1,10,0:0:0:0:
273,335,52153,1,2,3:2:0:0:
273,335,52237,1,8,0:0:0:0:
273,335,52320,1,0,3:0:0:0:
406,221,52487,2,0,P|414:146|424:54,1,161.999995056153,2|0,0:0|0:0,0:0:0:0:
432,52,52820,1,2,0:0:0:0:
254,153,52987,6,0,P|317:160|340:115,1,107.999996704102,2|0,3:2|0:0,0:0:0:0:
310,36,53237,2,0,P|247:29|224:74,1,107.999996704102,2|0,0:0|0:0,0:0:0:0:
182,123,53487,1,2,0:0:0:0:
84,6,53653,6,0,P|21:-1|-2:44,1,107.999996704102,2|0,3:2|0:0,0:0:0:0:
28,123,53903,2,0,P|91:130|114:85,1,107.999996704102,2|0,0:0|0:0,0:0:0:0:
156,36,54153,1,2,0:0:0:0:
254,153,54320,6,0,P|243:244|233:333,1,161.999995056153,2|0,3:2|0:0,0:0:0:0:
228,324,54653,1,10,0:0:0:0:
324,191,54820,2,0,P|316:251|309:311,1,107.999996704102,0|0,3:0|3:0,0:0:0:0:
127,246,55153,2,0,P|180:206|216:230,1,107.999996704102,2|8,0:0|0:0,0:0:0:0:
311,298,55487,1,2,0:0:0:0:
98,367,55653,6,0,P|85:258|66:151,1,215.999993408203,4|8,3:2|0:0,0:0:0:0:
223,46,56153,1,2,0:0:0:0:
223,46,56237,1,2,0:3:0:0:
223,46,56320,2,0,P|204:69|171:73,1,53.9999983520508,2|0,3:2|0:0,0:0:0:0:
175,144,56487,2,0,P|144:140|125:114,1,53.9999983520508,2|0,0:0|0:0,0:0:0:0:
67,153,56653,2,0,P|55:125|66:95,1,53.9999983520508,10|0,0:0|0:0,0:0:0:0:
5,62,56820,2,0,P|22:37|54:33,1,53.9999983520508,2|0,0:0|0:0,0:0:0:0:
253,127,56987,6,0,P|245:204|237:249,1,107.999996704102,2|2,3:2|0:3,0:0:0:0:
317,247,57237,1,2,0:3:0:0:
317,247,57320,2,0,P|325:170|333:125,1,107.999996704102,10|2,0:0|3:2,0:0:0:0:
307,71,57570,1,8,0:0:0:0:
307,71,57653,2,0,P|367:106|430:-7,1,215.999993408203,2|8,3:2|0:0,0:0:0:0:
512,75,58153,1,2,0:0:0:0:
381,205,58320,5,2,3:2:0:0:
381,205,58403,1,0,3:0:0:0:
381,205,58487,1,8,0:0:0:0:
512,370,58653,1,8,0:0:0:0:
484,182,58820,1,0,3:0:0:0:
484,182,58903,1,0,3:0:0:0:
484,182,58987,2,0,L|475:251,1,53.9999983520508,8|0,0:0|3:0,0:0:0:0:
384,373,59153,1,0,3:0:0:0:
384,373,59236,1,0,3:0:0:0:
384,373,59320,2,0,L|393:304,1,53.9999983520508,8|0,0:0|0:0,0:0:0:0:
316,150,59487,6,0,P|198:170|134:183,1,161.999995056153,6|0,3:2|0:0,0:0:0:0:
80,173,59820,1,2,3:2:0:0:
80,173,59903,1,0,3:0:0:0:
80,173,59987,2,0,P|85:199|89:226,1,53.9999983520508,8|8,0:0|0:0,0:0:0:0:
240,255,60153,2,0,P|234:228|230:201,1,53.9999983520508,2|0,3:2|3:0,0:0:0:0:
168,33,60320,5,2,3:2:0:0:
140,5,60403,1,8,0:0:0:0:
101,9,60486,1,0,3:0:0:0:
79,40,60570,1,0,3:0:0:0:
89,78,60653,5,8,0:0:0:0:
134,107,60736,1,8,0:0:0:0:
187,109,60819,1,8,0:0:0:0:
234,85,60903,1,8,0:0:0:0:
263,40,60987,6,0,P|328:4|395:56,1,161.999995056153,4|0,3:1|0:0,0:0:0:0:
472,23,61320,2,0,P|462:91|459:139,1,107.999996704102,10|0,0:0|0:0,0:0:0:0:
512,283,61653,6,0,P|447:247|380:299,1,161.999995056153,2|0,3:2|0:0,0:0:0:0:
303,266,61986,2,0,P|313:334|316:382,1,107.999996704102,10|0,0:0|0:0,0:0:0:0:
355,208,62320,5,2,3:2:0:0:
223,334,62487,1,2,0:0:0:0:
326,136,62653,1,10,0:0:0:0:
457,331,62820,1,2,3:2:0:0:
457,331,62903,1,8,0:0:0:0:
457,331,62986,1,0,3:0:0:0:
269,196,63153,2,0,P|201:208|93:230,1,161.999995056153,2|0,0:0|0:0,0:0:0:0:
101,236,63487,1,2,0:0:0:0:
207,88,63653,6,0,P|247:95|312:108,1,107.999996704102,2|0,3:2|0:0,0:0:0:0:
329,34,63903,2,0,P|288:26|223:13,1,107.999996704102,2|0,0:0|0:0,0:0:0:0:
153,36,64153,1,2,0:0:0:0:
269,196,64320,6,0,P|309:188|374:175,1,107.999996704102,2|0,3:2|0:0,0:0:0:0:
391,250,64570,2,0,P|350:257|285:270,1,107.999996704102,2|0,0:0|0:0,0:0:0:0:
215,248,64820,1,2,0:0:0:0:
407,89,64987,6,0,P|398:166|390:259,1,161.999995056153,2|0,3:2|0:0,0:0:0:0:
399,261,65320,1,10,0:0:0:0:
478,121,65487,2,0,P|471:173|466:236,1,107.999996704102,2|0,3:2|3:0,0:0:0:0:
506,382,65820,2,0,P|535:345|509:292,1,107.999996704102,2|8,0:0|0:0,0:0:0:0:
375,175,66153,1,2,0:0:0:0:
235,364,66320,6,0,P|343:343|459:333,1,215.999993408203,4|8,3:2|0:0,0:0:0:0:
275,277,66820,1,2,0:0:0:0:
275,277,66904,1,2,0:3:0:0:
275,277,66987,2,0,P|249:261|216:269,1,53.9999983520508,2|0,3:2|0:0,0:0:0:0:
195,201,67154,2,0,P|167:215|158:246,1,53.9999983520508,2|0,0:0|0:0,0:0:0:0:
91,229,67320,2,0,P|89:259|109:283,1,53.9999983520508,10|0,0:0|0:0,0:0:0:0:
64,336,67487,2,0,P|88:353|119:346,1,53.9999983520508,2|0,0:0|0:0,0:0:0:0:
272,176,67653,6,0,P|266:130|256:54,1,107.999996704102,2|2,3:2|0:3,0:0:0:0:
338,61,67903,1,2,0:3:0:0:
338,61,67987,2,0,P|343:106|353:182,1,107.999996704102,8|2,0:0|3:2,0:0:0:0:
410,225,68237,1,8,0:0:0:0:
410,225,68320,2,0,L|160:197,1,215.999993408203,0|8,3:0|0:0,0:0:0:0:
102,278,68820,1,2,0:0:0:0:
10,106,68987,5,2,3:2:0:0:
10,106,69070,1,0,3:0:0:0:
10,106,69153,1,8,0:0:0:0:
116,195,69320,1,10,0:0:0:0:
1,301,69487,1,2,3:2:0:0:
1,301,69570,1,0,3:0:0:0:
1,301,69653,1,10,0:0:0:0:
108,109,69820,1,2,3:2:0:0:
108,109,69903,1,0,3:0:0:0:
108,109,69987,1,8,0:0:0:0:
243,257,70153,1,4,3:2:0:0:
28,201,70320,5,2,0:0:0:0:
211,106,70487,2,0,L|201:175,1,53.9999983520508,2|0,3:2|3:0,0:0:0:0:
210,170,70653,1,10,0:0:0:0:
164,45,70820,1,2,3:2:0:0:
159,37,70903,1,0,3:0:0:0:
155,30,70987,5,8,0:3:0:0:
187,6,71070,1,8,0:0:0:0:
226,3,71153,1,2,3:2:0:0:
261,23,71236,1,0,3:0:0:0:
280,58,71320,1,8,0:0:0:0:
298,93,71403,1,8,0:0:0:0:
333,113,71486,1,10,0:0:0:0:
373,110,71569,1,8,0:0:0:0:
405,86,71653,6,0,P|465:57|502:142,1,175.499991966248,4|0,3:1|3:0,0:0:0:0:
506,152,71987,5,8,0:0:0:0:
373,247,72153,1,0,3:0:0:0:
512,334,72320,5,8,0:0:0:0:
430,179,72486,1,2,3:2:0:0:
430,179,72570,1,0,3:0:0:0:
430,179,72653,1,8,0:0:0:0:
505,326,72820,1,2,3:2:0:0:
349,370,72987,6,0,P|274:354|174:342,1,175.499991966248,8|0,0:0|3:0,0:0:0:0:
165,351,73320,1,8,0:0:0:0:
51,259,73487,1,0,3:0:0:0:
173,173,73653,1,8,0:0:0:0:
85,338,73820,1,2,3:2:0:0:
85,338,73903,1,0,3:0:0:0:
85,338,73987,1,10,0:0:0:0:
23,143,74153,1,2,3:2:0:0:
240,271,74320,6,0,P|254:184|270:91,1,175.499991966248,8|0,0:0|3:0,0:0:0:0:
265,85,74653,1,10,0:0:0:0:
171,193,74820,1,0,3:0:0:0:
249,10,74987,1,10,0:0:0:0:
369,155,75153,1,0,3:0:0:0:
369,155,75237,1,0,3:0:0:0:
369,155,75320,1,10,0:0:0:0:
159,39,75487,6,0,L|92:58,1,62.9999980773926,2|0,3:2|0:0,0:0:0:0:
37,7,75653,1,8,0:0:0:0:
154,118,75820,6,0,L|87:137,1,62.9999980773926,2|0,3:2|0:0,0:0:0:0:
32,86,75986,1,8,0:0:0:0:
149,197,76153,6,0,L|82:216,1,62.9999980773926,0|0,3:0|0:0,0:0:0:0:
27,165,76319,1,8,0:0:0:0:
129,287,76487,1,2,3:2:0:0:
234,130,76653,1,8,0:0:0:0:
274,107,76736,1,8,0:0:0:0:
320,114,76819,1,8,0:3:0:0:
351,148,76902,1,4,0:3:0:0:
354,194,76987,6,0,P|344:259|339:318,1,107.999996704102,6|2,3:2|3:2,0:0:0:0:
416,311,77237,1,0,3:0:0:0:
416,311,77320,2,0,P|421:257|430:204,1,107.999996704102,10|2,0:0|3:2,0:0:0:0:
459,46,77653,1,0,3:2:0:0:
510,159,77820,1,2,3:2:0:0:
510,159,77903,1,0,3:0:0:0:
510,159,77987,1,10,0:0:0:0:
320,114,78153,6,0,P|226:127|135:151,1,161.999995056153,6|0,3:2|0:0,0:0:0:0:
94,106,78487,2,0,P|61:61|100:11,1,107.999996704102,0|8,3:0|0:0,0:0:0:0:
234,47,78820,1,0,3:0:0:0:
234,47,78903,1,8,0:0:0:0:
234,47,78987,1,0,3:0:0:0:
97,189,79153,1,2,3:2:0:0:
97,189,79237,1,0,3:0:0:0:
97,189,79320,2,0,L|107:258,1,53.9999983520508,10|8,0:0|0:0,0:0:0:0:
229,254,79487,2,0,L|219:185,1,53.9999983520508,10|8,0:0|0:0,0:0:0:0:
21,312,79653,6,0,P|82:315|145:328,1,107.999996704102,6|2,3:2|3:2,0:0:0:0:
191,368,79903,1,0,3:0:0:0:
191,368,79987,2,0,P|229:331|281:344,1,107.999996704102,10|2,0:0|3:2,0:0:0:0:
437,384,80320,1,2,3:2:0:0:
314,266,80487,1,0,3:0:0:0:
314,266,80570,1,0,3:0:0:0:
314,266,80653,1,10,0:0:0:0:
512,169,80820,6,0,P|500:245|491:343,1,161.999995056153,6|0,3:2|0:0,0:0:0:0:
422,291,81153,2,0,P|427:234|437:180,1,107.999996704102,2|8,3:2|0:0,0:0:0:0:
492,52,81487,1,2,3:2:0:0:
497,62,81570,1,0,3:0:0:0:
503,71,81653,5,4,0:3:0:0:
474,99,81736,1,4,0:3:0:0:
435,105,81819,1,2,3:2:0:0:
399,87,81902,1,0,3:0:0:0:
380,52,81986,5,10,0:0:0:0:
342,16,82069,1,8,0:0:0:0:
289,18,82152,1,2,3:2:0:0:
254,56,82237,1,0,3:0:0:0:
256,109,82319,5,10,0:0:0:0:
256,109,83172,5,2,3:2:0:0:
259,118,83255,1,0,3:0:0:0:
262,127,83338,1,10,0:0:0:0:
213,190,83500,1,10,0:0:0:0:
213,190,84516,6,0,L|204:241,1,45,2|0,3:2|3:0,0:0:0:0:
261,283,84673,5,8,0:3:0:0:
283,280,84751,1,8,0:3:0:0:
305,278,84830,1,4,0:3:0:0:
328,275,84908,1,4,0:3:0:0:
350,273,84987,1,4,3:2:0:0:
350,273,85659,6,0,L|429:264,2,72,2|2|2,0:0|0:0|0:0,0:0:0:0:
253,105,87659,6,0,B|239:62|279:24|327:23|375:47|377:124|346:142|288:150|313:211,1,288,6|0,3:2|0:0,0:0:0:0:
