osu file format v14

[General]
AudioFilename: audio.mp3
AudioLeadIn: 0
PreviewTime: 49237
Countdown: 0
SampleSet: Soft
StackLeniency: 0.4
Mode: 0
LetterboxInBreaks: 0
EpilepsyWarning: 1
WidescreenStoryboard: 1

[Editor]
DistanceSpacing: 1
BeatDivisor: 4
GridSize: 8
TimelineZoom: 1.4

[Metadata]
Title:Judgement (TV Size)
TitleUnicode:Judgement (TV Size)
Artist:ASH DA HERO
ArtistUnicode:ASH DA HERO
Creator:KaedeharaKazuha
Version:Advanced
Source:ブルーロック
Tags:Addy2607 Kaedehara Kazuha AirinCat Some Hero Some_Hero Heroine Kyouren KittyAdventure gokugohan12468 -Mikan Mikan Bazz B Bazz_B Flask killian rk657 Matsuyuki Ame Matsuyuki_Ame muya- arronchu1207 Irohas MugiwaraSekai kanor Gorou Wanpachi Cycopton jrock j-rock japanese rock BLUE LOCK BLUELOCK anime 2nd second opening op intro theme song 2 two football soccer ASH Narukaze Sato WANI DJ Dhalsim ADH
BeatmapID:3959864
BeatmapSetID:1918519

[Difficulty]
HPDrainRate:3.5
CircleSize:3.2
OverallDifficulty:5
ApproachRate:7
SliderMultiplier:1.2
SliderTickRate:1

[Events]
//Background and Video events
Video,0,"video.mp4"
0,0,"BG.jpg",0,0
//Break Periods
2,11853,14756
//Storyboard Layer 0 (Background)
//Storyboard Layer 1 (Fail)
//Storyboard Layer 2 (Pass)
//Storyboard Layer 3 (Foreground)
//Storyboard Layer 4 (Overlay)
//Storyboard Sound Samples

[TimingPoints]
-346,333.333333333333,4,2,1,100,1,0
487,-100,4,2,1,50,0,0
987,-100,4,2,1,70,0,0
6320,-100,4,2,1,80,0,0
11653,-105.263157894737,4,2,1,90,0,0
12153,-105.263157894737,4,2,1,50,0,0
13653,392.156862745098,4,2,1,50,1,0
13849,292.682926829268,4,2,1,50,1,0
14320,333.333333333333,4,2,1,50,1,0
14653,359.281437125748,4,2,1,50,1,0
14832,333.333333333333,4,2,1,50,1,0
14998,359.281437125748,4,2,1,50,1,0
15177,333.333333333333,4,2,1,50,1,0
15510,292.682926829268,4,2,1,50,1,0
15656,333.333333333333,4,2,1,60,1,0
15656,-102.564102564103,4,2,1,60,0,0
16072,288.461538461538,4,2,1,60,1,0
16144,310.880829015544,4,2,1,60,1,0
16299,333.333333333333,4,2,1,60,1,0
16465,377.358490566038,4,2,1,70,1,0
16465,-105.263157894737,4,2,1,70,0,0
16653,333.333333333333,4,2,1,70,1,0
16653,-105.263157894737,4,2,1,70,0,0
16987,333.333333333333,4,2,1,60,1,0
16987,-105.263157894737,4,2,1,60,0,0
27487,-100,4,2,1,60,0,0
28987,-100,4,2,1,70,0,0
29487,-100,4,2,1,70,0,0
30320,-100,4,2,1,60,0,0
31653,-100,4,2,1,70,0,0
32153,-100,4,2,1,70,0,0
32987,-100,4,2,1,60,0,0
34320,-100,4,2,1,70,0,0
34820,-100,4,2,1,70,0,0
35654,-100,4,2,1,60,0,0
36987,-100,4,2,1,70,0,0
38320,-105.263157894737,4,2,1,60,0,0
43653,-105.263157894737,4,2,1,70,0,0
46320,-100,4,2,1,80,0,0
48987,-100,4,2,1,80,0,0
49320,-100,4,2,1,60,0,0
49653,-100,4,2,1,80,0,0
50320,-95.2380952380952,4,2,1,90,0,1
71653,-95.2380952380952,4,2,1,90,0,1
75487,-95.2380952380952,4,2,1,90,0,1
76987,-95.2380952380952,4,2,1,90,0,1
82320,340.909090909091,4,2,1,70,1,0
82320,-100,4,2,1,70,0,0
83172,333.333333333333,4,2,1,70,1,0
83338,324.324324324324,4,2,1,70,1,0
83500,338.983050847458,4,2,1,70,1,0
84516,314.13612565445,4,2,1,70,1,0
84987,333.333333333333,4,2,1,70,1,0
85070,337.078651685393,4,2,1,70,1,0
85659,333.333333333333,4,2,1,50,1,0
85659,-100,4,2,1,50,0,0
87659,333.333333333333,4,2,1,60,1,0
87659,-100,4,2,1,60,0,0
88992,-100,4,2,1,5,0,0

[Colours]
Combo1 : 212,212,212
Combo2 : 238,72,68
Combo3 : 95,95,95
Combo4 : 62,82,225

[HitObjects]
497,233,487,6,0,P|491:269|486:304,2,60,2|2|2,0:0|0:0|0:0,0:0:0:0:
463,156,987,2,0,P|414:124|356:159,1,120,6|2,3:2|3:2,0:0:0:0:
269,286,1653,2,0,P|220:318|162:283,1,120,2|4,3:2|3:0,0:0:0:0:
87,316,2153,1,4,3:0:0:0:
87,316,2320,6,0,P|82:268|68:192,1,120,2|4,3:2|3:0,0:0:0:0:
5,41,2987,2,0,P|53:36|129:22,1,120,4|4,3:0|3:0,0:0:0:0:
211,30,3487,1,4,0:3:0:0:
211,30,3653,6,0,P|251:73|228:130,1,120,6|4,3:2|3:0,0:0:0:0:
81,199,4320,2,0,P|41:242|64:299,1,120,4|4,3:0|3:0,0:0:0:0:
130,348,4820,1,0,0:0:0:0:
130,348,4987,6,0,P|209:341|262:340,1,120,2|4,3:2|3:0,0:0:0:0:
390,248,5653,1,0,3:0:0:0:
452,304,5820,2,0,P|448:347|447:368,2,60,2|2|4,0:0|3:2|0:3,0:0:0:0:
504,238,6320,6,0,P|499:167|496:114,1,120,6|4,3:2|0:3,0:0:0:0:
447,49,6820,2,0,P|376:54|323:57,1,120,4|4,3:2|0:3,0:0:0:0:
281,127,7320,2,0,P|283:162|285:188,1,60,4|4,3:2|0:3,0:0:0:0:
318,263,7653,6,0,P|247:268|194:271,1,120,4|4,3:2|0:3,0:0:0:0:
121,306,8153,2,0,P|116:235|113:182,1,120,4|4,3:2|0:3,0:0:0:0:
52,127,8653,1,4,3:2:0:0:
174,11,8987,6,0,P|247:6|320:1,1,120,4|4,3:2|0:3,0:0:0:0:
371,35,9487,2,0,P|405:69|385:137,1,120,4|4,3:2|0:3,0:0:0:0:
310,162,9987,2,0,P|271:164|233:166,1,60,4|0,3:2|3:0,0:0:0:0:
177,122,10320,6,0,P|138:124|100:126,1,60,4|4,0:3|0:3,0:0:0:0:
56,184,10653,1,4,0:3:0:0:
56,184,10820,1,4,0:3:0:0:
111,247,10987,2,0,P|140:245|170:243,1,60,8|8,0:3|0:3,0:0:0:0:
244,283,11320,2,0,P|273:281|303:279,1,60,8|8,0:3|0:3,0:0:0:0:
364,226,11653,1,4,3:2:0:0:
397,381,15656,6,0,P|381:245|378:209,1,170.999995433807,8|8,0:0|0:0,0:0:0:0:
309,166,16299,1,8,0:0:0:0:
250,220,16465,1,10,0:0:0:0:
250,220,16653,2,0,P|257:280|258:296,1,56.9999984779358,2|2,3:2|0:0,0:0:0:0:
222,349,16987,5,4,3:2:0:0:
71,311,17320,1,10,0:0:0:0:
71,311,17487,2,0,P|64:248|56:185,1,113.999996955872,2|2,3:2|3:2,0:0:0:0:
17,127,17987,1,8,0:0:0:0:
17,127,18153,6,0,P|59:88|117:122,1,113.999996955872,2|2,0:0|3:2,0:0:0:0:
171,161,18653,1,8,0:0:0:0:
171,161,18820,2,0,P|222:177|261:139,1,113.999996955872,2|2,3:2|3:2,0:0:0:0:
379,30,19487,6,0,P|377:81|379:162,1,113.999996955872,2|2,0:0|3:2,0:0:0:0:
442,199,19987,1,10,0:0:0:0:
442,199,20153,1,2,3:2:0:0:
398,265,20320,2,0,P|350:263|306:271,1,85.4999977169037,2|2,0:0|3:2,0:0:0:0:
300,278,20653,1,8,0:0:0:0:
222,257,20820,6,0,P|184:212|222:165,1,113.999996955872,2|2,3:2|3:2,0:0:0:0:
274,125,21320,1,10,0:0:0:0:
156,17,21653,2,0,P|102:21|59:26,1,85.4999977169037,2|2,3:2|3:2,0:0:0:0:
56,27,21987,1,10,0:0:0:0:
7,90,22153,1,10,0:0:0:0:
7,90,22320,5,4,3:2:0:0:
108,213,22653,2,0,P|101:255|97:287,1,56.9999984779358,10|0,0:0|3:0,0:0:0:0:
64,343,22987,1,2,0:0:0:0:
64,343,23153,2,0,P|92:347|120:351,1,56.9999984779358,2|8,3:2|0:0,0:0:0:0:
196,325,23487,6,0,P|264:315|316:312,1,113.999996955872,2|2,0:0|3:2,0:0:0:0:
382,355,23987,1,8,0:0:0:0:
382,355,24153,2,0,P|423:333|414:268,1,113.999996955872,2|0,3:2|3:0,0:0:0:0:
359,217,24653,1,10,0:0:0:0:
501,144,24987,6,0,P|504:113|509:86,1,56.9999984779358,2|0,3:2|0:0,0:0:0:0:
470,17,25320,2,0,P|441:14|413:9,1,56.9999984779358,10|0,0:0|3:0,0:0:0:0:
343,48,25653,2,0,P|340:76|335:104,1,56.9999984779358,2|0,0:0|3:0,0:0:0:0:
272,154,25987,1,10,0:0:0:0:
272,154,26153,1,4,3:2:0:0:
219,93,26320,6,0,P|227:42|232:-8,2,85.4999977169037,2|0|0,0:0|3:2|3:0,0:0:0:0:
94,192,27153,1,0,3:0:0:0:
94,192,27320,1,8,0:0:0:0:
150,254,27487,6,0,P|195:246|285:241,1,120,2|2,0:0|3:2,0:0:0:0:
331,184,27987,1,10,0:0:0:0:
331,184,28153,1,2,3:2:0:0:
407,219,28320,2,0,P|449:280|420:326,1,120,2|10,0:0|0:0,0:0:0:0:
265,333,28987,6,0,P|219:335|174:343,1,90,2|2,3:2|3:2,0:0:0:0:
161,354,29320,1,8,0:0:0:0:
88,311,29487,2,0,P|84:247|73:184,1,120,2|0,3:2|3:0,0:0:0:0:
17,131,29987,1,8,0:0:0:0:
17,131,30153,1,2,0:3:0:0:
60,60,30320,5,0,3:0:0:0:
60,60,30487,2,0,P|55:15|49:-19,2,60,2|10|2,3:2|0:0|3:2,0:0:0:0:
134,99,30987,2,0,P|177:92|198:90,1,60,2|2,0:0|3:2,0:0:0:0:
255,33,31320,1,10,0:0:0:0:
404,109,31653,6,0,P|399:153|394:202,1,90,2|2,3:2|3:2,0:0:0:0:
400,213,31987,1,8,0:0:0:0:
336,267,32153,2,0,P|279:261|190:260,1,120,2|0,3:2|3:0,0:0:0:0:
168,196,32653,1,8,0:0:0:0:
168,196,32820,1,8,0:0:0:0:
225,135,32987,5,0,3:0:0:0:
225,135,33153,2,0,P|269:137|301:139,2,60,2|10|2,3:2|0:0|3:2,0:0:0:0:
167,73,33653,2,0,P|130:49|82:68,1,90,2|2,0:0|0:0,0:0:0:0:
2,152,34153,1,2,0:0:0:0:
2,152,34320,6,0,P|11:211|18:264,1,90,2|2,3:2|3:2,0:0:0:0:
8,257,34653,1,8,0:0:0:0:
64,319,34820,2,0,P|98:311|126:306,1,60,2|0,3:2|0:0,0:0:0:0:
201,336,35153,2,0,P|245:353|296:296,1,120,2|2,3:2|0:3,0:0:0:0:
357,252,35653,5,0,3:2:0:0:
357,252,35820,2,0,P|404:259|427:258,2,60,2|10|2,3:2|0:0|3:2,0:0:0:0:
300,189,36320,2,0,P|230:199|196:197,2,90,2|2|6,0:0|0:0|3:2,0:0:0:0:
372,145,36987,2,0,P|390:106|366:62,1,90,2|2,0:0|0:0,0:0:0:0:
359,59,37320,1,4,0:3:0:0:
281,26,37487,2,0,P|236:34|140:31,1,120,2|4,3:2|3:0,0:0:0:0:
82,5,37987,1,8,0:3:0:0:
6,145,38320,6,0,P|15:221|19:264,1,113.999996955872,6|0,3:2|3:0,0:0:0:0:
93,286,38820,2,0,P|169:277|212:273,1,113.999996955872,2|2,0:0|0:3,0:0:0:0:
261,215,39320,1,2,3:2:0:0:
357,87,39653,6,0,P|412:80|443:77,1,85.4999977169037,2|2,3:2|0:0,0:0:0:0:
453,69,39987,1,0,3:0:0:0:
511,122,40153,2,0,P|503:166|502:190,1,56.9999984779358,2|0,0:0|3:0,0:0:0:0:
433,220,40487,2,0,P|441:264|442:288,1,56.9999984779358,2|0,0:0|3:0,0:0:0:0:
411,352,40820,1,2,0:3:0:0:
411,352,40987,6,0,P|357:343|313:340,1,85.4999977169037,2|2,3:2|0:0,0:0:0:0:
314,350,41320,1,0,3:0:0:0:
239,322,41487,2,0,P|206:283|239:224,1,113.999996955872,2|2,0:0|0:0,0:0:0:0:
290,180,41987,1,2,3:2:0:0:
427,98,42320,6,0,P|453:64|426:16,1,85.4999977169037,2|2,3:2|0:0,0:0:0:0:
427,13,42653,1,0,3:0:0:0:
350,35,42820,2,0,P|283:40|223:57,1,113.999996955872,2|8,0:0|0:0,0:0:0:0:
177,3,43320,1,4,0:3:0:0:
177,3,43487,1,4,0:3:0:0:
108,43,43653,6,0,P|116:101|119:135,1,85.4999977169037,6|2,3:2|0:0,0:0:0:0:
121,142,43987,1,8,0:0:0:0:
51,180,44153,2,0,P|42:253|35:307,1,113.999996955872,2|2,0:0|0:3,0:0:0:0:
88,354,44653,1,10,0:0:0:0:
238,299,44987,6,0,P|289:303|336:316,1,85.4999977169037,2|2,3:2|0:0,0:0:0:0:
339,318,45320,1,8,0:0:0:0:
412,285,45487,2,0,P|424:262|411:221,1,56.9999984779358,2|0,0:0|3:0,0:0:0:0:
371,167,45820,2,0,P|359:144|372:103,1,56.9999984779358,2|8,0:0|0:0,0:0:0:0:
416,53,46153,1,0,3:0:0:0:
348,2,46320,6,0,P|304:6|274:14,1,60,12|0,0:0|3:0,0:0:0:0:
237,76,46653,1,2,3:2:0:0:
237,76,46820,2,0,P|207:70|177:68,1,60,14|0,0:0|3:0,0:0:0:0:
119,15,47153,1,2,3:2:0:0:
119,15,47320,1,14,0:0:0:0:
47,166,47653,6,0,P|56:209|56:231,1,60,2|0,3:2|3:0,0:0:0:0:
129,267,47987,2,0,P|172:258|194:258,1,60,0|2,3:2|3:2,0:0:0:0:
266,288,48320,1,8,0:0:0:0:
334,239,48487,1,10,0:0:0:0:
295,164,48653,1,10,0:0:0:0:
320,83,48820,1,8,0:0:0:0:
403,89,48987,1,4,3:2:0:0:
187,346,49653,5,8,0:3:0:0:
124,290,49820,2,0,P|83:297|61:305,2,60,2|2|2,0:0|0:0|0:0,0:0:0:0:
191,233,50320,2,0,P|238:239|322:263,1,125.999996154785,4|10,3:1|0:0,0:0:0:0:
405,254,50820,1,0,0:0:0:0:
405,254,50987,2,0,P|442:217|406:142,1,125.999996154785,2|10,3:2|0:0,0:0:0:0:
272,61,51653,6,0,P|277:21|283:-5,2,62.9999980773926,2|2|10,3:2|0:0|0:0,0:0:0:0:
196,106,52153,2,0,P|203:137|208:168,1,62.9999980773926,2|0,3:2|3:0,0:0:0:0:
285,211,52487,2,0,P|315:204|346:199,1,62.9999980773926,2|8,0:0|0:0,0:0:0:0:
424,240,52820,1,2,0:0:0:0:
495,188,52987,6,0,P|506:140|474:103,2,94.499997116089,2|2|2,3:2|0:0|0:0,0:0:0:0:
424,240,53653,2,0,P|434:294|441:353,2,94.499997116089,2|2|2,3:2|0:0|0:0,0:0:0:0:
347,199,54320,2,0,P|295:207|244:218,1,94.499997116089,2|0,3:2|0:0,0:0:0:0:
246,229,54653,1,10,0:0:0:0:
164,194,54820,2,0,P|150:162|170:126,1,62.9999980773926,0|0,3:0|3:0,0:0:0:0:
237,96,55153,2,0,P|251:64|231:28,1,62.9999980773926,2|8,0:0|0:0,0:0:0:0:
166,4,55487,1,2,0:0:0:0:
166,4,55653,6,0,P|81:17|16:32,1,125.999996154785,4|8,3:2|0:0,0:0:0:0:
5,108,56153,1,2,0:0:0:0:
5,108,56320,2,0,P|13:148|18:174,1,62.9999980773926,2|2,3:2|0:0,0:0:0:0:
99,200,56653,2,0,P|91:240|86:266,1,62.9999980773926,10|2,0:0|0:0,0:0:0:0:
77,350,56987,6,0,P|38:371|-7:332,2,94.499997116089,2|2|2,3:2|0:3|3:2,0:0:0:0:
157,312,57653,2,0,P|213:316|287:327,1,125.999996154785,2|8,3:2|0:0,0:0:0:0:
454,384,58320,5,2,3:2:0:0:
454,384,58487,1,8,0:0:0:0:
509,316,58653,2,0,P|503:270|495:237,1,62.9999980773926,8|0,0:0|3:0,0:0:0:0:
450,179,58987,2,0,P|496:173|529:165,2,62.9999980773926,8|0|8,0:0|3:0|0:0,0:0:0:0:
382,236,59487,6,0,P|319:226|256:221,1,125.999996154785,6|2,3:2|3:2,0:0:0:0:
189,277,59987,1,8,0:0:0:0:
189,277,60153,1,2,3:2:0:0:
115,227,60320,2,0,P|96:194|115:155,1,62.9999980773926,2|0,3:2|3:0,0:0:0:0:
126,86,60653,2,0,P|150:56|193:61,1,62.9999980773926,8|8,0:0|0:0,0:0:0:0:
256,82,60987,6,0,P|318:87|380:96,1,125.999996154785,4|10,3:1|0:0,0:0:0:0:
462,56,61487,1,0,0:0:0:0:
462,56,61653,2,0,P|503:83|483:156,1,125.999996154785,2|10,3:2|0:0,0:0:0:0:
396,300,62320,6,0,P|402:342|406:374,2,62.9999980773926,2|2|10,3:2|0:0|0:0,0:0:0:0:
317,257,62820,2,0,P|275:263|243:267,1,62.9999980773926,2|0,3:2|3:0,0:0:0:0:
181,216,63153,2,0,P|175:174|171:142,1,62.9999980773926,2|8,0:0|0:0,0:0:0:0:
224,81,63487,1,2,0:0:0:0:
153,28,63653,6,0,P|106:35|59:44,2,94.499997116089,2|2|2,3:2|0:0|0:0,0:0:0:0:
224,81,64320,2,0,P|264:57|319:80,2,94.499997116089,2|2|2,3:2|0:0|0:0,0:0:0:0:
172,153,64987,2,0,P|125:160|78:169,1,94.499997116089,2|0,3:2|0:0,0:0:0:0:
65,165,65320,1,10,0:0:0:0:
13,236,65487,2,0,P|23:291|23:301,1,62.9999980773926,2|0,3:2|3:0,0:0:0:0:
97,345,65820,2,0,P|152:335|162:335,1,62.9999980773926,2|8,0:0|0:0,0:0:0:0:
247,365,66153,1,2,0:0:0:0:
247,365,66320,6,0,P|279:327|249:261,1,125.999996154785,4|8,3:2|0:0,0:0:0:0:
185,214,66820,1,2,0:0:0:0:
185,214,66987,2,0,P|181:182|175:151,1,62.9999980773926,2|2,3:2|0:0,0:0:0:0:
228,81,67320,2,0,P|259:77|290:71,1,62.9999980773926,10|2,0:0|0:0,0:0:0:0:
378,76,67653,6,0,P|407:36|386:-3,2,94.499997116089,2|2|2,3:2|0:3|3:2,0:0:0:0:
326,148,68320,2,0,P|335:202|345:277,1,125.999996154785,0|8,3:0|0:0,0:0:0:0:
506,356,68987,5,2,3:2:0:0:
506,356,69154,1,8,0:0:0:0:
490,269,69320,2,0,P|485:241|480:202,1,62.9999980773926,10|2,0:0|3:2,0:0:0:0:
445,125,69653,2,0,P|472:120|511:115,2,62.9999980773926,10|2|8,0:0|3:2|0:0,0:0:0:0:
380,64,70153,1,4,3:2:0:0:
316,125,70320,6,0,P|320:152|325:191,2,62.9999980773926,2|2|10,0:0|3:2|0:0,0:0:0:0:
255,61,70820,2,0,P|200:84|158:57,1,94.499997116089,2|8,3:2|0:0,0:0:0:0:
158,59,71153,2,0,P|127:46|86:65,1,62.9999980773926,2|8,3:2|0:0,0:0:0:0:
31,109,71487,1,10,0:0:0:0:
89,174,71653,6,0,P|84:231|79:287,1,94.499997116089,4|0,3:1|3:0,0:0:0:0:
83,284,71987,2,0,P|120:278|151:274,1,62.9999980773926,8|0,0:0|3:0,0:0:0:0:
227,241,72320,2,0,P|233:278|237:309,1,62.9999980773926,8|2,0:0|3:2,0:0:0:0:
311,360,72653,1,8,0:0:0:0:
311,360,72820,1,2,3:2:0:0:
363,288,72987,6,0,P|352:224|343:168,1,94.499997116089,8|0,0:0|3:0,0:0:0:0:
333,184,73320,2,0,P|325:141|319:104,1,62.9999980773926,8|0,0:0|3:0,0:0:0:0:
368,46,73653,2,0,P|411:38|448:32,1,62.9999980773926,8|2,0:0|3:2,0:0:0:0:
502,85,73987,1,10,0:0:0:0:
445,151,74153,1,2,3:2:0:0:
496,222,74320,6,0,P|503:268|511:315,1,94.499997116089,8|0,0:0|3:0,0:0:0:0:
512,328,74653,2,0,P|470:323|441:321,1,62.9999980773926,10|0,0:0|3:0,0:0:0:0:
374,368,74987,2,0,P|332:363|303:361,1,62.9999980773926,10|0,0:0|3:0,0:0:0:0:
243,304,75320,1,10,0:0:0:0:
179,365,75487,6,0,P|138:345|130:320,1,62.9999980773926,2|8,3:2|0:0,0:0:0:0:
43,336,75820,2,0,P|47:291|67:275,1,62.9999980773926,2|8,3:2|0:0,0:0:0:0:
25,198,76153,2,0,P|68:186|90:200,1,62.9999980773926,0|8,3:0|0:0,0:0:0:0:
145,133,76487,2,0,P|170:170|165:195,1,62.9999980773926,2|8,3:2|0:0,0:0:0:0:
214,260,76820,1,8,0:3:0:0:
214,260,76987,6,0,P|256:254|285:250,1,62.9999980773926,6|2,3:2|3:2,0:0:0:0:
353,293,77320,1,10,0:0:0:0:
450,146,77653,2,0,P|492:140|521:136,2,62.9999980773926,0|2|10,3:2|3:2|0:0,0:0:0:0:
389,82,78153,6,0,P|332:73|264:60,1,125.999996154785,6|0,3:2|3:0,0:0:0:0:
196,114,78653,1,8,0:0:0:0:
196,114,78820,2,0,P|142:137|105:91,1,125.999996154785,0|2,3:0|3:2,0:0:0:0:
48,31,79320,1,10,0:0:0:0:
48,31,79487,1,10,0:0:0:0:
3,106,79653,6,0,P|11:158|14:174,1,62.9999980773926,6|2,3:2|3:2,0:0:0:0:
28,255,79987,1,10,0:0:0:0:
191,321,80320,2,0,P|199:373|202:389,2,62.9999980773926,2|0|10,3:2|3:0|0:0,0:0:0:0:
245,251,80820,6,0,P|275:215|237:150,1,125.999996154785,6|2,3:2|3:2,0:0:0:0:
160,136,81320,1,8,0:0:0:0:
160,136,81487,2,0,P|130:100|168:35,1,125.999996154785,2|2,3:2|3:2,0:0:0:0:
250,26,81987,2,0,P|295:33|326:42,1,62.9999980773926,10|2,0:0|3:2,0:0:0:0:
389,4,82320,5,10,0:0:0:0:
480,148,83172,2,0,P|474:185|472:212,1,60,2|10,3:2|0:0,0:0:0:0:
512,281,83500,1,10,0:0:0:0:
317,352,84516,1,2,3:2:0:0:
317,352,84673,2,0,P|280:346|253:344,1,60,8|4,0:3|0:3,0:0:0:0:
181,381,84987,5,4,3:2:0:0:
32,210,85659,2,0,B|49:139|2:69|2:69|48:118|102:91,2,240,2|2|2,0:0|0:0|0:0,0:0:0:0:
181,381,87659,1,6,3:2:0:0:
256,192,87742,12,0,88992,0:0:0:0:
