osu file format v14

[General]
AudioFilename: audio.ogg
AudioLeadIn: 0
PreviewTime: 44911
Countdown: 0
SampleSet: Soft
StackLeniency: 0.7
Mode: 2
LetterboxInBreaks: 0
WidescreenStoryboard: 1

[Editor]
DistanceSpacing: 1.6
BeatDivisor: 4
GridSize: 4
TimelineZoom: 1

[Metadata]
Title:Watashi ga Warau Wake wa (TV Size)
TitleUnicode:私が笑う理由は (TV Size)
Artist:ASCA
ArtistUnicode:ASCA
Creator:Secre
Version:Salad
Source:豚のレバーは加熱しろ
Tags:chickenbible butaliver the story of a man turned into pig furukawa takahiro riyuu anime japanese pop jpop j-pop female vocals op opening Buta no Liver wa Kanetsu Shiro 豚レバ butareba Heat the Pig Liver 古川貴浩 reba
BeatmapID:4400064
BeatmapSetID:2096929

[Difficulty]
HPDrainRate:3
CircleSize:3
OverallDifficulty:7
ApproachRate:7
SliderMultiplier:1.43
SliderTickRate:1

[Events]
//Background and Video events
Video,0,"video.avi"
0,0,"which hololive member owns a pig.jpg",0,0
//Break Periods
//Storyboard Layer 0 (Background)
//Storyboard Layer 1 (Fail)
//Storyboard Layer 2 (Pass)
//Storyboard Layer 3 (Foreground)
//Storyboard Layer 4 (Overlay)
//Storyboard Sound Samples

[TimingPoints]
815,361.44578313253,4,2,1,50,1,0
6598,-100,4,2,1,35,0,0
18164,-100,4,2,1,40,0,0
26839,-100,4,2,1,45,0,0
42019,-100,4,2,1,50,0,0
45634,-100,4,2,1,60,0,1
68405,-100,4,2,1,50,0,0
75995,-100,4,2,1,30,0,0

[Colours]
Combo1 : 255,151,153
Combo2 : 235,214,156
Combo3 : 255,147,201
Combo4 : 151,151,255

[HitObjects]
289,146,634,5,0,3:2:0:0:
119,130,815,6,0,L|120:283,1,143,6|2,0:0|3:2,0:0:0:0:
257,284,1537,1,2,3:2:0:0:
185,282,1717,1,2,0:0:0:0:
114,281,1898,1,2,3:2:0:0:
42,280,2079,1,2,0:0:0:0:
42,280,2441,6,0,L|137:283,1,71.5,2|2,0:0|3:2,0:0:0:0:
255,194,2983,2,0,L|105:192,1,143,2|0,3:2|3:2,0:0:0:0:
399,217,3706,6,0,L|399:64,1,143,2|2,3:2|3:2,0:0:0:0:
250,60,4429,1,2,3:2:0:0:
321,59,4609,1,2,0:0:0:0:
392,59,4790,1,2,3:2:0:0:
464,59,4971,1,2,0:0:0:0:
321,59,5333,6,0,L|322:163,2,71.5,10|2|2,0:0|3:2|0:0,0:0:0:0:
183,175,6055,2,0,L|99:176,1,71.5,2|2,3:2|3:2,0:0:0:0:
404,99,6598,6,0,L|404:254,1,143,4|0,3:2|0:0,0:0:0:0:
266,259,7321,2,0,L|112:256,1,143,2|0,0:0|0:0,0:0:0:0:
274,256,8043,6,0,P|311:244|258:181,1,143,2|0,0:0|0:0,0:0:0:0:
137,174,8766,2,0,L|134:30,1,143,2|0,0:0|0:0,0:0:0:0:
407,31,9489,6,0,P|464:31|481:122,1,143,2|0,0:0|0:0,0:0:0:0:
420,115,10031,1,2,0:0:0:0:
286,117,10393,2,0,L|285:218,2,71.5,2|2|2,0:0|0:0|0:0,0:0:0:0:
150,66,11116,5,2,0:0:0:0:
85,79,11296,1,2,0:0:0:0:
82,145,11477,1,2,0:0:0:0:
146,163,11658,1,2,0:0:0:0:
27,205,12019,1,2,0:0:0:0:
327,116,12381,5,2,0:0:0:0:
395,122,12561,1,0,0:0:0:0:
429,182,12742,1,0,0:0:0:0:
400,244,12923,1,0,0:0:0:0:
333,257,13103,1,2,0:0:0:0:
468,145,13465,1,0,0:0:0:0:
179,99,13827,6,0,P|111:103|100:184,1,143,2|0,0:0|0:0,0:0:0:0:
232,218,14549,2,0,L|82:222,1,143,2|0,0:0|0:0,0:0:0:0:
371,93,15272,6,0,L|370:241,1,143,2|0,0:0|0:0,0:0:0:0:
295,260,15814,2,0,L|142:260,1,143,2|0,0:0|0:0,0:0:0:0:
152,260,16357,1,2,0:0:0:0:
436,186,16718,6,0,P|436:114|251:42,1,286,2|2,0:0|0:0,0:0:0:0:
127,132,17802,1,2,0:0:0:0:
418,134,18164,6,0,L|417:298,1,143,6|0,3:2|3:2,0:0:0:0:
281,304,18887,2,0,L|433:301,1,143,0|0,3:2|3:2,0:0:0:0:
151,226,19610,6,0,P|105:207|170:165,1,143,2|0,3:2|3:2,0:0:0:0:
293,142,20333,2,0,L|458:137,1,143,0|0,3:2|3:2,0:0:0:0:
152,63,21055,6,0,L|2:62,1,143,2|0,3:2|3:2,0:0:0:0:
82,119,21598,1,0,0:0:0:0:
223,64,21959,2,0,L|224:162,2,71.5,0|0|0,0:0|3:2|0:0,0:0:0:0:
361,96,22682,5,0,0:0:0:0:
432,96,22862,1,0,3:2:0:0:
503,97,23043,1,0,0:0:0:0:
432,96,23224,2,0,L|432:243,1,143,0|0,3:2|3:2,0:0:0:0:
132,210,23947,6,0,P|93:178|149:114,1,143,2|0,3:2|3:2,0:0:0:0:
265,92,24670,2,0,L|97:84,1,143,0|0,3:2|3:2,0:0:0:0:
392,90,25393,6,0,L|391:258,1,143,2|0,3:2|3:2,0:0:0:0:
258,277,26116,1,0,3:2:0:0:
329,277,26296,1,2,0:0:0:0:
400,277,26477,1,2,3:2:0:0:
116,185,26839,6,0,L|33:187,2,71.5,2|0|0,3:0|0:0|3:2,0:0:0:0:
189,157,27381,1,2,0:0:0:0:
189,157,27742,1,2,0:0:0:0:
267,18,27923,2,0,L|365:16,2,71.5,0|0|2,3:2|0:0|3:2,0:0:0:0:
189,157,28465,5,10,0:0:0:0:
189,157,28827,1,2,3:2:0:0:
268,7,29007,2,0,L|268:95,1,71.5,2|2,3:2|3:2,0:0:0:0:
196,137,29369,1,10,0:0:0:0:
481,141,29730,6,0,L|482:53,2,71.5,6|0|0,3:2|0:0|3:2,0:0:0:0:
341,182,30453,2,0,L|486:181,1,143,0|8,3:2|0:0,0:0:0:0:
412,119,30995,1,0,0:0:0:0:
341,184,31176,5,2,3:2:0:0:
268,125,31357,2,0,L|269:39,1,71.5,0|0,0:0|3:2,0:0:0:0:
409,26,31899,2,0,L|408:172,1,143,0|8,3:2|0:0,0:0:0:0:
118,222,32622,5,2,3:2:0:0:
49,222,32802,1,0,0:0:0:0:
14,164,32983,1,0,3:2:0:0:
47,104,33164,1,0,0:0:0:0:
115,102,33344,1,0,3:2:0:0:
247,92,33706,2,0,L|247:189,1,71.5,8|0,0:0|0:0,0:0:0:0:
181,190,34068,5,2,3:2:0:0:
110,137,34248,2,0,L|109:49,1,71.5,0|0,0:0|3:2,0:0:0:0:
181,88,34610,1,8,0:0:0:0:
252,60,34790,2,0,L|99:65,1,143,0|2,3:2|3:2,0:0:0:0:
393,84,35513,5,6,3:2:0:0:
393,84,35694,1,0,0:0:0:0:
321,83,35874,1,2,3:2:0:0:
250,83,36055,1,0,0:0:0:0:
321,83,36236,2,0,L|320:245,1,143,2|8,3:2|0:0,0:0:0:0:
247,252,36778,1,0,0:0:0:0:
175,223,36959,5,2,3:2:0:0:
248,170,37140,2,0,L|249:74,1,71.5,0|2,0:0|3:2,0:0:0:0:
103,74,37682,2,0,L|102:232,1,143,2|8,3:2|0:0,0:0:0:0:
381,204,38405,6,0,P|427:204|450:303,1,143,6|2,3:2|3:2,0:0:0:0:
391,315,38947,1,0,0:0:0:0:
314,251,39128,2,0,L|142:249,1,143,2|8,3:2|0:0,0:0:0:0:
457,214,39851,6,0,L|460:54,1,143,2|2,3:2|3:2,0:0:0:0:
316,65,40574,1,2,3:2:0:0:
387,66,40754,1,0,0:0:0:0:
458,67,40935,1,8,0:0:0:0:
179,105,41296,6,0,L|13:103,1,143,6|0,3:2|3:2,0:0:0:0:
113,140,41839,2,0,L|273:141,1,143,0|0,3:2|3:2,0:0:0:0:
178,75,42381,2,0,L|178:-10,1,71.5,0|0,3:2|3:2,0:0:0:0:
360,32,42742,6,0,L|511:30,1,143,6|8,0:0|0:0,0:0:0:0:
427,88,43284,2,0,L|425:166,1,71.5,6|0,0:0|0:0,0:0:0:0:
154,270,43827,2,0,L|153:182,1,71.5,14|0,0:0|0:0,0:0:0:0:
426,207,44369,5,14,0:0:0:0:
426,135,44549,1,10,0:0:0:0:
426,64,44730,1,10,0:0:0:0:
352,57,44911,2,0,L|497:49,1,143
205,68,45634,6,0,L|36:69,1,143,6|8,3:2|0:0,0:0:0:0:
205,68,46357,1,0,3:2:0:0:
133,68,46537,1,0,3:2:0:0:
62,68,46718,1,8,0:0:0:0:
347,97,47080,6,0,L|345:256,1,143,2|8,3:2|0:0,0:0:0:0:
199,270,47802,2,0,L|24:268,1,143,0|8,3:2|0:0,0:0:0:0:
307,68,48525,6,0,L|476:69,1,143,2|8,3:2|0:0,0:0:0:0:
307,68,49248,1,0,3:2:0:0:
378,68,49428,1,0,3:2:0:0:
449,68,49609,1,8,0:0:0:0:
165,97,49971,6,0,L|167:256,1,143,2|8,3:2|0:0,0:0:0:0:
313,270,50693,2,0,L|488:268,1,143,0|8,3:2|0:0,0:0:0:0:
167,184,51417,6,0,L|166:32,1,143,2|8,3:2|0:0,0:0:0:0:
307,36,52140,1,0,3:2:0:0:
235,36,52320,1,0,3:2:0:0:
164,36,52501,1,8,0:0:0:0:
452,166,52863,5,2,3:2:0:0:
452,166,53224,1,8,0:0:0:0:
306,109,53586,2,0,L|306:266,1,143,0|8,3:2|0:0,0:0:0:0:
378,284,54128,1,0,0:0:0:0:
451,213,54308,6,0,P|431:133|355:123,1,143,2|0,3:2|3:2,0:0:0:0:
309,96,54851,2,0,L|158:101,1,143,8|0,0:0|3:2,0:0:0:0:
166,100,55393,1,8,0:0:0:0:
454,104,55754,6,0,L|452:266,1,143,2|14,3:2|0:0,0:0:0:0:
158,189,56477,1,2,3:2:0:0:
86,187,56657,1,8,0:0:0:0:
15,186,56838,1,0,3:2:0:0:
300,102,57200,6,0,L|450:101,1,143,6|8,3:2|0:0,0:0:0:0:
300,102,57923,1,0,3:2:0:0:
371,101,58103,1,0,3:2:0:0:
442,101,58284,1,8,0:0:0:0:
151,237,58646,6,0,L|150:76,1,143,2|8,3:2|0:0,0:0:0:0:
294,64,59369,2,0,L|445:63,1,143,0|8,3:2|0:0,0:0:0:0:
143,243,60092,6,0,L|139:85,1,143,2|8,3:2|0:0,0:0:0:0:
277,72,60814,1,0,3:2:0:0:
205,73,60994,1,0,3:2:0:0:
134,75,61175,1,8,0:0:0:0:
424,108,61537,6,0,L|424:269,1,143,2|8,3:2|0:0,0:0:0:0:
276,283,62260,2,0,L|131:286,1,143,0|8,3:2|0:0,0:0:0:0:
429,221,62983,6,0,L|429:72,1,143,6|8,3:2|0:0,0:0:0:0:
285,76,63706,1,0,3:2:0:0:
356,76,63886,1,0,3:2:0:0:
427,77,64067,1,8,0:0:0:0:
136,193,64429,5,2,3:2:0:0:
136,193,64790,1,8,0:0:0:0:
279,195,65152,1,0,3:2:0:0:
207,194,65332,1,0,3:2:0:0:
136,193,65513,1,8,0:0:0:0:
423,176,65875,6,0,L|425:23,1,143,2|8,3:2|0:0,0:0:0:0:
281,41,66598,1,0,3:2:0:0:
352,41,66778,1,0,3:2:0:0:
423,41,66959,1,8,0:0:0:0:
136,153,67321,6,0,L|136:302,1,143,2|0,3:2|3:2,0:0:0:0:
209,324,67863,1,0,3:2:0:0:
279,268,68043,2,0,L|446:264,1,143,0|8,3:2|0:0,0:0:0:0:
136,231,68766,6,0,L|134:70,1,143,6|0,0:0|0:0,0:0:0:0:
419,225,69489,2,0,L|421:64,1,143,6|0,0:0|3:2,0:0:0:0:
120,90,70212,6,0,L|293:83,1,143,6|2,0:0|3:2,0:0:0:0:
262,84,70935,1,2,3:2:0:0:
190,82,71115,1,2,0:0:0:0:
119,81,71296,1,10,0:0:0:0:
47,80,71477,1,2,0:0:0:0:
190,82,71839,6,0,L|190:181,1,71.5,2|2,0:0|3:2,0:0:0:0:
47,229,72381,2,0,L|46:68,1,143,2|8,3:2|0:0,0:0:0:0:
336,101,73104,6,0,L|163:94,1,143,2|2,3:2|3:2,0:0:0:0:
194,95,73827,1,2,3:2:0:0:
265,93,74007,1,2,0:0:0:0:
336,92,74188,1,10,0:0:0:0:
408,91,74369,1,0,3:2:0:0:
265,93,74731,6,0,L|265:191,1,71.5,0|0,0:0|3:2,0:0:0:0:
338,242,75092,1,10,0:0:0:0:
409,240,75273,2,0,L|410:79,1,143,10|10,0:0|0:0,0:0:0:0:
132,98,75995,5,6,3:2:0:0:
340,76,76718,2,0,L|339:234,1,143,2|0,0:0|0:0,0:0:0:0:
201,242,77441,5,2,0:0:0:0:
77,202,78164,2,0,L|236:204,1,143,2|0,0:0|0:0,0:0:0:0:
482,202,78887,6,0,L|482:41,1,143,2|0,0:0|0:0,0:0:0:0:
347,63,79610,2,0,L|496:59,1,143,2|0,0:0|0:0,0:0:0:0:
347,63,80333,5,2,0:0:0:0:
245,240,81055,2,0,L|71:241,1,143,2|0,0:0|0:0,0:0:0:0:
342,75,81778,6,0,L|505:75,1,143,2|0,0:0|0:0,0:0:0:0:
342,75,82501,2,0,L|335:233,1,143,2|0,0:0|0:0,0:0:0:0:
207,243,83224,6,0,L|46:243,1,143,2|0,0:0|0:0,0:0:0:0:
215,95,83947,1,2,0:0:0:0:
143,94,84127,1,0,0:0:0:0:
72,94,84308,1,0,0:0:0:0:
320,90,84670,6,0,L|479:95,1,143,2|0,0:0|0:0,0:0:0:0:
318,92,85393,2,0,L|316:262,1,143,2|0,0:0|0:0,0:0:0:0:
50,283,86116,5,2,0:0:0:0:
256,192,86477,12,0,89007,0:0:0:0:
