osu file format v14

[General]
AudioFilename: audio.ogg
AudioLeadIn: 0
PreviewTime: 44916
Countdown: 0
SampleSet: Soft
StackLeniency: 0.5
Mode: 0
LetterboxInBreaks: 0
WidescreenStoryboard: 1

[Editor]
Bookmarks: 16633,29735,45639,57205,70217
DistanceSpacing: 1
BeatDivisor: 4
GridSize: 4
TimelineZoom: 2.799999

[Metadata]
Title:Watashi ga Warau Wake wa (TV Size)
TitleUnicode:私が笑う理由は (TV Size)
Artist:ASCA
ArtistUnicode:ASCA
Creator:Graphical
Version:Normal
Source:豚のレバーは加熱しろ
Tags:butareba buta no liver wa kanetsu shiro ButaLiver The Story of a Man Turned into a Pig furukawa takahiro Riyuu anime japanese pop jpop j-pop female vocals op opening
BeatmapID:4364015
BeatmapSetID:2083248

[Difficulty]
HPDrainRate:3.6
CircleSize:3.7
OverallDifficulty:4.2
ApproachRate:5.2
SliderMultiplier:1.1
SliderTickRate:1

[Events]
//Background and Video events
0,0,"BG.jpg",0,0
Video,45,"video.avi"
//Break Periods
//Storyboard Layer 0 (Background)
//Storyboard Layer 1 (Fail)
//Storyboard Layer 2 (Pass)
//Storyboard Layer 3 (Foreground)
//Storyboard Layer 4 (Overlay)
//Storyboard Sound Samples

[TimingPoints]
815,361.44578313253,4,2,22,50,1,0
6598,-133.333333333333,4,2,22,35,0,0
18164,-117.647058823529,4,2,22,40,0,0
26839,-117.647058823529,4,2,22,45,0,0
42019,-100,4,2,22,50,0,0
45634,-90.9090909090909,4,2,22,60,0,1
68405,-100,4,2,22,50,0,0
75995,-166.666666666667,4,2,22,30,0,0
89007,-166.666666666667,4,2,22,20,0,0

[Colours]
Combo1 : 255,151,153
Combo2 : 235,214,156
Combo3 : 255,147,201
Combo4 : 151,151,255

[HitObjects]
439,97,815,6,0,P|379:105|352:159,1,110,6|2,1:2|1:2,0:0:0:0:
279,224,1537,1,2,1:2:0:0:
185,166,1899,1,2,1:2:0:0:
108,245,2260,2,0,P|118:271|124:297,1,55,0|2,1:2|0:0,0:0:0:0:
160,339,2622,1,2,1:2:0:0:
268,358,2983,2,0,P|314:321|299:263,1,110,2|0,1:2|1:2,0:0:0:0:
401,215,3706,6,0,B|334:197|367:180|295:158,1,110,2|2,1:2|1:2,0:0:0:0:
239,73,4429,1,2,1:2:0:0:
140,122,4790,1,2,1:2:0:0:
186,221,5152,2,0,P|211:211|238:204,2,55,2|10|2,1:2|0:0|1:2,0:0:0:0:
109,299,5875,1,2,1:2:0:0:
109,299,6055,1,2,1:2:0:0:
109,299,6236,2,0,P|87:271|89:240,1,55,2|0,1:2|0:0,0:0:0:0:
52,227,6598,6,0,P|68:171|166:146,1,165.000006294251,6|2,0:0|0:0,0:0:0:0:
300,54,8043,2,0,P|284:114|265:221,1,165.000006294251,2|2,0:0|0:0,0:0:0:0:
391,322,9489,2,0,P|431:291|411:211,2,123.750004720688,2|2|2,0:0|0:0|0:0,0:0:0:0:
43,357,12381,6,0,B|128:333|93:308|191:276,1,165.000006294251,2|2,0:0|0:0,0:0:0:0:
239,214,13465,1,0,0:0:0:0:
174,162,13827,2,0,P|136:143|120:104,1,82.5000031471254,2|0,0:0|0:0,0:0:0:0:
178,49,14549,6,0,P|216:68|232:107,1,82.5000031471254,2|2,0:0|0:0,0:0:0:0:
305,139,15272,2,0,P|363:96|364:32,2,123.750004720688,2|2|2,0:0|0:0|0:0,0:0:0:0:
258,207,16718,2,0,P|309:217|383:240,1,123.750004720688,2|2,0:0|0:0,0:0:0:0:
411,262,17441,1,2,0:0:0:0:
242,343,18164,6,0,P|197:328|145:320,1,93.500001783371,6|0,1:2|1:2,0:0:0:0:
84,255,18887,2,0,P|128:240|174:232,1,93.500001783371,2|0,1:2|1:2,0:0:0:0:
240,165,19610,2,0,P|267:124|253:76,1,93.500001783371,2|0,1:2|1:2,0:0:0:0:
184,25,20333,2,0,P|157:66|171:114,1,93.500001783371,2|0,1:2|1:2,0:0:0:0:
240,165,21055,5,2,1:2:0:0:
315,110,21417,1,0,1:2:0:0:
386,169,21778,2,0,P|408:173|431:177,2,46.7500008916855,2|2|0,1:2|0:0|1:2,0:0:0:0:
353,202,22321,1,2,0:0:0:0:
388,288,22682,1,2,0:0:0:0:
388,288,22863,2,0,P|381:310|380:333,1,46.7500008916855,2|2,1:2|0:0,0:0:0:0:
344,364,23224,1,2,1:2:0:0:
276,299,23586,1,0,1:2:0:0:
190,335,23947,6,0,P|151:362|101:347,1,93.500001783371,2|0,1:2|1:2,0:0:0:0:
36,292,24670,2,0,P|27:247|53:210,1,93.500001783371,2|0,1:2|1:2,0:0:0:0:
146,200,25393,2,0,P|154:155|128:118,1,93.500001783371,2|0,1:2|1:2,0:0:0:0:
186,44,26116,2,0,P|190:21|196:-1,2,46.7500008916855,0|0|2,1:2|0:0|1:2,0:0:0:0:
236,122,26839,5,2,1:2:0:0:
312,67,27200,1,0,1:2:0:0:
368,142,27561,2,0,P|359:175|355:206,1,46.7500008916855,2|2,1:2|0:0,0:0:0:0:
330,226,27923,1,2,1:2:0:0:
416,262,28284,6,0,P|438:255|461:250,2,46.7500008916855,2|10|2,1:2|0:0|1:2,0:0:0:0:
366,344,29007,1,2,1:2:0:0:
366,344,29188,1,2,1:2:0:0:
366,344,29369,1,10,0:0:0:0:
278,377,29730,6,0,P|255:358|223:352,1,46.7500008916855,2|2,1:2|0:0,0:0:0:0:
206,318,30092,1,2,1:2:0:0:
129,371,30453,2,0,P|121:316|109:267,1,93.500001783371,2|10,1:2|1:2,0:0:0:0:
136,240,30995,1,2,0:0:0:0:
136,240,31176,2,0,P|158:235|181:229,1,46.7500008916855,0|2,1:2|0:0,0:0:0:0:
220,203,31537,1,2,1:2:0:0:
149,141,31899,2,0,P|112:123|95:72,1,93.500001783371,2|8,1:2|0:0,0:0:0:0:
166,15,32622,6,0,P|186:21|211:24,1,46.7500008916855,2|2,1:2|0:0,0:0:0:0:
238,63,32983,2,0,P|261:66|283:72,1,46.7500008916855,2|2,1:2|0:0,0:0:0:0:
330,64,33345,1,2,1:2:0:0:
391,4,33706,2,0,P|410:24|411:53,1,46.7500008916855,10|2,0:0|0:0,0:0:0:0:
445,76,34068,2,0,P|437:105|428:173,1,93.500001783371,2|2,1:2|1:2,0:0:0:0:
394,199,34610,1,8,0:0:0:0:
394,199,34790,2,0,P|401:228|406:261,2,46.7500008916855,2|8|4,1:2|0:3|0:3,0:0:0:0:
311,155,35513,6,0,P|263:177|255:223,1,93.500001783371,0|2,1:2|0:0,0:0:0:0:
223,249,36055,1,2,0:0:0:0:
223,249,36236,2,0,P|175:227|167:181,1,93.500001783371,2|10,1:2|0:0,0:0:0:0:
134,162,36778,1,2,0:0:0:0:
134,162,36959,2,0,P|142:132|147:99,1,46.7500008916855,0|2,1:2|0:0,0:0:0:0:
168,76,37321,1,2,1:2:0:0:
233,142,37682,2,0,B|286:158|260:173|318:189,1,93.500001783371,2|8,1:2|0:0,0:0:0:0:
373,259,38405,6,0,P|353:299|300:305,1,93.500001783371,6|0,1:2|1:2,0:0:0:0:
229,257,39128,2,0,P|184:265|164:305,1,93.500001783371,2|0,1:2|1:2,0:0:0:0:
85,356,39851,5,2,1:2:0:0:
26,283,40212,1,2,1:2:0:0:
102,228,40574,1,2,1:2:0:0:
47,152,40935,2,0,P|43:124|34:94,1,46.7500008916855,10|0,0:0|0:0,0:0:0:0:
62,66,41296,6,0,P|124:67|140:103,1,93.500001783371,2|0,1:2|1:2,0:0:0:0:
244,116,42019,2,0,P|268:101|282:72,2,55,2|0|8,1:2|1:0|1:2,0:0:0:0:
215,164,42561,1,0,1:0:0:0:
215,164,42742,2,0,P|226:212|237:279,1,110,2|8,1:2|0:0,0:0:0:0:
289,285,43284,2,0,B|353:265|312:247|379:226,1,110,2|0,1:2|1:0,0:0:0:0:
433,233,43827,2,0,P|472:278|456:327,1,110,10|0,0:0|1:0,0:0:0:0:
421,359,44369,1,10,0:0:0:0:
421,359,44549,1,10,0:0:0:0:
421,359,44730,1,10,0:0:0:0:
118,356,45634,6,0,P|135:295|146:232,1,121.000003692627,6|10,1:2|0:0,0:0:0:0:
252,181,46357,2,0,P|255:151|263:121,1,60.5000018463135,2|0,1:2|1:2,0:0:0:0:
238,66,46718,1,10,0:0:0:0:
117,75,47080,2,0,P|121:136|186:164,1,121.000003692627,2|8,1:2|0:0,0:0:0:0:
232,267,47802,6,0,P|261:259|291:255,1,60.5000018463135,2|0,1:2|1:2,0:0:0:0:
345,227,48164,1,10,0:0:0:0:
435,307,48525,2,0,P|480:257|461:203,1,121.000003692627,2|10,1:2|0:0,0:0:0:0:
475,89,49248,6,0,P|445:96|415:100,1,60.5000018463135,2|2,1:2|1:2,0:0:0:0:
366,135,49610,1,10,0:0:0:0:
366,135,49790,1,0,0:0:0:0:
366,135,49971,2,0,B|290:115|335:100|260:78,1,121.000003692627,2|8,1:2|0:0,0:0:0:0:
153,23,50694,6,0,P|160:52|164:82,1,60.5000018463135,2|0,1:2|1:2,0:0:0:0:
144,139,51055,1,10,0:0:0:0:
146,260,51417,2,0,P|178:211|236:207,1,121.000003692627,2|10,1:2|0:0,0:0:0:0:
292,314,52140,2,0,P|259:362|201:366,1,121.000003692627,2|10,1:2|0:0,0:0:0:0:
85,332,52863,2,0,P|74:272|62:213,1,121.000003692627,2|10,1:2|0:0,0:0:0:0:
91,95,53586,2,0,P|122:96|146:128,1,60.5000018463135,2|2,1:2|1:2,0:0:0:0:
162,172,53947,2,0,P|168:208|175:244,1,60.5000018463135,10|2,0:0|0:0,0:0:0:0:
213,276,54308,6,0,P|240:235|318:229,1,121.000003692627,2|2,1:2|1:2,0:0:0:0:
340,275,54851,2,0,P|367:316|445:322,1,121.000003692627,10|2,0:0|1:2,0:0:0:0:
477,284,55393,1,10,0:0:0:0:
422,177,55754,6,0,P|413:141|408:101,1,60.5000018463135,2|0,1:2|1:0,0:0:0:0:
354,91,56116,2,0,P|349:61|341:31,1,60.5000018463135,10|0,0:0|0:0,0:0:0:0:
398,11,56477,2,0,P|476:32|490:127,1,181.500005538941,2|8,1:2|0:3,0:0:0:0:
443,157,57200,6,0,P|391:175|362:241,1,121.000003692627,6|10,0:0|0:0,0:0:0:0:
256,290,57923,2,0,P|252:260|244:230,1,60.5000018463135,2|0,1:2|1:2,0:0:0:0:
220,174,58284,1,10,0:0:0:0:
130,92,58646,2,0,P|89:135|97:196,1,121.000003692627,2|8,1:2|0:0,0:0:0:0:
87,313,59369,6,0,P|116:305|146:301,1,60.5000018463135,2|0,1:2|1:2,0:0:0:0:
196,267,59730,1,10,0:0:0:0:
282,352,60092,2,0,P|323:309|315:248,1,121.000003692627,2|10,1:2|0:0,0:0:0:0:
238,159,60814,6,0,P|234:129|226:99,1,60.5000018463135,2|0,1:2|1:2,0:0:0:0:
278,64,61176,1,10,0:0:0:0:
278,64,61357,1,0,0:0:0:0:
278,64,61537,2,0,B|349:84|306:104|397:126,1,121.000003692627,2|10,1:2|0:0,0:0:0:0:
475,199,62260,6,0,P|445:202|415:210,1,60.5000018463135,2|0,1:2|1:2,0:0:0:0:
363,241,62622,1,10,0:0:0:0:
276,325,62983,2,0,P|244:275|173:279,1,121.000003692627,2|10,1:2|0:0,0:0:0:0:
88,341,63706,2,0,P|29:336|-1:287,2,121.000003692627,2|10|2,1:2|0:0|1:2,0:0:0:0:
89,219,64790,1,10,0:0:0:0:
26,115,65152,6,0,P|55:111|85:103,1,60.5000018463135,2|2,1:2|1:2,0:0:0:0:
135,138,65513,2,0,P|164:130|194:126,1,60.5000018463135,10|2,0:0|0:0,0:0:0:0:
246,94,65875,2,0,P|283:69|282:-1,1,121.000003692627,6|10,1:2|0:0,0:0:0:0:
364,87,66598,6,0,P|393:94|423:98,1,60.5000018463135,2|2,1:2|1:2,0:0:0:0:
466,140,66959,2,0,P|429:165|430:235,1,121.000003692627,10|6,0:0|0:0,0:0:0:0:
336,311,67682,5,0,1:0:0:0:
336,311,67863,1,0,1:0:0:0:
336,311,68043,2,0,P|306:314|276:322,2,60.5000018463135,8|8|10,0:3|0:3|0:0,0:0:0:0:
271,221,68766,6,0,P|196:232|145:245,1,110,6|2,0:0|0:0,0:0:0:0:
149,130,69489,2,0,P|224:119|275:106,1,110,6|4,0:0|0:3,0:0:0:0:
324,24,70212,6,0,P|366:56|370:109,1,110,6|2,1:2|1:2,0:2:0:0:
314,204,70934,1,2,1:2:0:0:
397,276,71296,1,2,1:2:0:0:
305,337,71657,2,0,P|279:327|253:321,1,55,0|2,1:2|0:0,0:0:0:0:
215,279,72019,1,2,1:2:0:0:
128,211,72380,2,0,P|125:158|168:128,1,110,2|10,1:2|0:3,0:0:0:0:
238,42,73103,6,0,B|298:60|265:77|332:95,1,110,2|2,1:2|1:2,0:0:0:0:
432,50,73826,1,2,1:2:0:0:
475,151,74187,1,10,1:2:0:0:
376,199,74549,2,0,P|365:224|358:251,2,55,2|2|10,1:2|0:0|1:2,0:0:0:0:
332,95,75272,1,2,1:2:0:0:
332,95,75452,1,2,0:0:0:0:
332,95,75633,2,0,P|305:99|285:118,1,55,2|0,1:2|1:2,0:0:0:0:
261,141,75995,6,0,P|198:114|185:53,2,131.99999597168,2|2|2,0:0|0:0|0:0,0:0:0:0:
425,348,78887,6,0,P|488:321|501:260,2,131.99999597168,2|2|2,0:0|0:0|0:0,0:0:0:0:
197,214,81778,6,0,B|125:233|162:262|73:283,2,131.99999597168,2|2|2,0:0|0:0|0:0,0:0:0:0:
284,114,83947,1,2,0:0:0:0:
376,207,84670,6,0,P|359:269|348:346,2,131.99999597168,2|2|2,0:0|0:0|0:0,0:0:0:0:
256,192,86296,12,0,89007,0:0:0:0:
