osu file format v14

[General]
AudioFilename: audio.mp3
AudioLeadIn: 0
PreviewTime: 67528
Countdown: 0
SampleSet: Soft
StackLeniency: 0.7
Mode: 0
LetterboxInBreaks: 0
WidescreenStoryboard: 0

[Editor]
DistanceSpacing: 1.4
BeatDivisor: 4
GridSize: 32
TimelineZoom: 1.6

[Metadata]
Title:Shinkaron
TitleUnicode:進化論
Artist:ASCA
ArtistUnicode:ASCA
Creator:Sotarks
Version:Shunao's Hard
Source:ソードアート・オンライン アリシゼーション・ブレイディング
Tags:Sword Art Online SAO Alicization Rising Steel RS First 1st Anniversary video Intro Opening Theme 2 Two Second Japanese Jp J-pop Jpop Pop Anime Game Kirito キリト Kazuto Kirigaya 桐ヶ谷 和人 Tiese Shtolienen ティーゼ・シュトリーネン Ronie Arabel ロニエ・アラベル Nergius ネルギウス Entokia エントキア sytho shunao shogunmoon sanairrt 百希夜行 ヒャッキヤコウ Hyakkiyakou short ver version tv size
BeatmapID:3339370
BeatmapSetID:1636204

[Difficulty]
HPDrainRate:5
CircleSize:3.7
OverallDifficulty:6
ApproachRate:8
SliderMultiplier:1.4
SliderTickRate:1

[Events]
//Background and Video events
0,0,"bg.jpg",0,0
Video,0,"video.mp4"
//Break Periods
2,11841,13310
//Storyboard Layer 0 (Background)
//Storyboard Layer 1 (Fail)
//Storyboard Layer 2 (Pass)
//Storyboard Layer 3 (Foreground)
//Storyboard Layer 4 (Overlay)
//Storyboard Sound Samples

[TimingPoints]
-133,322.58064516129,4,2,22,72,1,0
5028,-100,4,2,22,52,0,0
6318,-100,4,2,22,62,0,0
8899,-100,4,2,22,72,0,0
11802,-100,4,2,22,62,0,0
14060,-100,4,2,22,72,0,0
14383,-100,4,2,22,62,0,0
15996,-100,4,2,22,52,0,0
16641,-100,4,2,22,82,0,0
26963,-125,4,2,22,52,0,0
35996,-125,4,2,22,62,0,0
37286,-111.111111111111,4,2,22,62,0,0
47608,-133.333333333333,4,2,22,52,0,0
56963,-133.333333333333,4,2,22,62,0,0
57931,-111.111111111111,4,2,22,72,0,0
63092,-100,4,2,22,72,0,0
68254,-83.3333333333333,4,2,22,82,0,0
87931,-83.3333333333333,4,2,22,72,0,0
88899,-100,4,2,22,62,0,0
91479,-100,4,2,22,92,0,0
94060,-100,4,2,22,42,0,0

[Colours]
Combo1 : 87,238,182
Combo2 : 217,236,255
Combo3 : 119,255,252
Combo4 : 81,129,255

[HitObjects]
109,306,512,6,0,P|182:292|261:291,1,140
417,317,1157,5,4,1:2:0:0:
417,317,1318,2,0,L|470:312,2,35,8|8|8,0:2|0:2|0:2,0:0:0:0:
363,258,1641,1,8,0:2:0:0:
363,258,1802,2,0,L|310:253,2,35,8|8|8,0:2|0:2|0:2,0:0:0:0:
432,208,2125,1,8,0:2:0:0:
432,208,2286,6,0,L|485:203,2,35,8|8|10,0:2|0:2|0:2,0:0:0:0:
363,159,2608,2,0,P|353:121|346:65,1,70,10|8,0:2|0:2,0:0:0:0:
270,57,2931,2,0,P|277:36|281:17,2,35,8|8|8,0:2|0:2|0:2,0:0:0:0:
198,101,3254,1,8,0:2:0:0:
118,74,3415,1,8,0:2:0:0:
14,205,3737,5,0,3:2:0:0:
14,205,5028,6,0,L|56:200,3,35,8|8|8|8,0:3|0:3|0:3|0:3,0:0:0:0:
84,178,5350,2,0,L|123:183,3,35,4|4|4|4,0:3|0:3|0:3|0:3,0:0:0:0:
159,196,5673,1,2,0:2:0:0:
451,361,6318,6,0,P|443:326|434:293,1,70,0|0,1:2|0:2,0:0:0:0:
478,221,6641,2,0,P|487:187|494:153,1,70,0|0,1:2|0:2,0:0:0:0:
505,69,6963,2,0,P|448:28|366:47,1,140,0|0,1:2|0:0,0:0:0:0:
306,73,7447,6,0,P|238:91|165:44,1,140,0|0,0:2|0:2,0:0:0:0:
105,32,7931,1,0,1:2:0:0:
105,32,8092,2,0,P|51:34|23:46,1,70,0|0,0:2|1:2,0:0:0:0:
1,119,8415,1,0,1:2:0:0:
1,119,8496,1,0,1:2:0:0:
1,119,8576,2,0,P|8:157|22:192,1,70,8|0,0:2|0:2,0:0:0:0:
68,254,8899,6,0,L|115:248,3,35,8|0|0|0,0:2|0:0|1:2|1:2,0:0:0:0:
138,227,9221,2,0,L|172:231,3,35,8|0|0|0,0:2|1:2|1:2|1:2,0:0:0:0:
209,252,9544,2,0,L|256:246,3,35,4|4|4|4,0:3|0:3|0:3|0:3,0:0:0:0:
284,256,9866,2,0,P|295:291|305:336,1,70,8|6,0:2|1:2,0:0:0:0:
302,323,11479,5,8,0:2:0:0:
302,323,11641,1,8,0:2:0:0:
78,56,14060,5,8,0:2:0:0:
78,56,14221,1,8,0:2:0:0:
78,56,15512,6,0,L|41:52,2,35,8|8|8,0:2|0:2|0:2,0:0:0:0:
78,56,16641,6,0,P|101:105|112:147,1,70,2|0,1:2|0:2,0:0:0:0:
184,149,16963,2,0,P|200:97|226:58,1,70,8|0,0:2|0:2,0:0:0:0:
286,54,17286,2,0,P|309:103|320:145,1,70,0|0,1:2|0:2,0:0:0:0:
393,144,17608,1,8,0:2:0:0:
393,144,17770,6,0,P|333:149|282:212,1,140,0|0,0:2|0:2,0:0:0:0:
220,263,18254,2,0,L|141:254,1,70,8|0,0:2|0:0,0:0:0:0:
71,227,18576,1,0,1:2:0:0:
29,299,18737,1,0,0:2:0:0:
89,358,18899,2,0,L|241:347,1,140,8|2,0:2|1:2,0:0:0:0:
308,320,19383,1,0,0:2:0:0:
383,356,19544,6,0,P|391:314|381:269,1,70,8|0,0:2|0:2,0:0:0:0:
325,230,19866,2,0,P|317:196|320:161,1,70,0|0,1:2|0:2,0:0:0:0:
387,109,20189,1,8,0:2:0:0:
387,109,20350,6,0,P|394:75|391:40,1,70,0|0,0:2|1:2,0:0:0:0:
317,27,20673,1,0,1:2:0:0:
317,27,20754,1,0,1:2:0:0:
317,27,20834,2,0,P|262:18|226:15,1,70,12|0,0:2|0:2,0:0:0:0:
175,60,21157,2,0,L|129:53,3,35,8|0|0|0,0:2|1:2|1:2|1:2,0:0:0:0:
108,27,21479,2,0,L|66:32,3,35,8|8|8|8,0:2|0:2|0:2|0:2,0:0:0:0:
36,52,21802,6,0,P|31:89|41:130,1,70,6|0,1:2|0:2,0:0:0:0:
103,173,22125,2,0,P|108:207|101:241,1,70,10|0,0:2|0:2,0:0:0:0:
34,292,22447,2,0,P|29:329|39:370,1,70,2|0,1:2|1:0,0:0:0:0:
123,370,22770,1,10,0:2:0:0:
123,370,22931,6,0,P|160:365|213:368,2,70,2|0|2,0:2|1:2|1:2,0:0:0:0:
123,285,23415,2,0,P|167:276|217:250,1,70,10|0,0:2|0:2,0:0:0:0:
255,212,23737,1,2,1:2:0:0:
255,212,23899,2,0,L|248:172,2,35,8|8|8,0:2|0:2|0:2,0:0:0:0:
386,316,24383,6,0,P|395:276|411:237,1,70,14|0,0:2|1:2,0:0:0:0:
480,208,24705,1,0,1:0:0:0:
480,208,24866,2,0,P|472:164|456:128,1,70,14|0,0:0|1:0,0:0:0:0:
443,63,25189,1,0,1:0:0:0:
443,63,25350,2,0,L|348:55,1,70,14|0,0:0|1:0,0:0:0:0:
290,74,25673,6,0,P|244:80|191:180,1,140,14|8,0:0|0:0,0:0:0:0:
176,233,26157,1,0,0:0:0:0:
169,319,26318,1,8,0:3:0:0:
169,319,26479,2,0,L|174:368,2,35,8|8|8,0:2|0:2|0:2,0:0:0:0:
31,245,26963,6,0,P|21:205|19:174,1,56,6|0,1:2|0:0,0:0:0:0:
89,143,27286,2,0,P|99:103|101:72,1,56,0|0,1:2|0:2,0:0:0:0:
41,28,27608,2,0,P|94:5|165:35,1,112,0|0,1:2|1:2,0:0:0:0:
224,57,28092,1,0,0:2:0:0:
224,57,28254,6,0,P|229:99|239:133,1,56,2|0,1:2|0:2,0:0:0:0:
281,180,28576,2,0,P|278:207|272:235,1,56,0|0,1:2|0:2,0:0:0:0:
200,277,28899,2,0,P|255:281|293:328,1,112,0|0,1:2|1:2,0:0:0:0:
369,363,29383,1,0,0:2:0:0:
369,363,29544,6,0,L|446:356,1,56,2|0,1:2|0:2,0:0:0:0:
439,274,29866,2,0,L|383:268,1,56,0|0,1:2|0:2,0:0:0:0:
373,185,30189,2,0,L|450:178,1,56,0|0,1:2|0:2,0:0:0:0:
456,100,30512,2,0,L|400:94,1,56,0|0,1:2|0:0,0:0:0:0:
356,23,30834,6,0,P|325:61|327:132,1,112,2|0,1:2|1:2,0:0:0:0:
271,188,31318,1,0,0:2:0:0:
271,188,31479,2,0,P|216:196|158:168,1,112,0|0,1:2|1:2,0:0:0:0:
102,118,31963,1,0,0:2:0:0:
25,153,32125,6,0,L|31:221,1,56,6|0,1:2|0:2,0:0:0:0:
92,264,32447,2,0,L|87:319,1,56,0|0,1:2|0:2,0:0:0:0:
159,363,32770,2,0,P|212:340|272:349,1,112,0|0,1:2|1:2,0:0:0:0:
346,367,33254,1,0,0:2:0:0:
346,367,33416,6,0,L|417:361,1,56,2|0,1:2|0:2,0:0:0:0:
477,325,33738,2,0,P|482:297|486:269,1,56,0|0,1:2|0:2,0:0:0:0:
501,186,34061,2,0,P|446:194|408:237,1,112,0|0,1:2|1:2,0:0:0:0:
343,287,34545,1,0,3:2:0:0:
343,287,34705,6,0,L|282:278,1,56,2|0,1:2|0:2,0:0:0:0:
230,216,35028,2,0,L|174:224,1,56,0|0,1:2|0:2,0:0:0:0:
102,266,35350,2,0,L|41:257,1,56,0|0,1:2|0:2,0:0:0:0:
21,182,35673,1,0,1:2:0:0:
21,182,35834,2,0,L|64:178,1,28,0|0,0:2|0:0,0:0:0:0:
91,175,35996,5,10,0:2:0:0:
307,46,36479,1,0,1:2:0:0:
307,46,36560,1,0,1:2:0:0:
307,46,36641,2,0,P|346:33|406:50,2,84,12|8|8,0:2|0:2|0:2,0:0:0:0:
244,118,37286,6,0,L|250:190,1,62.9999980773926,2|0,1:2|1:2,0:0:0:0:
301,251,37608,2,0,L|295:323,1,62.9999980773926,8|0,0:2|0:2,0:0:0:0:
381,337,37931,2,0,P|419:339|460:317,1,62.9999980773926,0|0,1:2|1:0,0:0:0:0:
509,272,38254,1,8,0:0:0:0:
480,188,38415,1,0,0:0:0:0:
390,186,38576,6,0,P|380:153|374:108,1,62.9999980773926,2|0,1:2|1:2,0:0:0:0:
303,72,38899,2,0,P|297:103|288:133,1,62.9999980773926,8|0,0:2|0:2,0:0:0:0:
216,183,39221,2,0,P|179:173|135:168,2,62.9999980773926,0|0|8,1:2|1:0|0:2,0:0:0:0:
272,257,39705,1,0,1:2:0:0:
272,257,39866,6,0,L|277:339,2,62.9999980773926,2|0|8,1:2|1:2|0:2,0:0:0:0:
184,268,40350,1,0,0:2:0:0:
184,268,40512,2,0,L|188:345,1,62.9999980773926,0|0,1:2|1:0,0:0:0:0:
101,350,40834,2,0,L|96:276,1,62.9999980773926,8|0,0:2|0:2,0:0:0:0:
64,204,41157,6,0,P|28:196|-14:195,2,62.9999980773926,2|0|8,1:2|0:0|0:2,0:0:0:0:
140,159,41641,1,0,1:2:0:0:
140,159,41802,2,0,P|171:156|202:149,1,62.9999980773926,0|0,1:2|1:2,0:0:0:0:
285,118,42125,1,8,0:2:0:0:
263,32,42286,1,0,0:2:0:0:
175,31,42447,6,0,P|143:28|112:21,1,62.9999980773926,2|0,1:2|1:2,0:0:0:0:
25,31,42769,2,0,L|30:99,1,62.9999980773926,8|0,0:2|0:2,0:0:0:0:
88,160,43092,2,0,L|83:222,1,62.9999980773926,0|0,1:2|1:0,0:0:0:0:
26,290,43415,2,0,L|31:358,1,62.9999980773926,8|0,0:2|0:0,0:0:0:0:
117,368,43737,6,0,P|156:359|205:354,1,62.9999980773926,2|0,1:2|1:2,0:0:0:0:
267,357,44060,2,0,P|306:366|355:371,1,62.9999980773926,8|0,0:2|0:2,0:0:0:0:
417,369,44383,2,0,P|456:360|505:355,2,62.9999980773926,0|0|8,1:2|1:0|0:2,0:0:0:0:
369,301,44866,1,0,0:0:0:0:
369,301,45027,6,0,P|361:268|356:233,1,62.9999980773926,2|0,1:2|1:2,0:0:0:0:
434,197,45350,2,0,P|469:200|508:194,1,62.9999980773926,8|0,0:2|0:2,0:0:0:0:
507,108,45673,2,0,P|499:75|494:40,1,62.9999980773926,0|0,1:2|1:0,0:0:0:0:
408,26,45996,2,0,P|369:41|341:45,1,62.9999980773926,8|0,0:0|0:0,0:0:0:0:
248,52,46318,6,0,P|214:42|169:38,2,62.9999980773926,2|0|8,1:2|1:2|0:2,0:0:0:0:
305,132,46802,1,8,0:2:0:0:
305,132,46883,1,8,0:2:0:0:
305,132,46963,2,0,L|296:208,1,62.9999980773926,8|8,0:2|0:3,0:0:0:0:
339,272,47286,1,4,0:3:0:0:
303,353,47447,1,4,0:3:0:0:
204,353,47608,6,0,B|120:327|134:386|48:362,2,157.500006008148,2|0|0,1:2|1:2|0:2,0:0:0:0:
312,223,48899,2,0,P|391:220|449:280,2,157.500006008148,0|0|8,1:2|1:2|0:1,0:0:0:0:
143,231,50189,6,0,L|126:71,1,157.500006008148,2|0,1:2|1:2,0:0:0:0:
196,26,50834,2,0,P|229:21|265:23,2,52.5000020027161,0|0|8,0:2|0:2|0:1,0:0:0:0:
126,74,51318,1,0,0:2:0:0:
126,74,51479,6,0,P|88:68|57:66,1,52.5000020027161,0|0,1:2|0:0,0:0:0:0:
11,123,51802,2,0,L|15:183,1,52.5000020027161,0|0,0:2|1:2,0:0:0:0:
66,241,52125,2,0,L|62:293,1,52.5000020027161,0|0,0:2|1:2,0:0:0:0:
106,364,52447,2,0,L|163:357,1,52.5000020027161,8|0,0:1|3:2,0:0:0:0:
233,319,52770,6,0,L|407:335,2,157.500006008148,2|0|8,1:2|1:2|0:1,0:0:0:0:
213,151,54061,2,0,P|255:89|350:67,2,157.500006008148,0|0|8,1:2|1:2|0:1,0:0:0:0:
233,319,55350,6,0,L|226:383,2,52.5000020027161,2|0|0,1:2|0:2|0:2,0:0:0:0:
308,278,55834,1,0,1:2:0:0:
308,278,55995,2,0,L|300:212,2,52.5000020027161,0|0|8,0:2|3:2|0:1,0:0:0:0:
374,329,56479,1,0,0:2:0:0:
374,329,56641,6,0,L|451:323,1,52.5000020027161,2|0,1:2|1:2,0:0:0:0:
464,250,56963,2,0,P|467:220|477:183,1,52.5000020027161,12|0,0:2|0:2,0:0:0:0:
504,120,57286,2,0,P|499:100|493:84,3,26.2500010013581,8|8|8|8,0:2|0:2|0:2|0:2,0:0:0:0:
483,54,57608,1,0,1:2:0:0:
283,22,57931,6,0,P|221:21|163:60,1,125.999996154785,6|0,1:2|1:2,0:0:0:0:
112,123,58415,1,0,1:2:0:0:
112,123,58576,2,0,L|124:253,1,125.999996154785,8|0,0:2|0:2,0:0:0:0:
76,324,59060,1,0,1:2:0:0:
76,324,59221,6,0,P|41:316|1:314,2,62.9999980773926,0|0|0,0:2|1:2|0:2,0:0:0:0:
152,368,59705,2,0,L|230:362,1,62.9999980773926,0|8,0:2|0:2,0:0:0:0:
290,317,60028,2,0,P|282:286|276:246,1,62.9999980773926,0|0,0:2|0:2,0:0:0:0:
354,211,60350,1,0,1:2:0:0:
354,211,60512,6,0,P|401:249|480:235,1,125.999996154785,6|0,1:2|0:2,0:0:0:0:
498,165,60996,1,0,1:2:0:0:
498,165,61157,2,0,L|508:34,1,125.999996154785,8|0,0:2|0:2,0:0:0:0:
424,7,61641,1,0,1:2:0:0:
343,41,61802,5,0,0:2:0:0:
265,24,61963,1,0,1:2:0:0:
265,24,62044,1,0,1:2:0:0:
265,24,62125,2,0,L|186:18,1,62.9999980773926,12|0,0:2|1:2,0:0:0:0:
120,51,62447,2,0,L|125:84,3,31.4999990386963,8|8|8|8,0:2|0:2|0:2|0:2,0:0:0:0:
158,112,62770,2,0,L|152:155,3,31.4999990386963,8|8|8|8,0:2|0:2|0:2|0:2,0:0:0:0:
145,191,63092,6,0,P|107:184|60:185,1,70,2|0,1:2|3:2,0:0:0:0:
9,246,63415,1,8,0:2:0:0:
33,333,63576,1,0,3:2:0:0:
33,333,63737,2,0,P|102:352|170:319,1,140,0|8,1:2|0:2,0:0:0:0:
242,281,64221,6,0,L|234:198,1,70,0|0,3:2|1:2,0:0:0:0:
171,146,64544,1,0,3:2:0:0:
171,146,64705,2,0,P|240:123|302:150,1,140,8|4,0:2|1:2,0:0:0:0:
360,215,65189,1,8,0:2:0:0:
424,278,65350,2,0,L|416:322,3,35,8|4|8|8,0:3|0:3|0:2|0:2,0:0:0:0:
397,354,65673,6,0,L|348:349,3,35,12|8|8|8,0:2|0:2|0:2|0:2,0:0:0:0:
321,328,65996,2,0,L|277:333,3,35,8|8|8|8,0:2|0:2|0:2|0:2,0:0:0:0:
256,366,66318,2,0,L|210:360,3,35,8|4|8|8,0:3|0:3|0:2|0:2,0:0:0:0:
175,356,66641,2,0,P|166:324|161:274,1,70,8|4,0:2|1:2,0:0:0:0:
54,139,67125,5,8,0:2:0:0:
75,50,67286,1,8,0:2:0:0:
163,27,67447,1,8,0:2:0:0:
344,43,67770,2,0,L|395:36,2,35,0|0|14,1:2|1:2|0:2,0:0:0:0:
445,236,68254,6,0,L|351:228,1,83.9999974365235,6|0,1:2|0:2,0:0:0:0:
265,197,68576,2,0,P|258:160|251:103,1,83.9999974365235,8|0,0:2|0:2,0:0:0:0:
163,64,68899,2,0,P|155:105|150:146,1,83.9999974365235,0|0,1:2|1:2,0:0:0:0:
50,133,69221,2,0,P|57:174|62:215,1,83.9999974365235,8|0,0:2|0:2,0:0:0:0:
150,267,69544,6,0,P|142:308|137:349,2,83.9999974365235,2|0|8,1:2|0:2|0:2,0:0:0:0:
242,226,70028,1,0,1:2:0:0:
325,169,70189,2,0,P|311:125|322:82,1,83.9999974365235,0|0,1:2|1:2,0:0:0:0:
411,42,70512,2,0,P|423:80|414:129,1,83.9999974365235,8|0,0:2|0:2,0:0:0:0:
474,205,70834,5,6,1:2:0:0:
474,205,70996,2,0,P|466:245|480:285,1,83.9999974365235,2|8,1:2|0:2,0:0:0:0:
411,358,71318,1,2,1:2:0:0:
411,358,71479,2,0,P|367:350|321:358,1,83.9999974365235,2|0,1:2|1:2,0:0:0:0:
233,339,71802,1,10,0:2:0:0:
233,339,71963,6,0,P|190:347|146:337,1,83.9999974365235,2|0,0:2|1:2,0:0:0:0:
57,301,72286,1,2,1:2:0:0:
57,301,72447,2,0,L|50:202,1,83.9999974365235,10|0,0:2|0:2,0:0:0:0:
83,121,72770,2,0,P|111:115|138:114,3,41.9999987182618,8|8|4|4,0:3|0:2|0:3|0:3,0:0:0:0:
173,124,73092,2,0,P|198:128|228:129,3,41.9999987182618,8|0|8|8,0:2|0:0|0:2|0:2,0:0:0:0:
264,118,73415,6,0,P|255:75|253:17,1,83.9999974365235,6|0,1:2|3:0,0:0:0:0:
352,21,73737,2,0,P|361:64|363:122,1,83.9999974365235,8|0,0:2|3:2,0:0:0:0:
445,162,74060,2,0,P|373:146|316:217,1,167.999994873047,0|8,1:2|0:2,0:0:0:0:
317,312,74544,2,0,P|359:305|422:304,2,83.9999974365235,0|0|0,3:2|1:0|3:2,0:0:0:0:
227,358,75028,2,0,L|123:348,1,83.9999974365235,8|0,0:2|3:2,0:0:0:0:
42,350,75350,2,0,P|23:314|19:253,1,83.9999974365235,0|0,1:2|3:2,0:0:0:0:
7,170,75673,1,8,0:2:0:0:
64,87,75834,1,0,3:2:0:0:
162,64,75996,6,0,P|213:58|268:40,1,83.9999974365235,2|0,1:2|3:2,0:0:0:0:
341,21,76318,1,8,0:2:0:0:
341,21,76479,2,0,P|381:31|423:35,1,83.9999974365235,0|0,3:2|1:2,0:0:0:0:
501,99,76802,2,0,L|495:195,1,83.9999974365235,0|8,3:2|0:2,0:0:0:0:
401,219,77125,6,0,L|394:124,1,83.9999974365235,4|0,1:2|0:0,0:0:0:0:
303,121,77447,1,0,1:2:0:0:
303,121,77528,1,0,0:0:0:0:
303,121,77608,2,0,L|297:205,1,83.9999974365235,8|8,0:2|0:3,0:0:0:0:
237,286,77931,2,0,L|175:278,3,41.9999987182618,4|0|8|8,0:3|0:0|2:2|2:2,0:0:0:0:
148,301,78254,2,0,L|100:295,3,41.9999987182618,8|8|8|8,2:2|2:2|2:2|2:2,0:0:0:0:
55,298,78576,6,0,P|44:257|38:204,1,83.9999974365235,6|0,1:2|0:2,0:0:0:0:
6,119,78899,2,0,P|17:78|23:25,1,83.9999974365235,8|0,0:2|0:2,0:0:0:0:
118,65,79221,2,0,P|156:45|209:45,1,83.9999974365235,0|0,1:2|1:2,0:0:0:0:
295,22,79544,2,0,P|333:42|386:42,1,83.9999974365235,8|0,0:2|0:2,0:0:0:0:
471,20,79866,6,0,P|463:61|458:102,2,83.9999974365235,2|0|8,1:2|0:2|0:2,0:0:0:0:
373,44,80350,1,0,0:2:0:0:
373,44,80512,2,0,P|381:85|386:126,1,83.9999974365235,0|0,1:2|1:2,0:0:0:0:
461,193,80834,2,0,P|453:234|448:275,1,83.9999974365235,8|0,0:2|0:0,0:0:0:0:
350,300,81156,5,6,1:2:0:0:
350,300,81318,2,0,P|344:258|336:217,1,83.9999974365235,2|8,1:2|0:2,0:0:0:0:
263,156,81640,1,2,1:2:0:0:
263,156,81801,2,0,P|216:151|176:137,1,83.9999974365235,2|0,1:2|1:2,0:0:0:0:
96,84,82124,1,10,0:2:0:0:
96,84,82286,6,0,P|49:89|9:103,1,83.9999974365235,2|0,1:2|1:2,0:0:0:0:
2,200,82608,1,2,1:2:0:0:
2,200,82769,2,0,L|11:295,1,83.9999974365235,14|0,0:2|0:0,0:0:0:0:
69,365,83092,2,0,L|123:360,3,41.9999987182618,8|0|8|8,0:3|0:0|0:2|0:2,0:0:0:0:
148,325,83415,2,0,L|203:330,3,41.9999987182618,8|8|8|8,0:2|0:2|0:2|0:2,0:0:0:0:
239,338,83737,5,10,0:0:0:0:
239,338,83899,1,8,0:0:0:0:
438,366,84221,1,8,0:0:0:0:
438,366,84383,1,8,0:0:0:0:
509,177,84705,1,8,0:0:0:0:
509,177,84866,1,8,0:0:0:0:
373,27,85189,5,8,0:0:0:0:
373,27,85350,1,8,0:0:0:0:
279,205,85673,2,0,P|224:198|186:172,1,83.9999974365235,8|0,0:0|1:0,0:0:0:0:
150,95,85996,2,0,P|95:74|58:79,1,83.9999974365235,8|0,0:0|1:0,0:0:0:0:
6,152,86318,6,0,L|12:201,3,41.9999987182618,10|8|0|0,0:2|0:2|1:2|1:2,0:0:0:0:
57,214,86641,2,0,L|53:263,3,41.9999987182618,4|4|0|0,0:3|0:3|1:2|1:2,0:0:0:0:
18,292,86963,2,0,L|22:334,3,41.9999987182618,8|8|4|4,0:3|0:3|0:3|0:3,0:0:0:0:
60,367,87286,1,8,0:2:0:0:
160,376,87447,1,4,1:2:0:0:
402,195,87931,1,6,1:2:0:0:
402,195,88899,5,0,1:2:0:0:
402,195,89060,2,0,L|318:183,1,70,0|0,3:2|1:2,0:0:0:0:
249,143,89383,1,0,3:2:0:0:
249,143,89544,2,0,P|242:214|285:263,1,140,0|0,1:2|1:2,0:0:0:0:
251,355,90028,6,0,L|175:353,1,70,0|0,3:2|1:2,0:0:0:0:
89,349,90350,1,0,3:2:0:0:
89,349,90512,2,0,P|66:278|57:195,1,140,0|0,1:2|1:2,0:0:0:0:
5,135,90996,1,0,3:2:0:0:
5,135,91157,2,0,P|13:97|16:63,1,70,8|0,0:2|0:0,0:0:0:0:
92,5,91479,5,14,0:2:0:0:
181,57,91641,1,8,0:3:0:0:
181,57,91721,1,8,0:3:0:0:
181,57,91802,2,0,L|231:42,2,35,4|4|12,0:3|0:3|0:2,0:0:0:0:
163,146,92125,2,0,L|169:195,3,35,8|8|4|4,0:3|0:3|0:3|0:3,0:0:0:0:
171,226,92447,1,12,0:2:0:0:
187,315,92608,6,0,L|235:308,3,35,8|8|4|4,0:3|0:3|0:3|0:3,0:0:0:0:
267,307,92931,1,12,0:2:0:0:
340,253,93092,2,0,L|390:260,3,35,8|8|4|4,0:3|0:3|0:3|0:3,0:0:0:0:
420,266,93415,1,10,0:2:0:0:
490,208,93576,1,10,0:2:0:0:
440,131,93737,1,14,0:2:0:0:
