osu file format v14

[General]
AudioFilename: audio.mp3
AudioLeadIn: 0
PreviewTime: 67721
Countdown: 0
SampleSet: Soft
StackLeniency: 0.7
Mode: 0
LetterboxInBreaks: 0
WidescreenStoryboard: 1

[Editor]
Bookmarks: 10149,23670,37191,50713,57473,66558,67720,69304
DistanceSpacing: 1.1
BeatDivisor: 4
GridSize: 32
TimelineZoom: 2.9

[Metadata]
Title:Selfrontier
TitleUnicode:Selfrontier
Artist:ASCA
ArtistUnicode:ASCA
Creator:Sotarks
Version:Milan-'s Expert
Source:ソードアート・オンライン アリシゼーション・ブレイディング
Tags:sword art online sao alicization rising steel kirito asuna eugeo alice opening op jrock j-rock rock japanese female vocals vocal vocalist オープニングアニメーション ren derandom otaku kowari toybot kibbleru milan-
BeatmapID:2177531
BeatmapSetID:1037306

[Difficulty]
HPDrainRate:7
CircleSize:4.5
OverallDifficulty:8.5
ApproachRate:9.4
SliderMultiplier:3
SliderTickRate:1

[Events]
//Background and Video events
0,0,"bg.jpg",0,0
Video,0,"video.mp4"
//Break Periods
//Storyboard Layer 0 (Background)
//Storyboard Layer 1 (Fail)
//Storyboard Layer 2 (Pass)
//Storyboard Layer 3 (Foreground)
//Storyboard Layer 4 (Overlay)
//Storyboard Sound Samples

[TimingPoints]
1699,422.535211267606,4,2,0,55,1,0
9304,-166.666666666667,4,2,0,30,0,0
9727,-111.111111111111,4,2,0,45,0,0
10149,-83.3333333333333,4,2,0,55,0,0
10572,-90.9090909090909,4,2,0,55,0,0
10889,-111.111111111111,4,2,0,55,0,0
13107,-90.9090909090909,4,2,0,55,0,0
13529,-111.111111111111,4,2,0,55,0,0
14797,-90.9090909090908,4,2,0,55,0,0
15220,-111.111111111111,4,2,0,55,0,0
16487,-83.3333333333333,4,2,0,55,0,0
17332,-90.9090909090909,4,2,0,55,0,0
17649,-111.111111111111,4,2,0,55,0,0
19868,-90.9090909090908,4,2,0,55,0,0
20290,-111.111111111111,4,2,0,55,0,0
21558,-90.9090909090908,4,2,0,55,0,0
21980,-111.111111111111,4,2,0,55,0,0
23670,-166.666666666667,4,2,0,40,0,0
36558,-333.333333333334,4,2,0,20,0,0
37191,-83.3333333333334,4,2,0,50,0,0
37614,-111.111111111111,4,2,0,50,0,0
40149,-99.9999999999999,4,2,0,50,0,0
40572,-83.3333333333333,4,2,0,50,0,0
40672,-111.111111111111,4,2,0,50,0,0
49234,-83.3333333333333,4,2,0,50,0,0
50713,-166.666666666667,4,2,0,40,0,0
57051,-100,4,2,0,50,0,0
57473,-111.111111111111,4,2,0,50,0,0
57896,-166.666666666667,4,2,0,50,0,0
59163,-111.111111111111,4,2,0,50,0,0
60008,-100,4,2,0,50,0,0
61065,-71.4285714285714,4,2,0,55,0,0
62332,-90.9090909090909,4,2,0,55,0,0
62755,-71.4285714285714,4,2,0,55,0,0
66558,-90.9090909090909,4,2,0,55,0,0
67191,-71.4285714285714,4,2,0,55,0,0
69304,-83.3333333333333,4,1,0,60,0,1
81135,-83.3333333333333,4,1,0,60,0,0
81980,-66.6666666666667,4,1,0,60,0,0
82825,-83.3333333333333,4,1,0,60,0,1
95501,-66.6666666666667,4,1,0,60,0,1
96346,-83.3333333333333,4,1,0,60,0,0
97614,-83.3333333333333,4,1,0,60,0,1
97931,-83.3333333333333,4,1,0,60,0,0

[Colours]
Combo1 : 133,232,115
Combo2 : 95,154,220
Combo3 : 243,210,112
Combo4 : 255,139,53

[HitObjects]
258,203,9304,5,0,0:0:0:0:
260,190,9410,1,0,0:0:0:0:
268,182,9515,1,0,0:0:0:0:
274,181,9621,1,0,0:0:0:0:
279,183,9727,6,2,B|260:194|260:194|208:186,1,67.4999979400635
232,266,9938,2,2,B|213:270|213:270|141:235,1,67.4999979400635
0,104,10149,6,0,P|56:16|159:54,1,179.999994506836,4|0,0:0|0:0,0:0:0:0:
181,70,10466,1,0,0:0:0:0:
61,157,10572,2,0,P|50:73|130:28,1,165.000005035401,8|0,1:2|0:0,0:0:0:0:
327,20,10889,2,0,B|456:45|336:121|488:159,1,202.499993820191,2|0,0:0|0:0,0:0:0:0:
460,226,11311,1,0,0:0:0:0:
444,230,11417,2,0,B|354:250|418:291|333:315,1,134.999995880127,8|0,1:2|0:0,0:0:0:0:
258,282,11734,1,0,0:0:0:0:
306,208,11839,6,0,P|349:295|296:303,1,134.999995880127,0|0,1:0|0:0,0:0:0:0:
346,296,12262,2,0,P|399:215|433:257,1,134.999995880127,8|0,1:2|0:0,0:0:0:0:
512,197,12579,5,2,0:0:0:0:
495,207,12684,1,2,1:2:0:0:
494,121,12790,2,0,P|412:66|453:32,1,134.999995880127,2|0,1:2|0:0,0:0:0:0:
316,94,13107,2,0,L|342:-16,1,82.5000025177003,2|0,1:2|0:0,0:0:0:0:
224,81,13318,2,0,L|250:192,1,82.5000025177003,2|0,1:2|0:0,0:0:0:0:
122,133,13529,6,0,B|163:54|105:83|148:-22,1,134.999995880127,2|0,1:2|0:0,0:0:0:0:
75,199,13846,1,0,0:0:0:0:
79,218,13952,2,0,B|45:137|103:166|62:87,1,134.999995880127,2|0,1:2|0:0,0:0:0:0:
0,245,14269,2,0,B|144:231|50:316|207:325,1,202.499993820191,2|0,0:0|0:0,0:0:0:0:
347,340,14691,1,0,0:0:0:0:
267,337,14797,2,0,P|234:337|165:331,1,82.5000025177003,2|0,1:2|0:0,0:0:0:0:
384,210,15008,2,0,P|356:229|268:270,1,82.5000025177003,2|0,1:2|0:0,0:0:0:0:
217,67,15220,6,0,P|397:84|385:170,1,269.999991760254,4|0,0:0|1:0,0:0:0:0:
328,151,15748,1,0,0:0:0:0:
316,166,15853,2,0,P|304:103|289:45,1,67.4999979400635,0|2,0:0|0:0,0:0:0:0:
326,323,16065,1,2,1:2:0:0:
242,326,16170,2,0,P|201:344|97:319,1,134.999995880127,0|0,1:0|0:0,0:0:0:0:
0,178,16487,6,0,P|22:215|60:237,1,89.9999972534181,4|0,1:2|0:0,0:0:0:0:
225,203,16699,1,4,1:2:0:0:
145,236,16804,1,0,1:0:0:0:
62,237,16910,6,0,P|6:165|42:92,1,179.999994506836,4|0,1:2|0:0,0:0:0:0:
136,124,17227,1,0,0:0:0:0:
149,219,17332,2,0,P|69:227|20:164,1,165.000005035401,8|0,1:2|0:0,0:0:0:0:
165,25,17649,2,0,B|273:-48|242:90|377:9,1,202.499993820191,2|0,0:0|0:0,0:0:0:0:
414,69,18071,1,0,0:0:0:0:
405,83,18177,2,0,B|355:160|429:144|386:221,1,134.999995880127,8|0,1:2|0:0,0:0:0:0:
301,213,18494,1,0,0:0:0:0:
372,225,18599,6,0,P|387:164|331:136,1,134.999995880127,0|0,1:0|0:0,0:0:0:0:
450,347,18917,1,0,0:0:0:0:
433,352,19022,2,0,P|486:271|520:313,1,134.999995880127,8|0,1:2|0:0,0:0:0:0:
334,300,19339,5,2,0:0:0:0:
317,310,19444,1,2,1:2:0:0:
355,383,19550,2,0,P|312:356|200:347,1,134.999995880127,2|0,1:2|0:0,0:0:0:0:
85,343,19868,6,0,P|123:329|154:302,1,82.5000025177003,2|0,1:2|0:0,0:0:0:0:
194,145,20079,2,0,P|217:111|227:71,1,82.5000025177003,2|0,1:2|0:0,0:0:0:0:
47,194,20290,2,0,B|168:149|98:264|269:214,1,202.499993820191,2|0,1:2|0:2,0:2:0:0:
417,118,20712,2,0,B|335:151|397:171|312:198,1,134.999995880127,2|0,1:2|0:0,0:0:0:0:
428,289,21029,2,0,B|347:255|376:313|297:272,1,134.999995880127,2|0,0:2|0:0,0:0:0:0:
174,126,21346,1,0,0:0:0:0:
194,145,21452,1,0,0:0:0:0:
238,81,21558,6,0,P|239:46|215:-28,1,82.5000025177003,2|0,1:2|0:0,0:0:0:0:
88,17,21769,2,0,P|87:52|111:126,1,82.5000025177003,2|0,1:2|0:0,0:0:0:0:
318,36,21980,5,4,1:2:0:0:
436,150,22191,2,0,P|469:157|516:173,1,67.4999979400635,8|0,0:3|0:0,0:0:0:0:
369,105,22403,5,4,1:3:0:0:
444,69,22508,1,8,1:3:0:0:
361,277,22720,5,4,1:2:0:0:
432,226,22825,1,0,1:0:0:0:
352,261,22931,1,8,1:3:0:0:
428,245,23037,1,4,1:3:0:0:
288,383,23248,5,4,1:2:0:0:
114,281,23459,1,4,1:2:0:0:
180,227,23565,1,0,1:0:0:0:
102,297,23670,6,0,L|81:172,1,89.9999972534181,4|0,1:2|0:0,0:0:0:0:
192,28,24093,1,4,0:2:0:0:
189,63,24199,1,0,0:0:0:0:
186,103,24304,1,0,0:0:0:0:
286,91,24515,1,0,0:0:0:0:
330,182,24727,1,0,0:0:0:0:
257,252,24938,1,4,0:0:0:0:
434,197,25149,1,2,0:0:0:0:
507,174,25255,1,2,0:0:0:0:
434,197,25360,1,4,0:0:0:0:
409,341,25572,5,0,0:0:0:0:
409,341,25677,1,0,0:0:0:0:
409,341,25783,1,0,0:0:0:0:
315,309,25994,1,0,0:0:0:0:
229,359,26206,1,0,0:0:0:0:
135,327,26417,1,0,0:0:0:0:
41,359,26628,1,4,0:0:0:0:
131,227,26839,1,2,0:0:0:0:
107,155,26945,1,2,0:0:0:0:
131,227,27051,5,4,0:0:0:0:
229,68,27262,1,0,0:0:0:0:
302,75,27473,2,0,L|378:81,2,44.999998626709
450,135,27896,1,0,0:0:0:0:
426,230,28107,1,0,0:0:0:0:
450,135,28318,1,4,0:0:0:0:
426,230,28529,1,0,0:0:0:0:
285,180,28741,5,4,0:0:0:0:
355,168,28846,1,0,0:0:0:0:
285,180,28952,2,0,L|266:259,2,44.999998626709
184,55,29375,1,0,0:0:0:0:
65,153,29586,1,2,0:0:0:0:
132,174,29691,1,2,0:0:0:0:
168,231,29797,1,4,0:0:0:0:
322,38,30008,1,2,0:0:0:0:
376,96,30114,1,2,0:0:0:0:
358,174,30220,1,4,0:0:0:0:
500,341,30431,6,0,P|484:337|382:323,1,89.9999972534181,4|0,0:0|0:0,0:0:0:0:
336,337,30748,1,0,0:0:0:0:
336,337,30853,2,0,L|324:255,2,44.999998626709,2|0|0,0:0|0:0|0:0,0:0:0:0:
93,248,31276,2,0,P|109:244|211:230,1,89.9999972534181
257,244,31593,1,0,0:0:0:0:
257,244,31698,2,0,L|269:162,2,44.999998626709,2|0|0,0:0|0:0|0:0,0:0:0:0:
340,31,32121,5,0,0:0:0:0:
257,84,32332,1,0,0:0:0:0:
257,84,32438,1,0,0:0:0:0:
257,84,32544,1,4,0:0:0:0:
167,42,32755,1,0,0:0:0:0:
353,129,32966,1,0,0:0:0:0:
385,132,33072,1,0,0:0:0:0:
417,136,33177,1,0,0:0:0:0:
263,199,33389,1,4,0:0:0:0:
504,244,33600,1,2,0:0:0:0:
441,277,33706,1,2,0:0:0:0:
425,344,33811,5,4,0:0:0:0:
207,303,34022,1,0,0:0:0:0:
345,234,34234,1,2,0:0:0:0:
385,220,34339,1,2,0:0:0:0:
347,198,34445,1,2,0:1:0:0:
177,142,34656,1,2,0:0:0:0:
143,79,34762,1,2,0:0:0:0:
216,78,34868,1,2,0:1:0:0:
82,258,35079,2,0,P|87:302|91:373,1,89.9999972534181,2|0,0:1|0:0,0:0:0:0:
338,100,35501,2,0,P|338:64|346:-7,2,89.9999972534181,2|0|0,0:1|0:0|0:1,0:0:0:0:
170,244,36135,5,2,1:1:0:0:
270,184,36241,1,4,1:2:0:0:
202,36,36558,6,2,P|229:41|251:49,2,44.999998626709,2|2|2,0:1|0:1|0:1,0:1:0:0:
197,41,37191,6,2,P|368:65|496:142,1,269.999991760254,6|0,1:0|0:0,0:1:0:0:
425,171,37614,2,0,P|360:197|299:244,1,134.999995880127,0|0,1:0|0:0,0:0:0:0:
215,260,37931,1,0,0:0:0:0:
237,259,38037,1,0,0:0:0:0:
19,258,38248,1,2,0:1:0:0:
86,232,38353,1,0,0:0:0:0:
113,164,38459,1,0,1:0:0:0:
246,11,38670,1,2,0:1:0:0:
259,26,38776,1,0,0:0:0:0:
266,43,38882,6,0,P|228:93|212:199,1,134.999995880127,2|0,0:1|0:0,0:0:0:0:
461,365,39304,1,0,1:0:0:0:
421,292,39410,1,0,0:0:0:0:
488,365,39621,1,0,0:0:0:0:
454,290,39727,1,0,0:2:0:0:
512,131,39938,1,0,0:0:0:0:
304,294,40149,2,0,P|277:325|234:391,1,75,2|0,1:2|0:0,0:0:0:0:
337,205,40360,2,0,P|340:163|341:111,1,75,2|0,0:0|0:0,0:0:0:0:
0,169,40572,6,2,P|90:224|293:199,1,269.999991760254,2|0,1:0|0:0,1:1:0:0:
206,153,40994,1,0,1:0:0:0:
184,148,41100,2,0,P|150:125|99:33,1,134.999995880127
293,144,41417,1,2,0:1:0:0:
385,248,41628,1,0,0:0:0:0:
483,335,41839,1,2,1:1:0:0:
369,231,42051,1,0,0:0:0:0:
253,343,42262,6,0,P|168:378|72:384,1,134.999995880127,2|0,0:1|0:0,0:0:0:0:
62,327,42579,1,0,0:0:0:0:
85,311,42684,1,0,1:0:0:0:
102,289,42790,2,0,P|110:236|90:129,1,134.999995880127
170,41,43107,1,2,0:1:0:0:
165,112,43213,1,0,0:0:0:0:
230,140,43318,1,4,0:0:0:0:
421,124,43529,1,0,1:0:0:0:
222,210,43741,1,4,0:0:0:0:
387,336,43952,6,0,P|416:221|413:170,1,134.999995880127,6|0,0:0|0:0,0:0:0:0:
346,180,44269,2,0,P|314:217|270:240,1,67.4999979400635,0|0,0:0|1:0,0:0:0:0:
401,131,44480,1,0,0:0:0:0:
178,291,44691,1,0,0:0:0:0:
171,271,44797,2,0,P|150:204|134:111,1,134.999995880127
194,92,45114,2,0,P|227:117|266:138,1,67.4999979400635,0|0,0:0|1:0,0:0:0:0:
81,298,45431,1,0,0:0:0:0:
387,336,45642,5,2,0:0:0:0:
343,71,45853,1,0,0:0:0:0:
331,142,45959,1,0,0:0:0:0:
395,176,46065,1,2,1:2:0:0:
223,321,46276,1,0,0:0:0:0:
229,278,46382,1,0,0:0:0:0:
269,255,46487,1,2,0:0:0:0:
61,188,46699,1,0,0:0:0:0:
266,27,46910,1,2,1:2:0:0:
145,207,47121,2,0,P|142:174|137:141,1,67.4999979400635,4|0,0:0|0:0,0:0:0:0:
164,49,47332,6,0,P|269:124|389:154,1,202.499993820191,6|0,0:0|0:0,0:0:0:0:
512,164,47755,2,0,B|351:199|464:294|299:322,1,269.999991760254,2|0,1:0|0:0,0:0:0:0:
245,298,48283,1,0,0:0:0:0:
256,229,48389,1,4,0:0:0:0:
12,355,48600,2,0,P|74:329|132:295,1,134.999995880127,2|0,1:0|0:0,0:0:0:0:
132,224,48917,1,0,0:0:0:0:
109,221,49022,2,0,P|82:212|26:184,1,67.4999979400635,2|0,0:1|0:0,0:0:0:0:
103,22,49234,6,0,P|118:66|168:123,1,89.9999972534181,6|0,0:0|0:0,0:0:0:0:
294,41,49445,1,0,1:0:0:0:
206,56,49551,2,0,P|272:119|359:132,1,179.999994506836,6|0,0:0|1:0,0:0:0:0:
512,247,49868,2,0,P|474:270|431:284,1,89.9999972534181,6|0,0:0|0:0,0:0:0:0:
211,319,50079,1,8,0:3:0:0:
228,331,50184,2,0,P|313:361|372:360,1,89.9999972534181,4|4,0:3|0:3,0:0:0:0:
411,200,50396,1,8,0:3:0:0:
344,268,50501,1,8,0:3:0:0:
142,101,50713,1,4,1:1:0:0:
142,101,51135,5,2,0:0:0:0:
134,186,51346,1,0,0:0:0:0:
142,101,51558,2,0,P|81:209|69:287,1,179.999994506836,2|0,0:0|0:0,0:0:0:0:
324,118,52191,1,2,0:0:0:0:
389,63,52403,2,0,P|269:96|205:142,1,179.999994506836,2|0,0:0|0:0,0:0:0:0:
227,288,53037,1,2,0:0:0:0:
293,324,53248,1,0,0:0:0:0:
366,309,53459,1,0,0:0:0:0:
422,258,53670,2,0,L|439:208,2,44.999998626709,6|0|0,0:0|0:0|0:0,0:0:0:0:
357,211,53987,1,0,0:0:0:0:
353,228,54093,1,2,0:0:0:0:
353,228,54515,5,2,0:0:0:0:
270,200,54727,1,0,0:0:0:0:
353,228,54938,2,0,P|322:179|195:108,1,179.999994506836,2|0,0:0|0:0,0:0:0:0:
146,293,55572,1,2,0:0:0:0:
184,371,55783,2,0,P|196:314|157:174,1,179.999994506836,2|0,0:0|0:0,0:0:0:0:
49,81,56417,1,0,0:0:0:0:
46,102,56522,1,0,0:0:0:0:
49,117,56628,1,0,0:0:0:0:
56,129,56734,1,0,0:0:0:0:
63,133,56839,5,0,0:0:0:0:
133,93,56945,1,8,0:3:0:0:
68,136,57051,2,0,P|53:178|50:255,1,75,4|8,0:3|0:3,0:0:0:0:
221,103,57262,2,0,P|206:61|203:-16,1,75,4|8,0:3|0:3,0:0:0:0:
299,146,57473,6,0,P|405:216|529:327,1,269.999991760254,4|0,1:1|0:0,0:0:0:0:
512,309,58107,1,0,0:0:0:0:
383,238,58318,2,0,P|323:307|236:352,1,179.999994506836,4|0,0:0|0:0,0:0:0:0:
246,348,58952,1,0,0:0:0:0:
20,132,59163,2,0,P|142:208|306:235,1,269.999991760254,4|0,0:0|0:0,0:0:0:0:
264,234,59797,1,0,0:0:0:0:
72,208,60008,6,0,P|52:237|22:290,1,75,4|0,0:0|0:0,0:0:0:0:
157,133,60220,2,0,P|140:91|131:24,1,75,0|0,1:0|0:0,0:0:0:0:
166,273,60431,1,0,1:0:0:0:
72,208,60537,1,0,1:0:0:0:
157,133,60642,2,0,P|191:120|246:85,2,75,4|0|0,1:2|0:0|0:0,0:0:0:0:
157,133,61065,6,0,P|259:155|354:198,1,209.999993591309,4|0,1:0|0:0,0:0:0:0:
487,292,61382,2,0,P|380:331|291:387,1,209.999993591309,4|0,1:2|0:0,0:0:0:0:
99,326,61699,2,0,P|72:281|58:230,1,104.999996795654,4|0,1:2|0:0,0:0:0:0:
235,307,61910,1,0,0:0:0:0:
165,237,62015,2,0,P|164:184|177:134,1,104.999996795654,4|0,1:2|0:0,0:0:0:0:
433,154,62226,1,0,0:0:0:0:
354,198,62332,2,0,P|308:188|270:167,2,82.5000025177003,4|0|4,1:2|0:0|0:3,0:0:0:0:
354,198,62755,6,0,P|305:122|271:-9,1,209.999993591309,4|0,1:0|0:0,0:0:0:0:
149,139,63072,2,0,P|88:238|-5:307,1,209.999993591309,4|0,1:2|0:0,0:0:0:0:
204,293,63389,2,0,P|236:368|306:408,1,104.999996795654,4|0,1:2|0:0,0:0:0:0:
255,201,63600,1,0,0:0:0:0:
288,279,63706,2,0,P|354:326|434:325,1,104.999996795654,4|0,1:2|0:0,0:0:0:0:
512,152,63917,1,0,0:0:0:0:
458,221,64022,2,0,P|406:231|355:219,2,104.999996795654,4|0|4,1:2|0:0|0:3,0:0:0:0:
308,24,64445,5,4,0:3:0:0:
257,106,64656,1,4,0:3:0:0:
234,200,64868,5,8,0:3:0:0:
169,68,65079,1,8,0:3:0:0:
86,188,65290,1,4,0:3:0:0:
344,338,65501,5,4,1:2:0:0:
374,263,65607,1,0,1:0:0:0:
294,274,65713,2,0,P|246:280|157:266,1,104.999996795654,0|0,1:0|1:0,0:0:0:0:
423,326,65924,1,0,1:2:0:0:
423,326,66135,6,0,P|464:283|493:222,1,104.999996795654,4|0,1:2|0:0,0:0:0:0:
295,38,66346,2,0,P|336:81|365:142,1,104.999996795654,4|0,1:2|0:0,0:0:0:0:
216,237,66558,2,0,P|253:202|277:132,1,82.5000025177003,4|0,1:2|0:0,0:0:0:0:
117,97,66769,1,4,1:2:0:0:
179,157,66875,1,0,1:0:0:0:
179,157,67086,5,4,1:2:0:0:
93,132,67191,2,0,P|51:148|-49:160,1,104.999996795654,0|0,1:0|0:0,0:0:0:0:
216,237,67403,2,0,P|264:252|360:261,2,104.999996795654,8|4|4,0:3|0:3|1:2,0:0:0:0:
256,192,67720,12,0,68670,0:0:0:0:
465,47,68882,5,2,0:0:0:0:
453,67,68987,1,2,0:0:0:0:
470,103,69093,1,2,0:0:0:0:
433,162,69199,1,2,0:0:0:0:
497,213,69304,6,0,P|512:295|435:323,1,179.999994506836,4|0,0:0|0:0,0:0:0:0:
419,244,69621,1,0,0:0:0:0:
503,250,69727,2,0,P|501:274|397:294,1,89.9999972534181,2|0,0:0|0:0,0:0:0:0:
300,360,69938,2,0,P|261:338|244:297,1,89.9999972534181
92,121,70149,6,0,B|107:189|107:189|126:204|126:204|143:306,1,179.999994506836,2|0,0:0|0:0,0:0:0:0:
196,130,70466,1,0,0:0:0:0:
214,206,70572,2,0,B|228:139|228:139|247:124|247:124|264:22,1,179.999994506836,2|0,0:0|0:0,0:0:0:0:
373,196,70889,2,0,P|359:237|317:257,2,89.9999972534181,2|0|0,0:0|0:0|0:0,0:0:0:0:
299,188,71206,1,0,0:0:0:0:
36,205,71417,5,4,0:2:0:0:
113,212,71522,1,0,0:0:0:0:
66,274,71628,1,0,0:0:0:0:
258,96,71839,5,4,0:2:0:0:
294,174,71945,1,0,0:0:0:0:
211,165,72051,1,0,0:0:0:0:
416,312,72262,6,0,P|372:355|304:376,1,89.9999972534181,4|0,0:2|0:2,0:2:0:0:
462,240,72473,2,0,P|474:210|480:125,1,89.9999972534181
415,3,72684,6,0,P|384:35|344:56,1,89.9999972534181,6|0,0:2|0:0,0:0:0:0:
255,79,72896,1,0,0:0:0:0:
185,19,73001,2,0,P|259:68|347:79,1,179.999994506836,2|0,0:0|0:0,0:0:0:0:
482,153,73318,2,0,P|482:197|469:240,1,89.9999972534181,6|0,0:2|0:0,0:0:0:0:
422,319,73530,1,0,0:0:0:0:
330,326,73635,2,0,P|417:308|487:253,1,179.999994506836,2|0,0:0|0:0,0:0:0:0:
277,190,73952,6,0,B|255:215|255:215|248:343,1,89.9999972534181,2|0,0:0|0:0,0:0:0:0:
134,384,74163,2,0,B|112:359|112:359|105:231,1,89.9999972534181,2|0,0:0|0:0,0:0:0:0:
178,118,74375,2,0,B|83:44|100:139|-14:73,2,179.999994506836,6|0|0,0:2|0:0|0:0,0:0:0:0:
188,194,74903,1,0,0:0:0:0:
117,164,75008,2,0,P|85:171|13:214,1,89.9999972534181
250,143,75220,2,2,P|334:113|395:48,1,179.999994506836,2|0,0:0|0:0,0:0:0:0:
179,10,75537,1,0,0:0:0:0:
244,57,75642,2,0,P|302:87|353:94,1,89.9999972534181,2|0,0:0|0:0,0:0:0:0:
486,71,75853,1,0,0:0:0:0:
252,296,76065,6,0,P|144:348|66:338,2,179.999994506836,4|0|0,0:0|0:0|0:0,0:0:0:0:
105,190,76593,1,0,0:0:0:0:
173,238,76699,2,0,P|58:220|1:168,2,179.999994506836
286,182,77227,1,0,0:0:0:0:
225,131,77332,2,0,P|216:109|215:27,1,89.9999972534181,2|0,0:0|0:0,0:0:0:0:
371,151,77544,2,0,P|411:167|476:178,1,89.9999972534181
492,322,77755,6,0,P|416:319|319:365,1,179.999994506836,2|0,0:0|0:0,0:0:0:0:
5,213,78072,2,0,P|129:235|187:290,1,179.999994506836,2|0,0:0|0:0,0:0:0:0:
286,182,78389,2,0,B|270:258|270:258|251:274|251:274|236:370,2,179.999994506836,2|0|0,0:0|0:0|0:0,0:0:0:0:
305,102,78917,1,4,0:2:0:0:
46,0,79128,1,0,0:0:0:0:
62,77,79234,2,0,L|84:190,1,89.9999972534181,4|0,0:2|0:0,0:0:0:0:
125,303,79445,6,0,P|172:192|280:101,1,179.999994506836,6|0,0:2|0:0,0:0:0:0:
335,16,79762,2,0,P|347:131|408:218,1,179.999994506836,2|0,0:0|0:0,0:0:0:0:
512,43,80079,2,0,P|472:149|446:176,1,89.9999972534181
407,315,80290,2,0,P|295:362|195:349,1,179.999994506836,6|0,0:2|0:0,0:0:0:0:
70,151,80607,2,0,P|164:225|305:243,1,179.999994506836,2|0,0:0|0:0,0:0:0:0:
19,342,80924,2,0,P|63:320|94:293,1,89.9999972534181
215,63,81135,5,6,0:0:0:0:
161,173,81241,1,2,0:0:0:0:
161,173,81452,5,8,0:3:0:0:
215,63,81558,2,0,P|240:111|266:151,1,89.9999972534181,4|4,0:3|0:3,0:0:0:0:
340,96,81769,2,4,P|371:144|420:179,1,89.9999972534181,8|4,0:3|0:3,0:3:0:0:
512,260,81980,6,2,B|437:231|359:264|359:264|362:279|362:279|294:312|187:278,2,337.500012874604,6|2|2,0:0|0:1|0:1,0:1:0:0:
15,171,82825,6,0,P|0:89|77:61,1,179.999994506836,4|0,0:0|0:0,0:0:0:0:
104,144,83142,1,0,0:0:0:0:
9,134,83248,2,0,P|11:110|115:90,1,89.9999972534181,2|0,0:0|0:0,0:0:0:0:
212,24,83459,2,0,P|251:46|268:87,1,89.9999972534181
420,263,83670,6,0,B|405:195|405:195|386:180|386:180|369:78,1,179.999994506836,2|0,0:0|0:0,0:0:0:0:
317,254,83987,1,0,0:0:0:0:
298,178,84093,2,0,B|284:245|284:245|265:260|265:260|248:362,1,179.999994506836,2|0,0:0|0:0,0:0:0:0:
139,188,84410,2,0,P|153:147|195:127,2,89.9999972534181,2|0|0,0:0|0:0|0:0,0:0:0:0:
213,196,84727,1,0,0:0:0:0:
476,179,84938,5,4,0:2:0:0:
399,172,85043,1,0,0:0:0:0:
446,110,85149,1,0,0:0:0:0:
261,268,85360,5,4,0:2:0:0:
221,189,85466,1,0,0:0:0:0:
311,190,85572,1,0,0:0:0:0:
82,340,85783,6,0,P|39:365|-20:370,1,89.9999972534181,4|0,0:2|0:0,0:0:0:0:
95,258,85994,2,0,P|99:213|115:171,1,89.9999972534181
250,2,86205,6,0,P|210:22|179:54,1,89.9999972534181,6|0,0:2|0:0,0:0:0:0:
362,12,86417,1,0,0:0:0:0:
408,83,86522,2,0,P|334:34|246:23,1,179.999994506836,2|0,0:0|0:0,0:0:0:0:
372,250,86839,2,0,P|372:294|385:337,1,89.9999972534181,6|0,0:2|0:0,0:0:0:0:
326,157,87051,1,0,0:0:0:0:
258,127,87156,2,0,P|313:182|341:323,1,179.999994506836,2|0,0:0|0:0,0:0:0:0:
156,350,87473,6,0,B|178:325|178:325|288:296,1,89.9999972534181,2|0,0:0|0:0,0:0:0:0:
468,255,87684,2,0,B|471:225|471:225|443:149,1,89.9999972534181,2|0,0:0|0:0,0:0:0:0:
323,56,87896,2,0,B|418:-18|401:77|515:11,2,179.999994506836,6|0|0,0:2|0:0|0:0,0:0:0:0:
246,72,88424,1,0,0:0:0:0:
181,26,88529,2,0,P|147:38|101:67,1,89.9999972534181
0,234,88741,2,2,P|69:163|166:137,1,179.999994506836,2|0,0:0|0:0,0:0:0:0:
220,179,89058,1,0,0:0:0:0:
199,253,89163,1,0,0:0:0:0:
22,78,89374,1,0,0:0:0:0:
289,237,89586,6,0,P|397:185|475:195,2,179.999994506836,4|0|0,0:0|0:0|0:0,0:0:0:0:
333,303,90114,1,0,0:0:0:0:
274,356,90220,2,0,P|200:305|112:299,1,179.999994506836,2|0,0:0|0:0,0:0:0:0:
403,130,90642,1,0,0:0:0:0:
336,170,90748,1,0,0:0:0:0:
279,122,90853,2,0,P|270:100|269:18,1,89.9999972534181,2|0,0:0|0:0,0:0:0:0:
220,179,91065,2,0,P|180:163|115:152,1,89.9999972534181
19,317,91276,6,0,P|108:308|191:273,2,179.999994506836,6|0|0,0:0|0:0|0:0,0:0:0:0:
46,244,91804,1,0,0:0:0:0:
116,275,91910,1,0,0:0:0:0:
308,181,92121,1,0,0:0:0:0:
487,288,92332,1,2,0:0:0:0:
417,314,92438,1,0,0:0:0:0:
475,361,92544,1,0,0:0:0:0:
496,109,92755,1,2,0:0:0:0:
238,218,92966,6,0,P|157:221|36:164,2,179.999994506836,6|0|0,0:2|0:0|0:0,0:0:0:0:
311,74,93494,1,0,0:0:0:0:
252,121,93600,2,0,P|210:139|166:147,1,89.9999972534181
358,135,93811,2,0,P|470:180|531:260,1,179.999994506836,6|0,0:2|0:0,0:0:0:0:
477,347,94128,1,0,0:0:0:0:
404,326,94234,2,0,P|365:346|250:354,1,89.9999972534181,6|0,0:2|0:0,0:0:0:0:
147,301,94445,2,0,P|106:290|61:268,1,89.9999972534181
245,77,94656,5,8,0:3:0:0:
291,152,94762,1,4,0:3:0:0:
200,158,94868,2,0,P|228:235|234:308,1,89.9999972534181,8|4,0:3|0:3,0:3:0:0:
245,77,95079,1,6,0:2:0:0:
502,112,95290,5,4,0:3:0:0:
407,15,95501,6,2,B|378:90|411:168|411:168|426:165|426:165|459:233|425:340,2,337.500012874604,6|2|2,0:0|0:1|0:1,0:1:0:0:
294,345,96346,5,6,0:2:0:0:
182,305,96769,1,0,0:0:0:0:
271,227,97191,1,0,0:0:0:0:
294,345,97614,5,2,0:0:0:0:
182,305,97720,1,2,0:0:0:0:
271,227,97825,1,2,0:0:0:0:
294,345,97931,1,6,0:2:0:0:
