osu file format v14

[General]
AudioFilename: audio.mp3
AudioLeadIn: 0
PreviewTime: 67721
Countdown: 0
SampleSet: Soft
StackLeniency: 0.7
Mode: 0
LetterboxInBreaks: 0
WidescreenStoryboard: 1

[Editor]
Bookmarks: 66558
DistanceSpacing: 1.2
BeatDivisor: 4
GridSize: 4
TimelineZoom: 3.099999

[Metadata]
Title:Selfrontier
TitleUnicode:Selfrontier
Artist:ASCA
ArtistUnicode:ASCA
Creator:Sotarks
Version:Kowari's Hard
Source:ソードアート・オンライン アリシゼーション・ブレイディング
Tags:sword art online sao alicization rising steel kirito asuna eugeo alice opening op jrock j-rock rock japanese female vocals vocal vocalist オープニングアニメーション ren derandom otaku kowari toybot kibbleru milan-
BeatmapID:2176497
BeatmapSetID:1037306

[Difficulty]
HPDrainRate:4.5
CircleSize:4
OverallDifficulty:6.5
ApproachRate:7.5
SliderMultiplier:1.8
SliderTickRate:1

[Events]
//Background and Video events
0,0,"bg.jpg",0,0
Video,0,"video.mp4"
//Break Periods
2,50913,55803
//Storyboard Layer 0 (Background)
//Storyboard Layer 1 (Fail)
//Storyboard Layer 2 (Pass)
//Storyboard Layer 3 (Foreground)
//Storyboard Layer 4 (Overlay)
//Storyboard Sound Samples

[TimingPoints]
1699,422.535211267606,4,2,22,42,1,0
1699,-100,4,2,22,42,0,0
10149,-100,4,2,22,72,0,0
23670,-125,4,2,22,52,0,0
37191,-100,4,2,22,62,0,0
49234,-100,4,2,22,62,0,0
50713,-100,4,2,22,52,0,0
53248,-100,4,2,22,52,0,0
56628,-125,4,2,22,52,0,0
57262,-100,4,2,22,52,0,0
57473,-125,4,2,22,62,0,0
61065,-111.111111111111,4,2,22,72,0,0
64445,-111.111111111111,4,2,22,52,0,0
64867,-111.111111111111,4,2,22,62,0,0
65501,-111.111111111111,4,2,22,72,0,0
66135,-111.111111111111,4,2,22,82,0,0
67825,-100,4,2,22,42,0,0
68141,-100,4,2,22,5,0,0
68142,-100,4,2,22,5,0,0
68248,-100,4,2,22,42,0,0
68353,-100,4,2,22,5,0,0
68459,-100,4,2,22,42,0,0
68775,-100,4,2,22,5,0,0
68776,-100,4,2,22,5,0,0
68882,-100,4,2,22,42,0,0
69304,-83.3333333333333,4,2,22,92,0,1
81980,-100,4,2,22,82,0,1
82825,-83.3333333333333,4,2,22,92,0,1
95501,-83.3333333333333,4,2,22,82,0,1
96346,-100,4,2,22,72,0,0
97614,-100,4,2,22,82,0,0

[Colours]
Combo1 : 133,232,115
Combo2 : 64,121,206
Combo3 : 255,239,151
Combo4 : 255,139,53

[HitObjects]
256,192,6769,12,2,9727,0:0:0:0:
42,54,10149,6,0,P|51:103|59:151,1,90,6|2,1:2|0:0,0:0:0:0:
86,177,10466,2,0,P|75:227|69:274,1,90,2|2,0:0|0:0,0:0:0:0:
135,328,10889,2,0,B|248:326|186:276|319:278,1,180,2|0,0:0|0:0,0:0:0:0:
343,302,11417,1,8,0:2:0:0:
411,243,11628,5,2,0:0:0:0:
411,243,11734,1,2,0:0:0:0:
411,243,11839,2,0,L|391:150,1,90,2|0,1:2|0:0,0:0:0:0:
368,67,12262,2,0,P|320:48|269:68,1,90,8|2,0:2|0:0,0:0:0:0:
271,100,12579,2,0,P|223:119|172:99,1,90,0|8,0:0|0:2,0:0:0:0:
65,52,13107,2,0,L|78:152,1,90,10|0,0:2|0:0,0:0:0:0:
91,229,13529,5,2,1:2:0:0:
171,189,13741,2,0,L|181:234,2,45,2|2|8,0:0|0:0|0:0,0:0:0:0:
199,104,14163,1,0,0:0:0:0:
199,104,14269,2,0,P|256:87|321:132,1,135,2|0,0:0|0:0,0:0:0:0:
343,210,14797,2,0,L|336:272,2,45,8|0|0,0:2|0:0|0:0,0:0:0:0:
419,162,15220,6,0,L|431:251,1,90,2|0,1:2|0:0,0:0:0:0:
441,295,15537,1,0,0:0:0:0:
441,295,15642,1,8,0:2:0:0:
361,337,15853,2,0,B|258:352|302:298|183:299,1,180,2|2,0:0|0:0,0:0:0:0:
105,330,16487,2,0,L|111:270,1,45,10|2,0:2|0:0,0:0:0:0:
124,242,16699,2,0,L|118:182,1,45,10|10,0:2|0:2,0:0:0:0:
111,152,16910,6,0,L|211:135,1,90,6|0,1:2|0:0,0:0:0:0:
235,108,17227,2,0,L|323:123,1,90,2|0,0:0|0:0,0:0:0:0:
405,84,17649,2,0,P|361:114|389:238,1,180
418,235,18177,1,10,0:2:0:0:
391,321,18389,5,0,0:0:0:0:
391,321,18494,1,0,0:0:0:0:
391,321,18600,2,0,L|289:335,1,90,2|0,1:2|0:0,0:0:0:0:
262,355,18917,2,0,L|172:342,1,90,2|0,0:0|0:0,0:0:0:0:
129,330,19234,1,2,0:0:0:0:
56,276,19445,2,0,L|9:288,2,45,2|0|0,1:2|0:0|0:0,0:0:0:0:
123,215,19868,2,0,P|139:163|110:118,1,90,8|2,0:0|0:0,0:0:0:0:
59,71,20290,5,2,1:2:0:0:
144,44,20501,2,0,L|148:-9,2,45,2|2|8,0:0|0:0|0:0,0:0:0:0:
218,94,20924,1,0,0:0:0:0:
218,94,21029,1,2,0:0:0:0:
218,94,21135,2,0,P|207:137|199:191,1,90,0|0,1:2|0:0,0:0:0:0:
242,261,21558,2,0,P|292:285|334:264,1,90,8|0,0:2|0:0,0:0:0:0:
361,193,21980,6,0,P|351:137|340:97,1,90,2|10,1:2|0:3,0:0:0:0:
314,69,22297,2,0,P|348:32|392:31,1,90,2|10,0:0|0:2,0:0:0:0:
462,76,22720,1,10,0:2:0:0:
483,163,22931,1,8,0:2:0:0:
483,163,23037,2,0,P|475:210|470:265,1,90,2|10,0:0|0:2,0:0:0:0:
428,328,23459,5,10,0:2:0:0:
428,328,23565,1,8,0:2:0:0:
428,328,23670,2,0,P|361:311|267:299,1,144,6|2,1:2|1:2,0:0:0:0:
161,229,24515,2,0,P|248:214|325:181,1,144,0|2,1:2|1:2,0:0:0:0:
314,108,25149,1,0,0:0:0:0:
259,40,25360,6,0,P|194:43|105:67,1,144,2|2,1:2|1:2,0:0:0:0:
13,200,26206,2,0,P|78:203|167:227,1,144,0|2,0:0|1:2,0:0:0:0:
203,293,26839,5,0,0:0:0:0:
196,309,26945,1,0,3:0:0:0:
189,327,27051,2,0,P|238:352|315:291,1,144,0|2,1:2|1:2,0:0:0:0:
418,176,27896,2,0,P|369:151|292:212,1,144,0|2,0:0|1:2,0:0:0:0:
233,135,28529,1,2,0:0:0:0:
263,53,28741,6,0,P|320:67|347:73,1,72,2|2,1:2|0:0,0:0:0:0:
374,83,29058,2,0,P|408:74|443:66,1,72,2|2,0:0|0:0,0:0:0:0:
486,188,29586,2,0,P|462:245|456:273,1,72,0|2,0:0|3:2,0:0:0:0:
400,317,30008,2,0,P|389:282|373:250,1,72,0|0,1:2|3:2,0:0:0:0:
308,193,30431,6,0,P|266:189|207:273,1,144
101,375,31276,2,0,P|59:379|0:295,1,144
56,241,31910,1,2,0:0:0:0:
125,190,32121,6,0,P|118:115|109:35,1,144
225,176,32966,2,0,P|217:247|210:319,1,144
281,369,33600,1,0,0:0:0:0:
366,380,33811,6,0,P|418:368|467:345,1,108,2|0,1:2|0:0,0:0:0:0:
475,302,34234,2,0,P|497:230|495:202,1,72,2|0,1:2|0:0,0:0:0:0:
473,197,34551,1,2,0:0:0:0:
473,197,34656,1,0,1:2:0:0:
395,157,34868,1,2,0:0:0:0:
312,181,35079,2,0,P|293:134|289:101,1,72,0|2,1:2|0:0,0:0:0:0:
358,61,35501,6,0,P|418:74|448:77,2,72,2|0|0,1:2|0:0|1:2,0:0:0:0:
230,28,36135,1,8,1:3:0:0:
230,28,36241,6,0,P|211:92|204:143,1,108,8|0,0:0|0:0,0:0:0:0:
271,188,36769,1,0,0:0:0:0:
315,261,36980,1,0,0:0:0:0:
321,363,37191,6,0,P|271:353|207:348,1,90,6|2,1:2|0:0,0:0:0:0:
188,361,37508,1,0,0:0:0:0:
188,361,37614,1,10,0:2:0:0:
115,308,37825,1,2,0:0:0:0:
134,219,38037,6,0,P|184:227|231:218,1,90,2|2,1:2|0:0,0:0:0:0:
242,180,38353,1,2,0:0:0:0:
242,180,38459,2,0,P|228:124|222:78,1,90,8|2,0:2|0:0,0:0:0:0:
277,19,38882,5,0,1:2:0:0:
343,80,39093,2,0,P|398:98|444:93,1,90,0|10,0:0|0:2,0:0:0:0:
465,69,39410,1,2,0:0:0:0:
500,151,39621,2,0,P|470:211|461:296,1,135,2|2,0:0|0:0,0:0:0:0:
479,318,40044,1,0,0:0:0:0:
479,318,40149,1,10,0:2:0:0:
402,364,40360,1,2,3:2:0:0:
329,309,40572,6,0,P|311:253|287:202,1,90,2|0,1:2|0:0,0:0:0:0:
248,149,40994,1,10,0:2:0:0:
248,149,41100,2,0,P|291:134|332:101,1,90,2|2,0:0|0:0,0:0:0:0:
329,62,41417,5,0,0:0:0:0:
253,12,41628,1,2,0:0:0:0:
168,41,41839,2,0,P|141:97|140:139,1,90,10|2,0:2|0:0,0:0:0:0:
71,184,42262,6,0,P|95:232|106:273,1,90,2|0,1:2|0:0,0:0:0:0:
87,308,42579,2,0,P|124:334|174:320,1,90,2|2,0:0|0:0,0:0:0:0:
212,249,43001,1,2,0:0:0:0:
212,249,43107,2,0,P|264:229|308:249,1,90,0|2,0:0|3:2,0:0:0:0:
376,275,43529,2,0,P|365:323|354:368,1,90,10|2,0:2|3:2,0:0:0:0:
463,239,43952,6,0,P|451:176|446:135,1,90,0|2,1:2|0:0,0:0:0:0:
455,117,44269,1,0,0:0:0:0:
455,117,44375,1,8,0:2:0:0:
391,52,44586,1,0,0:0:0:0:
319,106,44797,6,0,P|247:121|221:115,1,90,2|0,1:2|0:0,0:0:0:0:
205,82,45114,2,0,P|138:53|96:61,1,90,2|0,0:0|0:0,0:0:0:0:
83,76,45431,1,2,0:0:0:0:
56,161,45642,6,0,P|76:224|85:272,1,90,2|2,1:2|0:0,0:0:0:0:
125,242,45959,2,0,P|105:305|96:353,1,90,2|2,0:0|0:0,0:0:0:0:
130,361,46276,1,0,0:0:0:0:
211,322,46487,2,0,P|265:293|307:291,1,90,0|2,0:0|0:0,0:0:0:0:
363,234,46910,2,0,P|309:205|267:203,1,90,10|2,0:2|3:2,0:0:0:0:
215,140,47332,6,0,P|263:124|314:100,1,90,2|0,1:2|0:0,0:0:0:0:
324,70,47649,1,0,0:0:0:0:
324,70,47755,1,10,0:2:0:0:
413,79,47966,1,0,0:0:0:0:
413,79,48072,2,0,P|406:134|408:180,1,90
439,199,48389,1,0,0:0:0:0:
382,269,48600,2,0,P|323:277|281:291,1,90,8|0,0:2|0:0,0:0:0:0:
218,334,49022,6,0,L|201:232,1,90,2|12,1:2|0:2,0:0:0:0:
146,174,49445,1,2,1:2:0:0:
146,174,49551,2,0,P|96:150|58:156,1,90,8|8,0:2|0:2,0:0:0:0:
34,188,49868,2,0,L|45:242,3,45,2|0|8|10,1:2|0:0|0:3|0:3,0:0:0:0:
64,272,50290,2,0,L|53:326,3,45,0|4|6|4,1:2|0:3|0:3|0:3,0:0:0:0:
45,360,50713,5,6,1:2:0:0:
448,73,56628,6,0,L|315:62,1,108,0|8,3:2|0:3,0:0:0:0:
304,59,57051,1,8,0:3:0:0:
241,123,57262,1,4,0:3:0:0:
273,202,57473,6,0,P|317:169|416:183,1,144,6|0,1:2|1:2,0:0:0:0:
431,344,58318,2,0,P|387:377|288:363,1,144,2|0,1:2|1:2,0:0:0:0:
147,293,59163,6,0,P|137:214|125:134,1,144,2|0,1:2|1:2,0:0:0:0:
246,24,60008,1,2,1:2:0:0:
287,99,60220,1,8,0:3:0:0:
244,174,60431,2,0,L|197:166,2,36,8|8|4,0:2|0:2|1:2,0:0:0:0:
370,298,61065,6,0,P|386:247|358:182,1,121.499996292114,14|10,0:0|0:0,0:0:0:0:
294,114,61593,1,0,1:2:0:0:
294,114,61699,2,0,P|384:99|422:93,1,121.499996292114,10|10,0:0|0:0,0:0:0:0:
512,0,62332,2,0,P|495:48|486:93,1,80.9999975280763,10|0,0:0|1:2,0:0:0:0:
393,53,62755,6,0,P|351:16|282:17,1,121.499996292114,14|10,0:0|0:0,0:0:0:0:
231,94,63283,1,0,1:2:0:0:
231,94,63389,2,0,P|241:160|248:230,1,121.499996292114,10|10,0:0|0:0,0:0:0:0:
151,325,64022,1,10,0:0:0:0:
66,277,64234,6,0,P|114:252|144:230,1,80.9999975280763,14|0,0:0|1:0,0:0:0:0:
78,157,64656,2,0,P|94:105|99:68,1,80.9999975280763,4|2,1:3|1:0,0:0:0:0:
177,22,65079,1,4,1:3:0:0:
264,65,65290,1,8,1:2:0:0:
255,161,65501,2,0,L|204:174,3,40.4999987640381,10|8|10|8,1:2|1:2|1:2|1:2,0:0:0:0:
304,161,65924,6,0,P|291:231|287:268,1,80.9999975280763,0|14,1:2|1:2,0:0:0:0:
352,314,66346,1,14,1:2:0:0:
449,305,66558,1,2,1:2:0:0:
491,217,66769,1,10,0:2:0:0:
491,217,66875,2,0,P|468:161|460:126,1,80.9999975280763,10|10,0:2|0:2,0:0:0:0:
448,95,67191,2,0,L|456:50,3,40.4999987640381,10|10|6|6,0:2|0:3|0:3|0:3,0:0:0:0:
436,9,67614,5,14,0:2:0:0:
112,115,68882,6,0,L|170:104,3,45,2|2|2|2,0:0|0:0|0:0|0:0,0:0:0:0:
81,132,69304,6,0,P|54:194|80:251,1,107.999996704102,4|8,1:2|0:2,0:0:0:0:
146,300,69727,2,0,L|133:365,2,53.9999983520508,2|0|10,1:2|1:2|0:2,0:0:0:0:
242,251,70149,2,0,L|229:129,1,107.999996704102,2|8,1:2|0:2,0:0:0:0:
248,92,70466,2,0,P|299:61|362:79,1,107.999996704102,2|0,1:2|1:2,0:0:0:0:
380,108,70783,1,10,0:2:0:0:
474,160,70994,6,0,L|464:281,1,107.999996704102,0|8,1:2|0:2,0:0:0:0:
375,328,71417,2,0,L|379:383,2,53.9999983520508,2|0|10,1:2|1:2|0:2,0:0:0:0:
300,250,71839,2,0,P|259:222|192:226,1,107.999996704102,2|10,1:2|0:2,0:0:0:0:
123,296,72262,1,2,0:0:0:0:
24,252,72473,1,10,0:2:0:0:
24,144,72684,6,0,P|62:95|114:80,1,107.999996704102,2|10,1:2|0:2,0:0:0:0:
133,35,73001,2,0,P|194:27|241:53,1,107.999996704102,2|2,0:0|1:2,0:0:0:0:
255,96,73318,1,10,0:2:0:0:
233,201,73529,1,2,1:2:0:0:
233,201,73635,2,0,P|271:250|323:265,1,107.999996704102,2|2,0:0|1:2,0:0:0:0:
342,310,73952,2,0,P|403:317|450:291,1,107.999996704102,2|10,0:0|0:2,0:0:0:0:
483,197,74375,6,0,L|470:79,1,107.999996704102,2|8,1:2|0:2,0:0:0:0:
369,52,74797,2,0,L|372:-1,2,53.9999983520508,0|0|10,1:2|1:2|0:2,0:0:0:0:
288,125,75220,1,0,1:2:0:0:
204,57,75431,1,10,0:2:0:0:
204,57,75537,2,0,P|138:42|96:58,1,107.999996704102,0|0,1:2|0:0,0:0:0:0:
69,97,75853,1,10,0:2:0:0:
28,197,76065,6,0,L|49:318,1,107.999996704102,4|8,1:2|0:2,0:0:0:0:
154,310,76487,2,0,L|143:382,2,53.9999983520508,0|0|10,1:2|1:2|0:2,0:0:0:0:
235,238,76910,1,0,1:2:0:0:
308,316,77121,1,10,0:2:0:0:
308,316,77227,2,0,P|372:333|412:313,1,107.999996704102,0|0,1:2|1:2,0:0:0:0:
425,265,77544,1,8,0:2:0:0:
379,167,77755,6,0,L|264:181,1,107.999996704102,2|8,1:2|0:2,0:0:0:0:
230,214,78072,2,0,L|122:200,1,107.999996704102,2|0,0:0|1:2,0:0:0:0:
68,194,78389,1,10,0:2:0:0:
16,99,78600,1,0,1:2:0:0:
91,21,78811,1,8,0:2:0:0:
91,21,78917,2,0,L|207:42,1,107.999996704102,0|0,1:2|1:2,0:0:0:0:
250,51,79234,1,10,0:2:0:0:
352,18,79445,6,0,P|410:56|421:117,1,107.999996704102,6|8,1:2|0:2,0:0:0:0:
378,189,79868,1,0,0:0:0:0:
378,189,79973,1,0,1:2:0:0:
378,189,80079,1,10,0:2:0:0:
432,282,80290,2,0,P|409:329|361:354,1,107.999996704102,2|8,1:2|0:2,0:0:0:0:
308,347,80607,2,0,L|195:333,1,107.999996704102,2|0,1:2|1:2,0:0:0:0:
147,323,80924,1,10,0:2:0:0:
81,236,81135,5,10,0:0:0:0:
81,236,81241,2,0,B|133:212|133:212|197:228,1,107.999996704102,8|8,0:0|0:3,0:0:0:0:
232,244,81558,2,0,L|223:171,1,53.9999983520508,10|4,0:3|0:3,0:0:0:0:
193,146,81769,2,0,L|202:73,1,53.9999983520508,6|4,0:3|0:3,0:0:0:0:
211,48,81980,6,0,B|269:52|269:52|291:69|291:69|362:76,2,135,10|10|10,1:2|1:2|1:2,0:0:0:0:
105,23,82825,6,0,P|64:76|72:132,1,107.999996704102,4|8,1:2|0:2,0:0:0:0:
137,194,83248,2,0,L|199:182,2,53.9999983520508,2|0|10,1:2|1:2|0:2,0:0:0:0:
83,287,83670,1,2,1:2:0:0:
166,356,83882,1,8,0:2:0:0:
166,356,83987,2,0,L|281:345,1,107.999996704102,2|0,1:2|1:2,0:0:0:0:
326,335,84304,1,10,0:2:0:0:
404,261,84515,6,0,P|396:195|356:170,1,107.999996704102,0|8,1:2|0:2,0:0:0:0:
260,144,84938,2,0,L|185:160,2,53.9999983520508,2|0|10,1:2|1:2|0:2,0:0:0:0:
316,51,85360,2,0,L|440:49,1,107.999996704102,2|10,1:2|0:2,0:0:0:0:
492,133,85783,1,2,0:0:0:0:
442,228,85994,1,10,0:2:0:0:
335,246,86206,6,0,L|219:235,1,107.999996704102,2|10,1:2|0:2,0:0:0:0:
173,233,86522,2,0,B|161:181|161:181|184:117,1,107.999996704102,2|2,0:0|1:2,0:0:0:0:
222,96,86839,1,10,0:2:0:0:
148,16,87051,1,2,1:2:0:0:
148,16,87156,2,0,L|34:18,1,107.999996704102,2|2,0:0|1:2,0:0:0:0:
5,59,87473,2,0,B|-14:111|-14:111|15:171,1,107.999996704102,2|10,0:0|0:2,0:0:0:0:
85,234,87896,6,0,P|146:208|199:227,1,107.999996704102,2|8,1:2|0:2,0:0:0:0:
239,310,88318,2,0,L|231:380,2,53.9999983520508,0|0|10,1:2|1:2|0:2,0:0:0:0:
326,245,88741,1,0,1:2:0:0:
262,157,88952,1,10,0:2:0:0:
262,157,89058,2,0,L|277:46,1,107.999996704102,0|0,1:2|1:2,0:0:0:0:
294,0,89375,1,10,0:2:0:0:
401,7,89586,6,0,P|439:53|435:113,1,107.999996704102,4|8,1:2|0:2,0:0:0:0:
400,199,90008,2,0,L|413:258,2,53.9999983520508,0|0|10,1:2|1:2|0:2,0:0:0:0:
302,151,90431,1,0,1:2:0:0:
239,239,90642,1,8,0:2:0:0:
239,239,90748,2,0,P|178:272|126:257,1,107.999996704102,0|0,1:2|1:2,0:0:0:0:
99,232,91065,1,8,0:2:0:0:
3,182,91276,6,0,L|12:311,1,107.999996704102,2|8,1:2|0:2,0:0:0:0:
95,357,91699,1,0,1:2:0:0:
95,357,91804,1,0,1:2:0:0:
95,357,91910,1,10,0:2:0:0:
194,321,92121,2,0,L|311:333,1,107.999996704102,0|10,1:2|0:2,0:0:0:0:
355,338,92438,1,0,1:2:0:0:
425,256,92649,1,0,1:2:0:0:
425,256,92755,1,10,0:2:0:0:
364,166,92966,6,0,P|304:153|259:175,1,107.999996704102,4|8,1:2|0:2,0:0:0:0:
177,237,93389,1,0,1:2:0:0:
177,237,93494,1,0,1:2:0:0:
177,237,93600,1,8,0:2:0:0:
99,162,93811,2,0,L|111:41,1,107.999996704102,0|8,1:2|0:2,0:0:0:0:
119,1,94128,2,0,B|175:-9|175:-9|230:21,1,107.999996704102,0|0,1:2|1:2,0:0:0:0:
259,52,94445,1,10,0:2:0:0:
282,157,94656,5,10,0:0:0:0:
282,157,94762,1,8,0:3:0:0:
282,157,94868,2,0,L|270:232,1,53.9999983520508,4|6,0:3|0:3,0:0:0:0:
272,264,95079,2,0,P|327:295|383:278,1,107.999996704102,8|2,0:0|1:2,0:0:0:0:
431,199,95501,6,0,B|424:127|424:127|432:109|432:109|425:35,2,161.999995056153,10|10|10,1:2|1:2|1:2,0:0:0:0:
389,279,96346,6,0,B|278:281|346:223|191:214,2,180,6|0|0,1:2|1:2|1:2,0:0:0:0:
219,384,97614,5,10,1:2:0:0:
217,354,97719,1,10,1:2:0:0:
216,324,97825,1,10,1:2:0:0:
215,294,97930,1,10,1:2:0:0:
