osu file format v14

[General]
AudioFilename: audio.mp3
AudioLeadIn: 0
PreviewTime: 67721
Countdown: 0
SampleSet: Soft
StackLeniency: 0.7
Mode: 0
LetterboxInBreaks: 0
WidescreenStoryboard: 0

[Editor]
Bookmarks: 66558
DistanceSpacing: 0.3
BeatDivisor: 4
GridSize: 32
TimelineZoom: 3.099999

[Metadata]
Title:Selfrontier
TitleUnicode:Selfrontier
Artist:ASCA
ArtistUnicode:ASCA
Creator:Sotarks
Version:Expert
Source:ソードアート・オンライン アリシゼーション・ブレイディング
Tags:sword art online sao alicization rising steel kirito asuna eugeo alice opening op jrock j-rock rock japanese female vocals vocal vocalist オープニングアニメーション ren derandom otaku kowari toybot kibbleru milan-
BeatmapID:2168649
BeatmapSetID:1037306

[Difficulty]
HPDrainRate:6.2
CircleSize:4.2
OverallDifficulty:8.7
ApproachRate:9.4
SliderMultiplier:2.82
SliderTickRate:1

[Events]
//Background and Video events
0,0,"bg.jpg",0,0
Video,0,"video.mp4"
//Break Periods
//Storyboard Layer 0 (Background)
//Storyboard Layer 1 (Fail)
//Storyboard Layer 2 (Pass)
//Storyboard Layer 3 (Foreground)
//Storyboard Layer 4 (Overlay)
//Storyboard Sound Samples

[TimingPoints]
1699,422.535211267606,4,2,22,42,1,0
1699,-161.290322580645,4,2,22,42,0,0
2121,-312.5,4,2,22,42,0,0
2544,-161.290322580645,4,2,22,42,0,0
2966,-312.5,4,2,22,42,0,0
3389,-161.290322580645,4,2,22,42,0,0
6769,-312.5,4,2,22,42,0,0
10149,-98.0392156862745,4,2,22,72,0,0
23670,-121.951219512195,4,2,22,52,0,0
37191,-108.695652173913,4,2,22,62,0,0
50713,-138.888888888889,4,2,22,52,0,0
57473,-121.951219512195,4,2,22,62,0,0
61065,-81.9672131147541,4,2,22,72,0,0
61699,-75.7575757575758,4,2,22,72,0,0
62544,-121.951219512195,4,2,22,72,0,0
62755,-81.9672131147541,4,2,22,72,0,0
63389,-75.7575757575758,4,2,22,72,0,0
64445,-75.7575757575758,4,2,22,52,0,0
64867,-75.7575757575758,4,2,22,62,0,0
64868,-75.7575757575758,4,2,22,62,0,0
65501,-75.7575757575758,4,2,22,72,0,0
66135,-70.4225352112676,4,2,22,82,0,0
67825,-138.888888888889,4,2,22,42,0,0
68141,-138.888888888889,4,2,22,5,0,0
68142,-138.888888888889,4,2,22,5,0,0
68248,-192.307692307692,4,2,22,42,0,0
68353,-138.888888888889,4,2,22,5,0,0
68459,-121.951219512195,4,2,22,42,0,0
68882,-138.888888888889,4,2,22,42,0,0
69304,-81.9672131147542,4,2,22,92,0,0
81980,-70.4225352112676,4,2,22,82,0,0
82825,-81.9672131147541,4,2,22,92,0,0
95501,-70.4225352112676,4,2,22,82,0,0
96346,-121.951219512195,4,2,22,72,0,0
97614,-121.951219512195,4,2,22,82,0,0

[Colours]
Combo1 : 133,232,115
Combo2 : 64,121,206
Combo3 : 255,239,151
Combo4 : 255,139,53

[HitObjects]
214,91,1699,6,0,P|148:65|72:77,1,131.129994797699,2|0,0:0|0:0,0:0:0:0:
87,51,2121,2,0,P|68:105|69:109,1,45.12,0|0,0:0|0:0,0:0:0:0:
274,136,2544,2,0,P|340:162|416:150,1,131.129994797699,0|0,0:0|0:0,0:0:0:0:
413,137,2966,2,0,P|432:191|431:195,1,45.12,0|0,0:0|0:0,0:0:0:0:
205,170,3389,2,0,P|179:230|181:309,1,131.129994797699,2|0,0:0|0:0,0:0:0:0:
192,312,3811,5,2,0:0:0:0:
202,303,4022,1,0,0:0:0:0:
235,225,4234,1,2,0:0:0:0:
260,236,4445,1,0,0:0:0:0:
126,139,4656,1,2,0:0:0:0:
221,87,4868,1,0,0:0:0:0:
126,139,5079,6,0,P|76:126|10:121,1,87.4199965317995,2|0,0:0|0:0,0:0:0:0:
104,236,5396,2,0,P|153:223|220:218,1,87.4199965317995,2|0,0:0|0:0,0:0:0:0:
311,156,5713,2,0,P|261:143|195:138,1,87.4199965317995,2|0,0:0|0:0,0:0:0:0:
289,253,6030,2,0,P|338:240|405:235,1,87.4199965317995,2|0,0:0|0:0,0:0:0:0:
447,155,6346,1,2,0:0:0:0:
422,321,6558,1,2,0:0:0:0:
466,60,6769,6,0,B|156:69|354:331|31:331,1,541.44,2|0,0:0|0:0,0:0:0:0:
43,330,9727,1,2,0:0:0:0:
50,298,9832,1,2,0:0:0:0:
41,261,9938,1,2,0:0:0:0:
80,208,10043,1,2,0:0:0:0:
57,132,10149,6,0,L|65:58,1,71.9100004389038,6|0,1:2|0:0,0:0:0:0:
182,211,10360,1,2,0:0:0:0:
192,194,10466,2,0,L|184:120,1,71.9100004389038,2|8,0:0|0:2,0:0:0:0:
321,168,10677,2,0,L|329:97,1,71.9100004389038,2|0,0:0|0:0,0:0:0:0:
452,266,10889,2,0,L|432:98,1,143.820000877808,2|0,0:0|0:0,0:0:0:0:
340,201,11206,2,0,L|348:130,1,71.9100004389038,0|0,0:0|0:0,0:0:0:0:
230,236,11417,2,0,L|222:165,1,71.9100004389038,8|0,0:2|0:0,0:0:0:0:
197,347,11628,1,2,0:0:0:0:
245,253,11734,1,2,0:0:0:0:
184,324,11839,6,0,B|348:303|224:382|419:361,1,215.730001316711,2|0,1:2|0:0,0:0:0:0:
334,239,12262,2,0,P|409:198|458:204,1,71.9100004389038,8|0,0:2|0:0,0:0:0:0:
230,236,12473,1,2,0:0:0:0:
230,236,12579,2,0,P|254:153|292:123,1,71.9100004389038,0|0,0:0|1:2,0:0:0:0:
184,324,12790,2,0,P|113:250|129:173,1,143.820000877808,8|0,0:2|0:0,0:0:0:0:
167,61,13107,2,0,P|251:137|361:90,1,215.730001316711,10|0,0:2|0:0,0:0:0:0:
426,12,13529,5,2,1:2:0:0:
355,126,13741,1,2,0:0:0:0:
355,126,13846,1,2,0:0:0:0:
433,235,14058,1,2,0:0:0:0:
405,339,14269,2,0,L|390:250,1,71.9100004389038,2|0,0:0|1:2,0:0:0:0:
282,313,14480,1,0,0:0:0:0:
282,313,14586,2,0,L|297:224,1,71.9100004389038,0|0,0:0|0:0,0:0:0:0:
169,372,14797,2,0,L|139:149,1,215.730001316711,8|0,0:2|0:0,0:0:0:0:
12,58,15220,6,0,B|40:26|163:47|53:126|247:116,1,215.730001316711,2|0,1:2|0:0,0:0:0:0:
274,80,15642,1,8,0:2:0:0:
80,188,15853,6,0,P|186:147|223:152,1,143.820000877808,2|0,0:0|1:2,0:0:0:0:
286,209,16170,1,8,0:2:0:0:
207,174,16276,1,2,0:0:0:0:
375,181,16487,5,10,0:2:0:0:
443,221,16593,1,2,0:0:0:0:
286,209,16699,5,10,0:2:0:0:
397,151,16804,1,10,0:2:0:0:
364,255,16910,6,0,L|338:66,1,143.820000877808,6|0,1:2|0:0,0:0:0:0:
250,165,17227,2,0,L|265:73,1,71.9100004389038,2|8,0:0|0:2,0:0:0:0:
170,213,17438,2,0,L|155:121,1,71.9100004389038,2|0,0:0|0:0,0:0:0:0:
70,166,17649,2,0,L|85:74,1,71.9100004389038,2|0,0:0|1:2,0:0:0:0:
56,252,17860,1,0,0:0:0:0:
56,252,17966,2,0,L|41:160,1,71.9100004389038,0|0,0:0|0:0,0:0:0:0:
72,352,18177,2,0,L|104:126,1,215.730001316711,10|0,0:2|0:0,0:0:0:0:
110,14,18600,6,0,P|205:39|258:119,1,143.820000877808,2|0,1:2|0:0,0:0:0:0:
404,196,18917,2,0,P|305:167|252:87,1,143.820000877808,2|0,0:0|0:0,0:0:0:0:
278,140,19234,2,0,P|296:228|286:247,1,71.9100004389038,2|0,0:0|0:0,0:0:0:0:
172,318,19445,2,0,P|188:222|229:175,1,143.820000877808,2|0,1:2|0:0,0:0:0:0:
345,16,19762,2,0,P|325:108|284:155,1,143.820000877808,2|0,0:0|0:0,0:0:0:0:
301,147,20079,2,0,P|283:59|293:40,1,71.9100004389038,2|0,0:0|0:0,0:0:0:0:
404,196,20290,5,2,1:2:0:0:
217,138,20501,1,2,0:0:0:0:
217,138,20607,1,2,0:0:0:0:
91,216,20818,1,2,0:0:0:0:
3,143,21029,2,0,L|106:126,1,71.9100004389038,2|0,0:0|1:2,0:0:0:0:
221,224,21241,1,0,0:0:0:0:
221,224,21346,2,0,L|291:235,1,71.9100004389038,0|0,0:0|0:0,0:0:0:0:
464,177,21558,2,0,L|250:210,1,215.730001316711,8|0,0:2|0:0,0:0:0:0:
136,113,21980,5,2,1:2:0:0:
297,308,22191,5,10,0:3:0:0:
265,238,22297,1,2,0:0:0:0:
203,306,22403,5,10,0:2:0:0:
359,239,22508,2,0,L|477:212,1,71.9100004389038,10|0,0:2|0:0,0:0:0:0:
131,195,22720,2,0,L|13:168,1,71.9100004389038,10|0,0:2|1:2,0:0:0:0:
282,77,22931,5,8,0:2:0:0:
136,113,23037,2,0,L|206:96,1,71.9100004389038,2|0,0:0|0:0,0:0:0:0:
442,37,23248,1,10,0:2:0:0:
278,159,23459,5,10,0:2:0:0:
447,217,23565,1,8,0:2:0:0:
370,105,23670,6,0,B|343:226|397:168|361:312,1,173.430002646332,6|0,1:2|0:0,0:0:0:0:
332,349,24093,2,0,P|323:271|302:225,1,115.620001764221,2|0,1:2|0:0,0:0:0:0:
231,219,24410,1,0,0:0:0:0:
231,219,24515,2,0,P|225:247|222:276,1,57.8100008821106,2|0,1:2|0:2,0:0:0:0:
153,322,24727,2,0,P|147:293|144:264,1,57.8100008821106,2|0,0:0|0:0,0:0:0:0:
204,172,24938,2,0,P|134:240|46:214,1,173.430002646332,2|0,1:2|0:0,0:0:0:0:
19,172,25360,1,2,1:2:0:0:
370,286,25572,6,0,P|388:215|381:194,1,57.8100008821106,2|0,0:0|0:0,0:0:0:0:
355,166,25783,1,2,1:2:0:0:
355,166,25889,2,0,P|340:141|335:112,1,57.8100008821106,2|0,0:0|0:0,0:0:0:0:
389,51,26100,2,0,P|334:89|251:71,1,115.620001764221,2|0,0:0|0:0,0:0:0:0:
212,109,26417,2,0,P|133:80|123:83,1,57.8100008821106,2|0,0:0|0:0,0:0:0:0:
103,34,26628,2,0,P|86:101|90:168,1,115.620001764221,2|0,1:2|0:0,0:0:0:0:
115,234,26945,1,0,3:0:0:0:
76,170,27051,1,0,1:2:0:0:
150,378,27262,6,0,P|171:314|167:295,1,57.8100008821106,2|0,0:0|0:0,0:0:0:0:
272,325,27473,1,2,1:2:0:0:
272,325,27579,2,0,P|241:264|225:254,1,57.8100008821106,2|0,0:0|0:0,0:0:0:0:
329,234,27790,2,0,P|243:193|184:216,1,115.620001764221,2|0,0:0|0:0,0:0:0:0:
146,196,28107,2,0,P|222:168|229:160,1,57.8100008821106,2|0,0:0|0:0,0:0:0:0:
321,156,28318,2,0,P|245:128|238:120,1,57.8100008821106,2|0,1:2|0:0,0:0:0:0:
198,110,28529,2,0,P|186:42|190:28,1,57.8100008821106,2|0,0:0|0:0,0:0:0:0:
340,262,28741,5,2,1:2:0:0:
446,86,28952,1,2,0:0:0:0:
446,86,29058,1,2,0:0:0:0:
245,216,29269,1,2,0:0:0:0:
494,124,29480,2,0,B|413:121|458:156|350:152,1,115.620001764221,2|0,0:0|0:0,0:0:0:0:
309,122,29797,1,2,3:2:0:0:
468,286,30008,1,0,1:2:0:0:
406,58,30220,1,0,3:2:0:0:
384,152,30325,1,0,0:0:0:0:
476,82,30431,6,0,P|396:93|284:133,1,173.430002646332,2|0,1:2|0:0,0:0:0:0:
245,209,30853,2,0,P|165:198|53:158,1,173.430002646332,2|0,1:2|0:0,0:0:0:0:
0,117,31276,2,0,P|82:89|167:77,1,173.430002646332,2|0,1:2|0:0,0:0:0:0:
274,108,31699,1,2,1:2:0:0:
141,308,31910,1,2,0:0:0:0:
102,210,32015,1,0,0:0:0:0:
108,317,32121,6,2,P|117:236|131:181,1,115.620001764221,2|2,1:2|0:0,0:0:0:0:
248,247,32438,2,0,P|239:167|241:149,1,57.8100008821106,2|0,0:0|1:2,0:0:0:0:
368,300,32649,2,0,P|377:220|375:202,1,57.8100008821106,2|0,0:0|0:0,0:0:0:0:
465,136,32860,2,0,P|394:200|298:172,1,173.430002646332,2|0,0:0|0:0,0:0:0:0:
512,254,33389,1,2,1:2:0:0:
269,112,33600,1,2,0:0:0:0:
357,158,33706,1,0,0:0:0:0:
302,45,33811,6,0,B|341:142|281:112|321:213,1,173.430002646332,2|0,1:2|0:0,0:0:0:0:
291,300,34234,2,0,P|273:223|249:183,1,115.620001764221,2|0,1:2|0:0,0:0:0:0:
191,144,34551,2,0,P|179:213|180:236,1,57.8100008821106,2|0,0:0|1:2,0:0:0:0:
155,274,34762,1,2,0:0:0:0:
155,274,34868,2,0,P|111:230|120:144,1,115.620001764221,2|0,0:0|1:2,0:0:0:0:
240,21,35290,1,2,0:0:0:0:
126,70,35396,1,0,0:0:0:0:
267,46,35501,6,0,P|150:41|66:30,1,173.430002646332,2|0,1:2|0:0,0:0:0:0:
213,131,35924,1,0,1:2:0:0:
194,140,36029,1,0,0:0:0:0:
288,147,36135,1,8,1:3:0:0:
127,106,36241,1,8,0:0:0:0:
127,106,37191,6,0,P|215:85|237:87,1,64.8599978226929,6|0,1:2|0:0,0:0:0:0:
322,61,37403,2,0,P|290:54|260:41,1,64.8599978226929,2|0,0:0|0:0,0:0:0:0:
211,116,37614,2,0,P|288:163|302:180,1,64.8599978226929,10|0,0:2|0:0,0:0:0:0:
380,222,37825,2,0,P|362:194|350:164,1,64.8599978226929,2|0,0:0|0:0,0:0:0:0:
302,291,38037,2,0,P|240:332|216:332,1,64.8599978226929,2|0,1:2|0:0,0:0:0:0:
129,262,38248,1,2,0:0:0:0:
222,299,38353,1,2,0:0:0:0:
99,332,38459,2,0,P|56:255|80:199,1,129.719995645386,8|2,0:2|0:0,0:0:0:0:
129,167,38776,1,0,0:0:0:0:
198,222,38882,1,0,1:2:0:0:
198,222,39093,6,0,P|195:147|173:127,1,64.8599978226929,2|0,0:0|0:0,0:0:0:0:
59,157,39304,1,10,0:2:0:0:
59,157,39410,2,0,P|62:82|84:62,1,64.8599978226929,2|0,0:0|0:0,0:0:0:0:
129,167,39621,2,0,P|145:270|144:347,1,129.719995645386,2|0,0:0|0:0,0:0:0:0:
222,184,39938,2,0,P|298:164|322:164,1,64.8599978226929,2|0,0:0|0:0,0:0:0:0:
333,224,40149,2,0,P|409:244|433:244,1,64.8599978226929,10|0,0:2|0:0,0:0:0:0:
467,177,40360,1,2,3:2:0:0:
440,298,40466,1,0,0:0:0:0:
441,136,40572,6,0,B|454:234|454:234|448:231|448:231|466:366,1,194.579993468079,2|0,1:2|0:0,0:0:0:0:
364,235,40994,1,10,0:2:0:0:
364,235,41100,2,0,L|358:318,1,64.8599978226929,2|0,0:0|0:0,0:0:0:0:
265,250,41311,2,0,L|291:412,1,129.719995645386,2|0,0:0|0:0,0:0:0:0:
202,310,41628,2,0,L|131:290,1,64.8599978226929,2|0,0:0|0:0,0:0:0:0:
144,206,41839,2,0,L|81:223,1,64.8599978226929,10|0,0:2|0:0,0:0:0:0:
33,149,42051,2,0,L|1:205,1,64.8599978226929,2|0,0:0|0:0,0:0:0:0:
97,311,42262,6,0,L|119:135,1,129.719995645386,2|0,1:2|0:0,0:0:0:0:
187,68,42579,2,0,L|199:156,1,64.8599978226929,2|8,0:0|0:2,0:0:0:0:
272,247,42790,2,0,L|280:182,1,64.8599978226929,2|0,0:0|0:0,0:0:0:0:
164,44,43001,2,0,L|180:208,1,129.719995645386,2|0,0:0|0:0,0:0:0:0:
188,293,43318,1,2,3:2:0:0:
254,29,43529,1,10,0:2:0:0:
312,325,43741,1,2,3:2:0:0:
272,201,43846,1,0,0:0:0:0:
327,295,43952,1,0,1:2:0:0:
327,295,44163,6,0,P|242:277|183:281,1,129.719995645386,2|8,0:0|0:2,0:0:0:0:
66,219,44480,2,0,P|130:218|193:202,1,129.719995645386,2|0,0:0|0:0,0:0:0:0:
287,37,44797,2,0,P|255:117|283:163,1,129.719995645386,2|0,1:2|0:0,0:0:0:0:
381,172,45114,2,0,P|398:111|365:57,1,129.719995645386,2|0,0:0|0:0,0:0:0:0:
311,122,45431,2,0,P|298:165|302:207,1,64.8599978226929,2|0,0:0|0:0,0:0:0:0:
346,317,45642,5,2,1:2:0:0:
143,260,45853,1,2,0:0:0:0:
143,260,45959,1,2,0:0:0:0:
414,159,46170,1,2,0:0:0:0:
164,331,46382,2,0,P|82:317|62:240,1,129.719995645386,2|0,0:0|0:0,0:0:0:0:
82,203,46699,1,2,0:0:0:0:
288,366,46910,1,10,0:2:0:0:
110,129,47121,1,2,3:2:0:0:
371,343,47332,6,0,P|424:261|351:179,1,194.579993468079,2|0,1:2|0:0,0:0:0:0:
294,236,47755,2,0,P|248:256|192:236,1,64.8599978226929,10|0,0:2|0:0,0:0:0:0:
169,197,47966,1,0,0:0:0:0:
169,197,48072,2,0,P|123:177|67:197,1,64.8599978226929,0|0,0:0|1:2,0:0:0:0:
52,235,48283,1,0,0:0:0:0:
52,235,48389,2,0,P|27:151|54:92,1,129.719995645386,0|8,0:0|0:2,0:0:0:0:
59,98,49022,5,2,1:2:0:0:
401,204,49234,5,12,0:2:0:0:
187,325,49445,5,2,1:2:0:0:
222,187,49551,1,8,0:2:0:0:
372,383,49762,5,8,0:2:0:0:
337,246,49868,1,2,1:2:0:0:
106,371,50079,5,8,0:3:0:0:
93,303,50184,1,10,0:3:0:0:
160,291,50290,1,0,1:2:0:0:
173,359,50395,1,4,0:3:0:0:
111,319,50501,5,6,0:3:0:0:
150,259,50607,1,4,0:3:0:0:
212,299,50713,6,0,P|264:315|349:306,1,101.520002478516,6|0,1:2|0:0,0:0:0:0:
372,271,51029,2,0,P|424:255|509:264,1,101.520002478516,2|0,0:0|0:0,0:0:0:0:
470,254,51346,1,0,0:0:0:0:
248,225,51558,2,0,P|230:160|260:143,1,101.520002478516,2|0,0:0|0:0,0:0:0:0:
324,145,51875,2,0,P|351:105|324:65,1,101.520002478516,2|0,0:0|0:0,0:0:0:0:
248,54,52191,1,0,1:2:0:0:
119,286,52403,6,0,P|36:281|6:238,1,101.520002478516,2|0,1:2|0:0,0:0:0:0:
42,198,52720,2,0,P|125:203|155:246,1,101.520002478516,2|0,0:0|0:0,0:0:0:0:
135,212,53037,1,0,0:0:0:0:
279,334,53248,1,2,0:0:0:0:
271,76,53565,1,2,0:0:0:0:
414,197,53882,1,2,0:0:0:0:
144,54,54093,6,0,P|68:67|27:94,1,101.520002478516,2|0,1:2|0:0,0:0:0:0:
79,173,54410,2,0,P|34:236|24:284,1,101.520002478516,2|0,0:0|0:0,0:0:0:0:
28,259,54727,1,0,0:0:0:0:
257,92,54938,2,0,P|333:105|374:132,1,101.520002478516,2|0,0:0|0:0,0:0:0:0:
321,211,55255,2,0,P|365:273|375:322,1,101.520002478516,2|0,0:0|0:0,0:0:0:0:
372,373,55572,1,0,1:2:0:0:
233,172,55783,6,0,P|174:167|148:232,1,101.520002478516,2|0,1:2|0:0,0:0:0:0:
146,269,56100,2,0,P|109:302|61:292,1,101.520002478516,2|0,0:0|0:0,0:0:0:0:
61,292,56417,1,0,0:0:0:0:
134,75,56628,1,0,3:2:0:0:
280,344,56945,5,8,0:3:0:0:
262,235,57051,1,8,0:3:0:0:
472,302,57262,5,4,0:3:0:0:
374,79,57473,6,0,P|291:47|190:81,1,173.430002646332,6|0,1:2|0:0,0:0:0:0:
161,132,57896,1,0,1:2:0:0:
426,239,58107,1,0,0:0:0:0:
69,341,58318,2,0,P|152:373|253:339,1,173.430002646332,2|0,1:2|0:0,0:0:0:0:
282,288,58741,1,0,1:2:0:0:
8,170,58952,1,0,0:0:0:0:
294,4,59163,6,0,P|316:111|318:188,1,173.430002646332,2|0,1:2|0:0,0:0:0:0:
302,265,59586,1,0,1:2:0:0:
140,66,59797,1,0,0:0:0:0:
435,202,60008,1,2,1:2:0:0:
93,365,60220,1,8,0:3:0:0:
347,113,60431,5,8,0:2:0:0:
218,191,60537,1,8,0:2:0:0:
408,172,60642,2,0,P|419:103|407:76,1,57.8100008821106,4|0,1:2|0:0,0:0:0:0:
300,4,60853,1,0,0:0:0:0:
300,4,61065,6,0,L|321:252,1,172.019992912995,14|0,0:0|1:2,0:0:0:0:
106,78,61382,2,0,L|85:326,1,172.019992912995,10|0,0:0|1:2,0:0:0:0:
237,153,61699,6,0,P|329:88|422:121,1,186.119999432007,10|0,0:0|1:2,0:0:0:0:
173,342,62015,2,0,P|82:349|14:290,1,186.119999432007,10|0,0:0|1:2,0:0:0:0:
188,61,62332,1,10,0:0:0:0:
341,347,62544,1,0,0:0:0:0:
341,347,62755,6,0,L|319:104,1,172.019992912995,14|0,0:0|1:2,0:0:0:0:
105,315,63072,2,0,L|127:72,1,172.019992912995,10|0,0:0|1:2,0:0:0:0:
239,259,63389,6,0,P|335:305|407:274,1,186.119999432007,10|0,0:0|1:2,0:0:0:0:
211,93,63706,2,0,P|124:65|46:111,1,186.119999432007,10|0,0:0|1:2,0:0:0:0:
192,332,64022,1,10,0:0:0:0:
348,103,64234,5,14,0:0:0:0:
381,169,64445,1,0,1:0:0:0:
311,196,64656,1,4,1:3:0:0:
278,130,64867,1,2,1:0:0:0:
452,200,65079,1,4,1:3:0:0:
207,93,65290,1,8,1:2:0:0:
349,222,65501,5,10,1:2:0:0:
321,111,65607,1,8,1:2:0:0:
205,180,65713,1,10,1:2:0:0:
233,69,65819,1,8,1:2:0:0:
296,224,65924,1,0,1:2:0:0:
296,224,66135,6,0,L|306:95,1,100.109994959061,14|0,1:2|0:0,0:0:0:0:
29,123,66346,2,0,L|37:223,1,100.109994959061,14|0,1:2|0:0,0:0:0:0:
377,251,66558,2,0,L|384:151,1,100.109994959061,2|0,1:2|0:0,0:0:0:0:
139,167,66769,5,10,0:2:0:0:
342,118,66875,1,10,0:2:0:0:
82,112,67086,5,10,0:2:0:0:
379,184,67192,1,10,0:2:0:0:
309,135,67297,1,10,0:3:0:0:
257,203,67403,1,6,0:3:0:0:
327,252,67508,1,6,0:3:0:0:
292,42,67614,1,14,0:2:0:0:
292,42,67825,6,0,P|284:136|277:212,1,152.280003717774,2|0,0:0|0:0,0:0:0:0:
261,239,68248,6,0,P|258:215|252:182,1,36.6599997762451,2|0,0:0|0:0,0:0:0:0:
227,314,68459,6,0,P|220:237|165:284,1,173.430002646332,2|0,0:0|0:0,0:0:0:0:
164,273,68882,5,2,0:0:0:0:
224,225,68987,5,2,0:0:0:0:
141,165,69093,5,2,0:0:0:0:
233,96,69199,5,2,0:0:0:0:
165,15,69304,6,0,L|177:136,1,86.0099964564973,4|0,1:2|0:0,0:0:0:0:
338,217,69515,2,0,L|346:131,1,86.0099964564973,8|0,0:2|0:0,0:0:0:0:
266,259,69727,1,2,1:2:0:0:
320,320,69832,1,0,1:2:0:0:
383,271,69938,2,0,L|374:185,1,86.0099964564973,10|0,0:2|0:0,0:0:0:0:
141,165,70149,2,0,L|116:366,1,172.019992912995,2|8,1:2|0:2,0:0:0:0:
289,148,70466,2,0,L|280:62,1,86.0099964564973,2|0,1:2|0:0,0:0:0:0:
105,96,70677,1,0,1:2:0:0:
95,179,70783,2,0,L|86:264,1,86.0099964564973,10|0,0:2|0:0,0:0:0:0:
373,201,70994,6,0,P|287:167|217:268,2,172.019992912995,0|8|2,1:2|0:2|1:2,0:0:0:0:
439,309,71522,1,0,1:2:0:0:
453,229,71628,2,0,P|363:273|359:286,1,86.0099964564973,10|0,0:2|0:0,0:0:0:0:
303,362,71839,2,0,P|196:365|159:284,1,172.019992912995,2|10,1:2|0:2,0:0:0:0:
186,137,72156,2,0,P|225:227|218:246,1,86.0099964564973,0|2,1:2|0:0,0:0:0:0:
86,347,72368,1,0,1:2:0:0:
63,276,72473,2,0,P|74:234|104:204,1,86.0099964564973,10|0,0:2|0:0,0:0:0:0:
278,300,72684,6,0,B|315:327|315:327|376:321,1,86.0099964564973,2|0,1:2|0:0,0:0:0:0:
294,177,72896,1,10,0:2:0:0:
294,177,73001,2,0,B|301:222|301:222|348:261,1,86.0099964564973,2|0,0:0|1:2,0:0:0:0:
396,99,73213,1,2,1:2:0:0:
396,99,73318,2,0,B|369:136|369:136|375:196,1,86.0099964564973,10|0,0:2|0:0,0:0:0:0:
364,328,73529,1,2,1:2:0:0:
364,328,73635,2,0,B|390:291|390:291|385:230,1,86.0099964564973,2|8,0:0|0:2,0:0:0:0:
283,149,73846,1,2,1:2:0:0:
283,149,73952,2,0,L|293:267,1,86.0099964564973,2|0,0:0|1:2,0:0:0:0:
475,256,74163,2,0,L|467:170,1,86.0099964564973,10|0,0:2|0:0,0:0:0:0:
248,89,74375,6,0,L|264:315,2,172.019992912995,2|8|0,1:2|0:2|1:2,0:0:0:0:
169,235,74903,1,0,1:2:0:0:
128,177,75008,2,0,L|30:157,1,86.0099964564973,10|0,0:2|0:0,0:0:0:0:
151,318,75220,2,0,L|236:301,1,86.0099964564973,0|0,1:2|0:0,0:0:0:0:
276,121,75431,2,0,L|360:138,1,86.0099964564973,10|0,0:2|1:2,0:0:0:0:
441,268,75642,1,2,0:0:0:0:
419,44,75853,1,10,0:2:0:0:
391,182,75959,1,2,0:0:0:0:
487,103,76065,6,0,B|367:113|447:167|274:174,2,172.019992912995,4|8|0,1:2|0:2|1:2,0:0:0:0:
340,76,76593,1,0,1:2:0:0:
294,139,76699,2,0,P|199:172|140:113,1,172.019992912995,10|0,0:2|1:2,0:0:0:0:
394,319,77121,1,10,0:2:0:0:
350,256,77227,2,0,P|278:213|204:250,1,172.019992912995,0|0,1:2|1:2,0:0:0:0:
365,169,77544,1,8,0:2:0:0:
155,350,77755,6,0,P|124:259|160:162,1,172.019992912995,2|8,1:2|0:2,0:0:0:0:
308,243,78072,2,0,P|339:163|321:80,1,172.019992912995,2|0,0:0|1:2,0:0:0:0:
89,162,78389,1,10,0:2:0:0:
111,94,78494,1,0,0:0:0:0:
182,78,78600,2,0,P|207:172|190:212,1,86.0099964564973,0|0,1:2|0:0,0:0:0:0:
109,308,78811,1,8,0:2:0:0:
162,258,78917,2,0,B|271:256|199:318|348:316,1,172.019992912995,0|0,1:2|1:2,0:0:0:0:
179,336,79234,1,10,0:2:0:0:
460,77,79445,6,0,P|414:57|273:46,1,172.019992912995,6|8,1:2|0:2,0:0:0:0:
93,166,79762,2,0,P|139:146|280:135,1,172.019992912995,2|0,0:0|1:2,0:0:0:0:
97,85,80079,1,10,0:2:0:0:
408,312,80290,6,0,P|446:212|366:151,1,172.019992912995,2|8,1:2|0:2,0:0:0:0:
145,219,80607,2,0,P|108:292|150:364,1,172.019992912995,2|0,1:2|1:2,0:0:0:0:
52,223,80924,1,10,0:2:0:0:
324,345,81135,5,10,0:0:0:0:
273,173,81241,1,8,0:0:0:0:
239,236,81346,5,8,0:0:0:0:
316,236,81452,1,8,0:3:0:0:
344,169,81558,1,10,0:3:0:0:
308,109,81663,1,4,0:3:0:0:
235,112,81769,1,6,0:3:0:0:
201,172,81875,1,4,0:3:0:0:
414,193,81980,6,0,B|474:190|481:124|481:124|432:96|394:120,1,200.219989918122,10|0,1:2|0:0,0:0:0:0:
133,188,82297,2,0,B|72:185|65:119|65:119|114:91|152:115,1,200.219989918122,10|0,1:2|0:0,0:0:0:0:
273,173,82614,1,10,1:2:0:0:
71,352,82825,6,0,P|37:266|51:244,1,86.0099964564973,4|0,1:2|0:0,0:0:0:0:
208,225,83037,2,0,P|238:254|245:295,1,86.0099964564973,8|0,0:2|0:0,0:0:0:0:
133,188,83248,1,2,1:2:0:0:
193,135,83353,1,0,1:2:0:0:
273,173,83459,2,0,P|274:215|249:249,1,86.0099964564973,10|0,0:2|0:0,0:0:0:0:
111,92,83670,2,0,P|192:30|269:59,1,172.019992912995,2|8,1:2|0:2,0:0:0:0:
186,267,83987,2,0,P|103:278|43:220,1,172.019992912995,2|0,1:2|1:2,0:0:0:0:
313,106,84304,2,0,P|358:198|351:220,1,86.0099964564973,10|0,0:2|0:0,0:0:0:0:
269,355,84515,6,0,P|280:258|286:240,1,86.0099964564973,0|0,1:2|0:0,0:0:0:0:
125,113,84727,2,0,P|132:155|132:198,1,86.0099964564973,8|0,0:2|0:0,0:0:0:0:
320,286,84938,1,2,1:2:0:0:
296,197,85044,1,0,1:2:0:0:
215,227,85149,1,10,0:2:0:0:
239,316,85255,1,0,0:0:0:0:
320,286,85360,2,0,P|326:233|316:152,1,86.0099964564973,2|0,1:2|0:0,0:0:0:0:
219,72,85572,1,10,0:2:0:0:
291,113,85677,1,0,1:2:0:0:
371,105,85783,1,2,0:0:0:0:
425,51,85889,1,0,1:2:0:0:
356,26,85994,2,0,P|335:132|338:166,1,86.0099964564973,10|0,0:2|0:0,0:0:0:0:
470,215,86206,6,0,P|458:163|444:122,1,86.0099964564973,2|0,1:2|0:0,0:0:0:0:
340,270,86417,1,10,0:2:0:0:
340,270,86522,2,0,P|368:225|387:186,1,86.0099964564973,2|0,0:0|1:2,0:0:0:0:
214,207,86734,1,2,1:2:0:0:
214,207,86839,2,0,P|265:195|306:181,1,86.0099964564973,10|0,0:2|0:0,0:0:0:0:
165,77,87051,1,2,1:2:0:0:
165,77,87156,2,0,P|209:105|248:124,1,86.0099964564973,2|8,0:0|0:2,0:0:0:0:
371,105,87368,1,2,1:2:0:0:
371,105,87473,2,0,P|326:76|287:57,1,86.0099964564973,2|0,0:0|1:2,0:0:0:0:
117,139,87684,2,0,P|161:167|200:186,1,86.0099964564973,10|0,0:2|0:0,0:0:0:0:
428,112,87896,6,0,P|337:44|265:16,2,172.019992912995,2|8|0,1:2|0:2|1:2,0:0:0:0:
451,210,88424,1,0,1:2:0:0:
378,177,88529,2,0,P|281:142|230:204,1,172.019992912995,10|0,0:2|1:2,0:0:0:0:
373,377,88952,5,10,0:2:0:0:
413,315,89058,2,0,P|369:221|289:229,1,172.019992912995,0|0,1:2|1:2,0:0:0:0:
198,303,89375,1,10,0:2:0:0:
326,257,89480,1,2,0:0:0:0:
167,372,89586,6,0,P|115:274|168:203,2,172.019992912995,4|8|0,1:2|0:2|1:2,0:0:0:0:
237,227,90114,1,0,1:2:0:0:
198,303,90220,2,0,L|181:116,1,172.019992912995,10|0,0:2|1:2,0:0:0:0:
328,277,90642,5,8,0:2:0:0:
273,335,90748,2,0,L|290:148,1,172.019992912995,0|0,1:2|1:2,0:0:0:0:
298,43,91065,1,8,0:2:0:0:
298,43,91276,6,0,B|176:37|262:108|107:104,2,172.019992912995,2|8|0,1:2|0:2|1:2,0:0:0:0:
156,27,91804,1,0,1:2:0:0:
196,101,91910,2,0,P|176:219|171:308,1,172.019992912995,10|0,0:2|1:2,0:0:0:0:
109,147,92227,1,0,0:0:0:0:
109,147,92332,2,0,P|24:123|15:126,1,86.0099964564973,10|0,0:2|1:2,0:0:0:0:
208,200,92544,2,0,P|251:197|287:175,1,86.0099964564973,2|0,0:0|1:2,0:0:0:0:
299,46,92755,1,10,0:2:0:0:
299,46,92966,6,0,B|288:157|342:100|323:257,2,172.019992912995,4|8|0,1:2|0:2|1:2,0:0:0:0:
379,90,93494,1,0,1:2:0:0:
363,168,93600,2,0,P|345:266|347:291,1,86.0099964564973,8|0,0:2|0:0,0:0:0:0:
247,179,93811,2,0,P|241:136|229:95,1,86.0099964564973,0|0,1:2|0:0,0:0:0:0:
201,268,94022,1,8,0:2:0:0:
138,305,94128,2,0,P|53:226|87:178,1,172.019992912995,0|0,1:2|1:2,0:0:0:0:
158,98,94445,5,10,0:2:0:0:
133,226,94551,1,0,1:0:0:0:
84,83,94656,5,10,0:0:0:0:
132,134,94762,1,8,0:3:0:0:
206,130,94868,1,4,0:3:0:0:
253,77,94973,1,6,0:3:0:0:
321,66,95079,5,8,0:0:0:0:
53,157,95290,1,2,1:2:0:0:
288,0,95501,6,0,P|388:35|359:154,1,200.219989918122,10|0,1:2|0:0,0:0:0:0:
103,203,95818,2,0,P|116:109|207:85,1,200.219989918122,10|0,1:2|0:0,0:0:0:0:
310,212,96135,1,10,1:2:0:0:
315,214,96346,6,0,B|166:211|256:306|75:306,2,231.240003528442,6|0|0,1:2|1:2|1:2,0:0:0:0:
90,100,97614,5,10,1:2:0:0:
328,52,97720,1,10,1:2:0:0:
386,291,97825,1,10,1:2:0:0:
147,338,97931,1,10,1:2:0:0:
