osu file format v14

[General]
AudioFilename: audio.mp3
AudioLeadIn: 0
PreviewTime: 46655
Countdown: 0
SampleSet: Soft
StackLeniency: 0.7
Mode: 3
LetterboxInBreaks: 0
SpecialStyle: 0
WidescreenStoryboard: 1

[Editor]
Bookmarks: 6837,12331,18220,29999,41778,47667,59446,72739,79311,86763
DistanceSpacing: 0.9
BeatDivisor: 16
GridSize: 32
TimelineZoom: 1.8

[Metadata]
Title:Rin (TV Size)
TitleUnicode:凛 (TV Size)
Artist:ASCA
ArtistUnicode:ASCA
Creator:ArtZone
Version:DenYi's Normal
Source:グランクレスト戦記
Tags:DenYi Nicknem_ Record of Grancrest War senki op opening female vocal japanese jpop j-pop pop rock jrock j-rock anime hyakka ryouran siluca meletes シルーカ・メルテス theo cornaro テオ・コルネーロ shigenaga ryosuke VVCL-1215 SACRA MUSIC
BeatmapID:3952882
BeatmapSetID:1916012

[Difficulty]
HPDrainRate:7
CircleSize:4
OverallDifficulty:7
ApproachRate:5
SliderMultiplier:1.4
SliderTickRate:1

[Events]
//Background and Video events
0,0,"background.jpg",0,0
//Break Periods
//Storyboard Layer 0 (Background)
//Storyboard Layer 1 (Fail)
//Storyboard Layer 2 (Pass)
//Storyboard Layer 3 (Foreground)
//Storyboard Layer 4 (Overlay)
//Storyboard Sound Samples
Sample,52637,0,"Tom 3.wav",35
Sample,54109,0,"Tom 3.wav",35
Sample,54845,0,"Tom 3.wav",35
Sample,55581,0,"Tom 3.wav",35
Sample,56318,0,"Tom 3.wav",35
Sample,57054,0,"Tom 3.wav",35
Sample,57790,0,"Tom 3.wav",35
Sample,64416,0,"Tom 3.wav",35
Sample,68833,0,"Tom 3.wav",35
Sample,90458,0,"Short Finish.wav",40

[TimingPoints]
150,394.736842105262,4,2,1,50,1,0
150,-93.4579439252336,4,2,1,50,0,0
6465,372.670807453416,4,2,1,50,1,0
6465,-99.009900990099,4,2,1,50,0,0
11589,357.142857142857,4,2,1,50,1,0
11589,-103.092783505155,4,2,1,50,0,0
12145,368.098159509202,4,2,1,50,1,0
12145,-100,4,2,1,50,0,0
12331,368.098159509202,4,2,1,50,1,0
16748,359.281437125748,4,2,1,50,1,0
16748,-102.040816326531,4,2,1,50,0,0
17466,377.358490566038,4,2,1,50,1,0
17466,-97.0873786407767,4,2,1,50,0,0
18220,368.098159509202,4,2,1,50,1,0
18220,-100,4,2,1,50,0,0
47667,-100,4,2,1,50,0,1
58710,-100,4,2,1,50,0,0
59446,-100,4,2,1,50,0,1
69753,-100,4,2,1,50,0,0
71226,357.142857142857,4,2,1,50,1,0
71226,-103.092783505155,4,2,1,50,0,0
71962,368.098159509202,4,2,1,50,1,0
71962,-100,4,2,1,50,0,0
72514,451.127819548872,4,2,1,50,1,0
72514,-81.3008130081301,4,2,1,50,0,0
72739,400,4,2,1,50,1,0
72739,-91.743119266055,4,2,1,50,0,0
74339,413.793103448275,4,2,1,50,1,0
74339,-89.2857142857143,4,2,1,50,0,0
75994,434.782608695653,4,2,1,50,1,0
75994,-84.7457627118644,4,2,1,50,0,0
77733,394.736842105263,4,2,1,50,1,0
77733,-93.4579439252336,4,2,1,50,0,0
79311,379.746835443037,4,2,1,50,1,0
79311,-97.0873786407767,4,2,1,50,0,0
80829,368.098159509202,4,2,1,50,1,0
80829,-100,4,2,1,50,0,0
82301,379.746835443038,4,2,1,50,1,0
82301,-97.0873786407767,4,2,1,50,0,0
83819,368.098159509202,4,2,1,50,1,0
83819,-100,4,2,1,50,0,0
89708,375,4,2,1,50,1,0
89708,-98.0392156862745,4,2,1,50,0,0
91208,365.853658536585,4,2,1,50,1,0
91208,-101.010101010101,4,2,1,50,0,0
91939,365.853658536585,4,2,1,50,1,0
91939,-101.010101010101,4,2,1,50,0,0

[HitObjects]
64,192,6837,128,0,7210:0:0:0:0:
320,192,7210,128,0,7955:0:0:0:0:
192,192,7583,128,0,7955:0:0:0:0:
448,192,7955,128,0,8328:0:0:0:0:
64,192,8328,1,0,0:0:0:0:
64,192,8514,128,0,8887:0:0:0:0:
320,192,8887,128,0,9446:0:0:0:0:
192,192,9446,1,0,0:0:0:0:
448,192,9632,1,0,0:0:0:0:
64,192,9819,1,0,0:0:0:0:
320,192,10005,1,0,0:0:0:0:
192,192,10191,1,0,0:0:0:0:
448,192,10378,1,0,0:0:0:0:
64,192,10564,128,0,10937:0:0:0:0:
448,192,10937,128,0,11589:0:0:0:0:
64,192,11589,1,0,0:0:0:50:Tom 6.wav
320,192,11678,1,0,0:0:0:50:Tom 4.wav
192,192,11767,1,0,0:0:0:50:Tom 5.wav
64,192,11946,128,8,12329:0:0:0:0:
448,192,11946,1,0,0:0:0:50:Short Finish.wav
192,192,12331,1,2,0:0:0:0:
448,192,12331,128,4,12607:0:0:0:0:
64,192,12607,1,8,0:0:0:0:
320,192,12699,1,2,0:0:0:0:
320,192,12883,128,8,13067:0:0:0:0:
64,192,13067,1,2,0:0:0:0:
192,192,13251,1,0,0:0:0:0:
448,192,13343,1,8,0:0:0:0:
192,192,13435,128,2,13619:0:0:0:0:
320,192,13619,1,8,0:0:0:0:
64,192,13803,1,2,0:0:0:0:
448,192,13987,1,0,0:0:0:0:
192,192,14079,1,8,0:0:0:0:
448,192,14171,128,2,14355:0:0:0:0:
64,192,14355,128,8,14539:0:0:0:0:
320,192,14539,128,2,14723:0:0:0:0:
64,192,14723,1,0,0:0:0:0:
448,192,14815,1,8,0:0:0:0:
192,192,14907,128,2,15091:0:0:0:0:
448,192,15091,128,8,15275:0:0:0:0:
64,192,15275,128,2,15521:0:0:0:0:
320,192,15275,1,0,0:0:0:0:
448,192,15521,1,0,0:0:0:0:
192,192,15643,1,2,0:0:0:0:
192,192,15827,128,8,16011:0:0:0:0:
448,192,16011,1,2,0:0:0:0:
320,192,16196,1,8,0:0:0:0:
192,192,16288,1,8,0:0:0:0:
320,192,16380,128,2,16564:0:0:0:0:
64,192,16564,1,0,0:0:0:60:Tom 1.wav
448,192,16564,1,0,0:0:0:0:
64,192,16748,1,2,0:0:0:0:
192,192,16748,1,0,0:0:0:60:Tom 6.wav
320,192,17017,1,2,0:0:0:0:
448,192,17017,1,0,0:0:0:60:Tom 6.wav
64,192,17286,1,2,0:0:0:0:
192,192,17286,1,0,0:0:0:60:Tom 6.wav
320,192,17466,1,10,0:0:0:0:
448,192,17466,1,0,0:0:0:50:soft-hitfinish.wav
192,192,17749,1,10,0:0:0:0:
320,192,17749,1,0,0:0:0:50:soft-hitfinish.wav
64,192,18032,1,10,0:0:0:0:
192,192,18032,1,0,0:0:0:50:soft-hitfinish.wav
64,192,18220,1,2,0:0:0:0:
448,192,18220,1,0,0:0:0:50:soft-hitfinish.wav
448,192,18588,128,0,18979:0:0:0:0:
64,192,18979,128,0,19324:0:0:0:0:
320,192,19324,128,0,19715:0:0:0:0:
192,192,19715,128,0,20083:0:0:0:0:
448,192,20083,128,0,20520:0:0:0:0:
64,192,20290,128,0,20520:0:0:0:0:
320,192,20635,128,0,21003:0:0:0:0:
192,192,21003,1,0,0:0:0:0:
192,192,21164,128,0,21555:0:0:0:0:
448,192,21555,128,0,21762:0:0:0:0:
64,192,21762,128,0,22131:0:0:0:0:
320,192,22131,128,0,22315:0:0:0:0:
320,192,22476,128,0,22821:0:0:0:0:
64,192,22821,1,0,0:0:0:0:
448,192,23005,1,0,0:0:0:0:
192,192,23212,1,0,0:0:0:0:
192,192,23580,1,0,0:0:0:0:
64,192,23741,1,0,0:0:0:20:Short Finish.wav
448,192,23741,128,0,24109:0:0:0:0:
64,192,24109,128,4,24477:0:0:0:0:
320,192,24109,1,2,0:0:0:0:
448,192,24477,1,0,0:0:0:50:Snare Drum.wav
192,192,24661,128,2,25029:0:0:0:0:
320,192,24661,1,0,0:0:0:0:
64,192,24845,1,0,0:0:0:0:
448,192,25029,1,0,0:0:0:0:
64,192,25213,1,0,0:0:0:50:Snare Drum.wav
192,192,25397,1,0,0:0:0:0:
320,192,25581,1,2,0:0:0:0:
448,192,25581,128,0,25950:0:0:0:0:
192,192,25766,1,0,0:0:0:0:
64,192,25950,128,0,26134:0:0:0:50:Snare Drum.wav
192,192,26134,1,2,0:0:0:0:
320,192,26134,128,0,26502:0:0:0:50:Snare Drum.wav
448,192,26318,1,0,0:0:0:0:
64,192,26502,1,0,0:0:0:0:
448,192,26686,1,0,0:0:0:50:Snare Drum.wav
320,192,26870,1,0,0:0:0:0:
64,192,27054,1,2,0:0:0:0:
192,192,27054,128,0,27422:0:0:0:0:
448,192,27422,1,0,0:0:0:50:Snare Drum.wav
64,192,27606,1,2,0:0:0:0:
320,192,27606,128,0,27974:0:0:0:0:
192,192,27790,1,0,0:0:0:0:
448,192,27974,1,0,0:0:0:0:
64,192,28158,1,0,0:0:0:50:Snare Drum.wav
320,192,28342,1,0,0:0:0:0:
192,192,28526,1,2,0:0:0:0:
448,192,28526,128,0,28894:0:0:0:0:
64,192,28894,1,0,0:0:0:50:Snare Drum.wav
192,192,29078,1,2,0:0:0:0:
320,192,29262,1,0,0:0:0:30:Short Finish.wav
448,192,29262,1,0,0:0:0:0:
64,192,29446,1,0,0:0:0:50:Tom 3.wav
448,192,29631,1,0,0:0:0:50:Tom 1.wav
192,192,29723,1,0,0:0:0:0:
320,192,29815,1,0,0:0:0:0:
64,192,29999,1,6,0:0:0:0:
448,192,29999,1,8,0:0:0:0:
320,192,30091,1,8,0:0:0:0:
192,192,30183,1,8,0:0:0:0:
448,192,30551,1,8,0:0:0:0:
64,192,30643,1,8,0:0:0:0:
320,192,30735,1,10,0:0:0:0:
64,192,31103,1,8,0:0:0:0:
192,192,31195,1,8,0:0:0:0:
320,192,31287,1,8,0:0:0:0:
448,192,31471,1,10,0:0:0:0:
64,192,31563,1,8,0:0:0:0:
448,192,31655,1,8,0:0:0:0:
192,192,32023,1,8,0:0:0:0:
320,192,32115,1,8,0:0:0:0:
192,192,32207,1,10,0:0:0:0:
64,192,32575,1,8,0:0:0:0:
448,192,32667,1,8,0:0:0:0:
64,192,32759,1,8,0:0:0:0:
320,192,32943,1,10,0:0:0:0:
192,192,33035,1,8,0:0:0:0:
64,192,33127,1,8,0:0:0:0:
448,192,33496,1,8,0:0:0:0:
192,192,33588,1,8,0:0:0:0:
320,192,33680,1,10,0:0:0:0:
64,192,34048,1,8,0:0:0:0:
192,192,34140,1,8,0:0:0:0:
320,192,34232,1,8,0:0:0:0:
448,192,34416,1,10,0:0:0:0:
64,192,34508,1,8,0:0:0:0:
448,192,34600,1,8,0:0:0:0:
192,192,34968,1,8,0:0:0:0:
320,192,35060,1,8,0:0:0:0:
192,192,35152,1,10,0:0:0:0:
64,192,35520,1,8,0:0:0:0:
448,192,35612,1,8,0:0:0:0:
64,192,35704,1,8,0:0:0:0:
320,192,35888,128,10,36072:0:0:0:0:
448,192,35888,1,4,0:0:0:0:
192,192,36072,1,8,0:0:0:0:
320,192,36256,1,2,0:0:0:0:
64,192,36440,1,8,0:0:0:0:
192,192,36440,128,0,36624:0:0:0:0:
448,192,36624,1,10,0:0:0:0:
192,192,36808,1,0,0:0:0:0:
64,192,36993,128,2,37177:0:0:0:0:
320,192,36993,1,8,0:0:0:0:
192,192,37177,1,8,0:0:0:0:
320,192,37361,1,2,0:0:0:0:
448,192,37361,128,8,37545:0:0:0:0:
64,192,37545,1,8,0:0:0:0:
448,192,37729,1,2,0:0:0:0:
192,192,37913,1,8,0:0:0:0:
320,192,37913,128,0,38097:0:0:0:0:
64,192,38097,1,10,0:0:0:0:
320,192,38281,1,0,0:0:0:0:
64,192,38465,1,2,0:0:0:0:
192,192,38465,128,8,38649:0:0:0:0:
448,192,38649,1,8,0:0:0:0:
192,192,38833,1,8,0:0:0:0:
320,192,38833,128,2,39017:0:0:0:0:
64,192,39017,1,8,0:0:0:0:
320,192,39201,1,2,0:0:0:0:
192,192,39385,1,8,0:0:0:0:
448,192,39385,128,0,39569:0:0:0:0:
64,192,39569,1,10,0:0:0:0:
448,192,39753,1,0,0:0:0:0:
64,192,39937,128,2,40121:0:0:0:0:
192,192,39937,1,8,0:0:0:0:
320,192,40121,1,8,0:0:0:0:
64,192,40305,1,2,0:0:0:0:
448,192,40305,128,8,40489:0:0:0:0:
192,192,40489,1,8,0:0:0:0:
448,192,40673,1,2,0:0:0:0:
64,192,40858,1,8,0:0:0:0:
320,192,40858,128,0,41042:0:0:0:0:
192,192,41042,1,10,0:0:0:0:
448,192,41226,1,8,0:0:0:0:
320,192,41318,1,8,0:0:0:0:
64,192,41410,1,10,0:0:0:0:
192,192,41502,1,8,0:0:0:0:
320,192,41594,1,8,0:0:0:0:
64,192,41778,1,2,0:0:0:0:
448,192,41778,128,4,42054:0:0:0:0:
192,192,42054,1,8,0:0:0:0:
320,192,42146,128,2,42330:0:0:0:0:
64,192,42330,1,8,0:0:0:0:
448,192,42422,1,0,0:0:0:0:
64,192,42514,128,2,42790:0:0:0:0:
320,192,42790,1,8,0:0:0:0:
192,192,42882,128,2,43066:0:0:0:0:
448,192,43066,128,8,43250:0:0:0:0:
64,192,43250,128,2,43526:0:0:0:0:
448,192,43526,1,8,0:0:0:0:
320,192,43618,128,2,43802:0:0:0:0:
64,192,43802,1,8,0:0:0:0:
192,192,43986,128,2,44170:0:0:0:0:
448,192,44170,1,8,0:0:0:0:
64,192,44354,1,10,0:0:0:0:
192,192,44446,1,8,0:0:0:0:
320,192,44539,1,0,0:0:0:60:Tom 1.wav
448,192,44539,1,0,0:0:0:0:
64,192,44723,1,2,0:0:0:0:
192,192,44723,1,4,0:0:0:50:soft-hitfinish.wav
320,192,44999,1,2,0:0:0:0:
448,192,44999,1,4,0:0:0:50:soft-hitfinish.wav
64,192,45275,1,2,0:0:0:0:
192,192,45275,1,4,0:0:0:50:soft-hitfinish.wav
320,192,45459,1,2,0:0:0:0:
448,192,45459,1,0,0:0:0:60:Tom 6.wav
192,192,45735,1,2,0:0:0:0:
320,192,45735,1,0,0:0:0:60:Tom 6.wav
64,192,46011,1,2,0:0:0:0:
192,192,46011,1,0,0:0:0:60:Tom 6.wav
64,192,46195,1,10,0:0:0:0:
448,192,46195,1,0,0:0:0:50:Short Finish.wav
192,192,46471,1,10,0:0:0:0:
320,192,46471,1,0,0:0:0:50:Short Finish.wav
64,192,46747,1,10,0:0:0:0:
448,192,46747,1,0,0:0:0:50:Short Finish.wav
64,192,46931,128,8,47299:0:0:0:0:
448,192,46931,128,2,47299:0:0:0:0:
320,192,47667,128,2,47943:0:0:0:0:
448,192,47667,1,4,0:0:0:0:
64,192,47943,1,8,0:0:0:0:
192,192,47943,1,0,0:0:0:0:
448,192,48035,1,2,0:0:0:0:
192,192,48219,128,8,48404:0:0:0:0:
448,192,48219,1,0,0:0:0:35:Tom 3.wav
320,192,48404,128,2,48680:0:0:0:0:
64,192,48680,1,8,0:0:0:0:
448,192,48680,1,0,0:0:0:0:
192,192,48772,1,2,0:0:0:0:
192,192,48956,1,8,0:0:0:0:
320,192,48956,128,0,49140:0:0:0:35:Tom 3.wav
64,192,49140,128,2,49416:0:0:0:0:
320,192,49416,1,8,0:0:0:0:
448,192,49416,1,0,0:0:0:0:
192,192,49508,1,2,0:0:0:0:
192,192,49692,1,8,0:0:0:0:
320,192,49692,1,0,0:0:0:35:Tom 3.wav
448,192,49876,128,2,50152:0:0:0:0:
64,192,50152,1,8,0:0:0:0:
192,192,50152,1,0,0:0:0:0:
320,192,50244,1,2,0:0:0:0:
192,192,50428,128,8,50612:0:0:0:0:
320,192,50428,1,0,0:0:0:35:Tom 3.wav
448,192,50612,128,2,50796:0:0:0:0:
320,192,50796,1,0,0:0:0:0:
64,192,50888,128,8,51072:0:0:0:0:
192,192,50888,1,0,0:0:0:0:
320,192,51164,128,8,51348:0:0:0:0:
448,192,51164,1,0,0:0:0:35:Tom 3.wav
192,192,51348,128,2,51532:0:0:0:0:
64,192,51532,1,0,0:0:0:0:
320,192,51624,1,8,0:0:0:0:
448,192,51624,128,0,51808:0:0:0:0:
64,192,51900,128,8,52085:0:0:0:0:
192,192,51900,1,0,0:0:0:35:Tom 3.wav
320,192,52085,128,2,52269:0:0:0:0:
448,192,52269,1,0,0:0:0:0:
64,192,52361,1,8,0:0:0:0:
192,192,52361,128,0,53005:0:0:0:0:
448,192,52637,1,8,0:0:0:0:
64,192,52821,1,2,0:0:0:0:
320,192,53005,1,0,0:0:0:0:
64,192,53097,1,8,0:0:0:0:
448,192,53097,1,0,0:0:0:0:
192,192,53281,1,8,0:0:0:0:
320,192,53373,1,8,0:0:0:0:
448,192,53465,1,8,0:0:0:0:
64,192,53557,1,4,0:0:0:0:
192,192,53557,128,2,53741:0:0:0:0:
320,192,53833,1,8,0:0:0:0:
448,192,53833,1,0,0:0:0:0:
192,192,53925,128,2,54109:0:0:0:0:
320,192,54109,128,8,54293:0:0:0:0:
64,192,54293,1,2,0:0:0:0:
448,192,54293,128,0,54477:0:0:0:0:
192,192,54569,1,8,0:0:0:0:
320,192,54569,1,0,0:0:0:0:
448,192,54661,128,2,54845:0:0:0:0:
64,192,54845,128,8,55029:0:0:0:0:
320,192,55029,128,2,55213:0:0:0:0:
448,192,55029,1,0,0:0:0:0:
64,192,55305,1,8,0:0:0:0:
192,192,55305,1,0,0:0:0:0:
320,192,55397,128,2,55581:0:0:0:0:
192,192,55581,128,8,55766:0:0:0:0:
64,192,55766,1,2,0:0:0:0:
448,192,55766,128,0,56042:0:0:0:0:
192,192,56042,1,8,0:0:0:0:
320,192,56042,1,0,0:0:0:0:
64,192,56134,1,2,0:0:0:0:
448,192,56318,1,8,0:0:0:0:
64,192,56502,128,2,56686:0:0:0:0:
448,192,56502,1,0,0:0:0:0:
192,192,56778,1,8,0:0:0:0:
320,192,56778,1,0,0:0:0:0:
64,192,56870,128,2,57054:0:0:0:0:
448,192,57054,128,8,57238:0:0:0:0:
192,192,57238,128,2,57422:0:0:0:0:
320,192,57238,1,0,0:0:0:0:
64,192,57514,1,8,0:0:0:0:
448,192,57514,1,0,0:0:0:0:
192,192,57606,128,2,57790:0:0:0:0:
320,192,57790,128,8,57974:0:0:0:0:
64,192,57974,128,2,58250:0:0:0:0:
448,192,57974,1,0,0:0:0:0:
192,192,58250,1,8,0:0:0:0:
320,192,58250,1,0,0:0:0:0:
448,192,58342,1,2,0:0:0:0:
64,192,58526,1,8,0:0:0:0:
192,192,58526,1,0,0:0:0:35:Tom 3.wav
320,192,58710,1,4,0:0:0:0:
448,192,58710,1,2,0:0:0:0:
64,192,58894,1,0,0:0:0:35:Tom 2.wav
192,192,58986,1,0,0:0:0:40:Tom 2.wav
448,192,59078,1,0,0:0:0:45:Tom 2.wav
320,192,59170,1,0,0:0:0:50:Tom 2.wav
192,192,59262,1,0,0:0:0:50:Tom 3.wav
64,192,59446,128,4,59723:0:0:0:0:
448,192,59446,1,2,0:0:0:0:
192,192,59723,1,8,0:0:0:0:
320,192,59723,1,0,0:0:0:0:
448,192,59815,1,2,0:0:0:0:
192,192,59999,128,8,60183:0:0:0:0:
448,192,59999,1,0,0:0:0:35:Tom 3.wav
320,192,60183,128,2,60459:0:0:0:0:
64,192,60459,1,8,0:0:0:0:
448,192,60459,1,0,0:0:0:0:
192,192,60551,1,2,0:0:0:0:
192,192,60735,128,8,60919:0:0:0:0:
320,192,60735,1,0,0:0:0:35:Tom 3.wav
64,192,60919,1,2,0:0:0:0:
448,192,60919,128,0,61195:0:0:0:0:
192,192,61195,1,8,0:0:0:0:
320,192,61195,1,0,0:0:0:0:
64,192,61287,1,2,0:0:0:0:
64,192,61471,1,8,0:0:0:0:
448,192,61471,1,0,0:0:0:35:Tom 3.wav
320,192,61655,128,2,61931:0:0:0:0:
64,192,61931,1,8,0:0:0:0:
192,192,61931,1,0,0:0:0:0:
448,192,62023,1,2,0:0:0:0:
64,192,62207,128,8,62391:0:0:0:0:
448,192,62207,1,0,0:0:0:35:Tom 3.wav
320,192,62391,128,2,62667:0:0:0:0:
64,192,62667,1,8,0:0:0:0:
448,192,62667,1,0,0:0:0:0:
192,192,62759,1,2,0:0:0:0:
192,192,62943,128,8,63127:0:0:0:0:
320,192,62943,1,0,0:0:0:35:Tom 3.wav
64,192,63127,1,2,0:0:0:0:
448,192,63312,128,0,63680:0:0:0:0:
320,192,63496,1,2,0:0:0:0:
64,192,63680,128,8,63864:0:0:0:0:
192,192,63680,1,0,0:0:0:35:Tom 3.wav
320,192,63864,128,2,64048:0:0:0:0:
448,192,63864,1,0,0:0:0:0:
64,192,64140,1,8,0:0:0:0:
192,192,64232,128,2,64416:0:0:0:0:
320,192,64232,1,0,0:0:0:0:
448,192,64416,1,8,0:0:0:0:
64,192,64600,128,2,64784:0:0:0:0:
192,192,64600,1,0,0:0:0:0:
448,192,64784,1,8,0:0:0:0:
320,192,64876,1,8,0:0:0:0:
192,192,64968,1,2,0:0:0:0:
64,192,65152,1,8,0:0:0:0:
192,192,65244,1,8,0:0:0:0:
320,192,65336,1,4,0:0:0:0:
448,192,65336,128,2,65612:0:0:0:0:
64,192,65612,1,8,0:0:0:0:
192,192,65612,1,0,0:0:0:0:
320,192,65704,1,2,0:0:0:0:
192,192,65888,1,8,0:0:0:0:
320,192,65888,128,0,66072:0:0:0:35:Tom 3.wav
64,192,66072,128,2,66348:0:0:0:0:
320,192,66348,1,8,0:0:0:0:
448,192,66348,1,0,0:0:0:0:
192,192,66440,1,2,0:0:0:0:
192,192,66624,128,8,66808:0:0:0:0:
320,192,66624,1,0,0:0:0:35:Tom 3.wav
64,192,66808,1,2,0:0:0:0:
448,192,66808,128,0,67085:0:0:0:0:
64,192,67085,1,8,0:0:0:0:
320,192,67085,1,0,0:0:0:0:
192,192,67177,1,2,0:0:0:0:
192,192,67361,1,8,0:0:0:0:
320,192,67361,128,0,67545:0:0:0:35:Tom 3.wav
64,192,67545,128,2,67821:0:0:0:0:
192,192,67821,1,8,0:0:0:0:
448,192,67821,1,0,0:0:0:0:
320,192,67913,1,2,0:0:0:0:
64,192,68097,1,8,0:0:0:0:
192,192,68097,1,0,0:0:0:35:Tom 3.wav
320,192,68281,1,4,0:0:0:0:
448,192,68281,128,2,68465:0:0:0:0:
64,192,68557,1,8,0:0:0:0:
192,192,68557,1,0,0:0:0:0:
448,192,68649,128,2,69017:0:0:0:0:
320,192,68833,1,8,0:0:0:0:
64,192,69017,128,2,69201:0:0:0:0:
320,192,69293,1,8,0:0:0:0:
448,192,69293,1,0,0:0:0:0:
64,192,69385,128,2,69753:0:0:0:0:
192,192,69569,1,0,0:0:0:45:Tom 3.wav
320,192,69753,128,2,70121:0:0:0:0:
448,192,69753,1,4,0:0:0:0:
64,192,70121,1,2,0:0:0:0:
192,192,70121,1,0,0:0:0:0:
192,192,70305,1,8,0:0:0:0:
320,192,70489,1,2,0:0:0:0:
448,192,70489,1,0,0:0:0:0:
320,192,70673,1,8,0:0:0:0:
64,192,70858,1,2,0:0:0:0:
192,192,70858,1,0,0:0:0:0:
320,192,71042,1,8,0:0:0:0:
448,192,71042,1,0,0:0:0:0:
64,192,71226,1,8,0:0:0:0:
192,192,71226,1,2,0:0:0:0:
320,192,71404,1,8,0:0:0:0:
448,192,71404,1,0,0:0:0:0:
192,192,71583,1,8,0:0:0:0:
320,192,71583,1,2,0:0:0:0:
64,192,71761,1,8,0:0:0:0:
192,192,71761,1,0,0:0:0:0:
448,192,71962,1,0,0:0:0:50:Tom 4.wav
320,192,72054,1,0,0:0:0:50:Tom 5.wav
192,192,72146,1,0,0:0:0:50:Tom 6.wav
64,192,72330,1,8,0:0:0:0:
448,192,72330,1,4,0:0:0:0:
320,192,72514,128,0,72739:0:0:0:0:
192,192,72739,128,0,73239:0:0:0:0:
448,192,73339,128,0,73539:0:0:0:0:
64,192,73539,128,0,73939:0:0:0:0:
320,192,73939,128,0,74139:0:0:0:0:
192,192,74239,128,0,74752:0:0:0:0:
320,192,74476,128,0,74752:0:0:0:0:
448,192,75270,128,0,75580:0:0:0:0:
192,192,75580,128,0,75787:0:0:0:0:
320,192,75787,128,0,75994:0:0:0:0:
64,192,75994,128,0,76374:0:0:0:0:
320,192,76374,128,0,76917:0:0:0:0:
192,192,76646,128,0,76917:0:0:0:0:
448,192,76917,128,0,77298:0:0:0:0:
64,192,77298,128,0,77515:0:0:0:0:
320,192,77624,128,0,77831:0:0:0:0:
192,192,77831,128,0,78127:0:0:0:0:
448,192,78127,128,0,78522:0:0:0:0:
64,192,78522,1,0,0:0:0:50:Tom 6.wav
192,192,78621,1,0,0:0:0:60:Tom 1.wav
320,192,78719,1,0,0:0:0:60:Tom 2.wav
64,192,78917,128,8,79311:0:0:0:0:
448,192,78917,1,4,0:0:0:0:
320,192,79311,128,2,79690:0:0:0:0:
448,192,79311,128,4,79880:0:0:0:0:
64,192,80070,128,2,80640:0:0:0:0:
192,192,80070,128,4,80450:0:0:0:0:
448,192,80450,128,0,80640:0:0:0:0:
64,192,80829,1,2,0:0:0:0:
448,192,80829,1,0,0:0:0:40:soft-hitfinish.wav
64,192,81105,1,2,0:0:0:0:
448,192,81105,1,0,0:0:0:40:soft-hitfinish.wav
320,192,81381,1,2,0:0:0:0:
448,192,81381,1,0,0:0:0:40:soft-hitfinish.wav
64,192,81565,1,2,0:0:0:0:
192,192,81565,1,0,0:0:0:40:soft-hitfinish.wav
448,192,81749,1,8,0:0:0:0:
320,192,81841,1,8,0:0:0:0:
192,192,81933,1,8,0:0:0:0:
64,192,82117,1,0,0:0:0:60:Tom 1.wav
448,192,82117,1,0,0:0:0:0:
64,192,82301,1,2,0:0:0:0:
448,192,82301,1,0,0:0:0:40:soft-hitfinish.wav
192,192,82585,1,2,0:0:0:0:
320,192,82585,1,0,0:0:0:40:soft-hitfinish.wav
64,192,82870,1,2,0:0:0:0:
448,192,82870,1,0,0:0:0:40:soft-hitfinish.wav
64,192,83060,1,2,0:0:0:0:
192,192,83060,1,0,0:0:0:60:Tom 6.wav
192,192,83345,1,2,0:0:0:0:
320,192,83345,1,0,0:0:0:60:Tom 6.wav
320,192,83630,1,2,0:0:0:0:
448,192,83630,1,0,0:0:0:60:Tom 6.wav
64,192,83819,128,2,84187:0:0:0:0:
448,192,83819,1,4,0:0:0:0:
320,192,84187,1,2,0:0:0:0:
448,192,84187,1,0,0:0:0:0:
320,192,84371,1,8,0:0:0:0:
64,192,84555,1,2,0:0:0:0:
192,192,84555,1,0,0:0:0:0:
192,192,84739,1,8,0:0:0:0:
320,192,84923,1,2,0:0:0:0:
448,192,84923,1,0,0:0:0:0:
64,192,85107,1,8,0:0:0:0:
192,192,85107,1,0,0:0:0:0:
320,192,85291,1,2,0:0:0:0:
448,192,85291,1,8,0:0:0:0:
64,192,85475,1,8,0:0:0:0:
192,192,85475,1,0,0:0:0:0:
64,192,85659,1,10,0:0:0:0:
448,192,85659,1,4,0:0:0:0:
320,192,85843,1,8,0:0:0:0:
192,192,85935,1,8,0:0:0:0:
64,192,86027,1,2,0:0:0:0:
448,192,86211,1,8,0:0:0:0:
320,192,86303,1,8,0:0:0:0:
192,192,86395,1,2,0:0:0:0:
64,192,86579,1,0,0:0:0:60:Tom 2.wav
192,192,86671,1,0,0:0:0:60:Tom 3.wav
320,192,86763,1,2,0:0:0:0:
448,192,86763,128,4,87039:0:0:0:0:
64,192,87039,1,8,0:0:0:0:
192,192,87039,1,0,0:0:0:0:
320,192,87131,1,2,0:0:0:0:
320,192,87315,1,8,0:0:0:0:
64,192,87499,128,2,87776:0:0:0:0:
192,192,87499,1,0,0:0:0:0:
320,192,87776,1,8,0:0:0:0:
448,192,87776,1,0,0:0:0:0:
192,192,87868,1,2,0:0:0:0:
192,192,88052,1,8,0:0:0:0:
64,192,88236,1,2,0:0:0:0:
448,192,88236,128,0,88512:0:0:0:0:
64,192,88512,1,8,0:0:0:0:
192,192,88512,1,0,0:0:0:0:
320,192,88604,1,2,0:0:0:0:
320,192,88788,1,8,0:0:0:0:
64,192,88972,128,2,89156:0:0:0:0:
448,192,88972,1,0,0:0:0:0:
192,192,89156,1,8,0:0:0:0:
320,192,89248,1,8,0:0:0:0:
448,192,89340,1,2,0:0:0:0:
64,192,89524,1,0,0:0:0:60:Tom 3.wav
192,192,89524,1,0,0:0:0:0:
320,192,89708,1,2,0:0:0:0:
448,192,89708,1,0,0:0:0:40:soft-hitfinish.wav
64,192,89989,1,2,0:0:0:0:
448,192,89989,1,0,0:0:0:40:soft-hitfinish.wav
64,192,90270,1,2,0:0:0:0:
192,192,90270,1,0,0:0:0:40:soft-hitfinish.wav
448,192,90458,1,8,0:0:0:0:
320,192,90551,1,0,0:0:0:0:
192,192,90645,1,8,0:0:0:0:
64,192,90833,1,8,0:0:0:0:
192,192,90926,1,0,0:0:0:45:Tom 5.wav
320,192,91020,1,0,0:0:0:50:Tom 5.wav
64,192,91208,1,2,0:0:0:0:
448,192,91208,1,8,0:0:0:0:
192,192,91482,1,8,0:0:0:0:
320,192,91482,1,2,0:0:0:0:
64,192,91756,1,8,0:0:0:0:
448,192,91756,1,2,0:0:0:0:
64,192,91939,1,10,0:0:0:0:
192,192,91939,1,0,0:0:0:40:soft-hitfinish.wav
192,192,92213,1,10,0:0:0:0:
320,192,92213,1,0,0:0:0:40:soft-hitfinish.wav
320,192,92487,128,10,93036:0:0:0:0:
448,192,92487,128,0,93036:0:0:0:40:soft-hitfinish.wav
