osu file format v14

[General]
AudioFilename: audio.mp3
AudioLeadIn: 0
PreviewTime: 46859
Countdown: 0
SampleSet: None
StackLeniency: 0.7
Mode: 0
LetterboxInBreaks: 0
WidescreenStoryboard: 1

[Editor]
Bookmarks: 106757,112095,208375,214184,239903
DistanceSpacing: 1
BeatDivisor: 4
GridSize: 16
TimelineZoom: 1.408001

[Metadata]
Title:Rin
TitleUnicode:凛
Artist:ASCA
ArtistUnicode:ASCA
Creator:-[Shady]-
Version:Grancrest
Source:グランクレスト戦記
Tags:Record of Grancrest War op opening full ver version anime japanese theo cornaro siluca meletes
BeatmapID:1934037
BeatmapSetID:925937

[Difficulty]
HPDrainRate:6
CircleSize:4.2
OverallDifficulty:8.5
ApproachRate:9.4
SliderMultiplier:1.8
SliderTickRate:1

[Events]
//Background and Video events
0,0,"Rin.jpg",0,0
//Break Periods
2,106957,111555
2,208184,213644
//Storyboard Layer 0 (Background)
//Storyboard Layer 1 (Fail)
//Storyboard Layer 2 (Pass)
//Storyboard Layer 3 (Foreground)
//Storyboard Sound Samples

[TimingPoints]
11039,368.098159509202,4,2,1,55,1,0
11775,-125,4,2,1,55,0,0
12143,-125,4,2,1,70,0,0
12511,-100,4,2,1,65,0,0
14443,-100,4,2,1,5,0,0
14535,-100,4,2,1,65,0,0
14627,-100,4,2,1,5,0,0
14719,-100,4,2,1,65,0,0
14812,-100,4,2,1,5,0,0
14904,-100,4,2,1,65,0,0
15180,-100,4,2,1,5,0,0
15272,-100,4,2,1,65,0,0
15364,-100,4,2,1,5,0,0
15456,-100,4,2,1,65,0,0
18400,-166.666666666667,4,2,1,45,0,0
24198,-166.666666666667,4,2,1,5,0,0
24290,-166.666666666667,4,2,1,50,0,0
30180,369.230769230769,4,2,1,55,1,0
30180,-125,4,2,1,55,0,0
35072,-125,4,2,1,5,0,0
35164,-125,4,2,1,55,0,0
39044,365.853658536585,4,2,1,55,1,0
39044,-125,4,2,1,55,0,0
41970,-100,4,2,1,65,0,0
46399,365.853658536585,4,2,1,65,1,0
47862,368.098159509202,4,2,1,85,1,1
47862,-83.3333333333333,4,2,1,85,0,1
58904,-83.3333333333333,4,2,1,85,0,0
59641,-83.3333333333333,4,2,1,85,0,1
71420,-166.666666666667,4,2,1,50,0,0
83199,-125,4,2,1,55,0,0
94978,-100,4,2,1,65,0,0
98567,-100,4,2,1,5,0,0
98659,-100,4,2,1,65,0,0
106757,-166.666666666667,4,2,1,45,0,0
112647,-125,4,2,1,65,0,0
118536,-100,4,2,1,70,0,0
124426,-83.3333333333333,4,2,1,85,0,1
135469,-83.3333333333333,4,2,1,85,0,0
136205,-83.3333333333333,4,2,1,85,0,1
147984,-100,4,2,1,80,0,0
149273,-125,4,2,1,55,0,0
150561,-100,4,2,1,80,0,0
151849,-125,4,2,1,70,0,0
153506,-100,4,2,1,80,0,0
154794,-125,4,2,1,60,0,0
156082,-100,4,2,1,80,0,0
157371,-125,4,2,1,70,0,0
160500,368.098159509202,3,2,1,70,1,0
178168,-125,3,2,1,60,0,0
181113,-111.111111111111,3,2,1,65,0,0
181849,-99.9999999999999,3,2,1,70,0,0
183322,368.098159509202,4,2,1,85,1,1
183322,-83.3333333333333,4,2,1,85,0,1
194364,-83.3333333333333,4,2,1,85,0,0
195101,-83.3333333333333,4,2,1,85,0,1
207616,-100,4,2,1,55,0,0
208375,845.070422535211,4,2,1,30,1,0
208375,-166.666666666667,4,2,1,30,0,0
214184,368.098159509202,4,2,1,50,1,0
214184,-125,4,2,1,50,0,0
214966,372.670807453416,4,2,1,65,1,0
214966,-125,4,2,1,65,0,0
222419,368.098159509202,4,2,1,70,1,0

[Colours]
Combo1 : 219,166,100
Combo2 : 100,219,153
Combo3 : 219,198,100
Combo4 : 153,100,219

[HitObjects]
76,90,11775,5,0,1:0:0:0:
109,76,11867,1,0,1:0:0:0:
144,72,11959,1,0,1:0:0:0:
180,78,12051,1,0,1:0:0:0:
212,93,12143,1,4,1:2:0:0:
385,260,12511,6,0,P|393:208|419:164,1,90,4|0,0:2|0:0,0:0:0:0:
464,122,12787,1,8,0:2:0:0:
464,122,12879,1,2,1:2:0:0:
326,54,13063,2,0,P|281:40|236:46,1,90,2|0,1:2|1:2,0:0:0:0:
129,113,13431,2,0,L|169:89,1,45,2|8,0:2|0:2,0:0:0:0:
205,160,13615,2,0,L|258:239,1,90,2|0,1:2|1:2,0:0:0:0:
319,322,13983,5,0,1:0:0:0:
167,326,14167,2,0,L|120:326,1,45,2|8,0:2|0:2,0:0:0:0:
47,280,14351,2,0,L|100:279,1,45,2|0,1:2|0:0,0:0:0:0:
161,230,14535,2,0,L|114:230,1,45,2|0,1:2|0:0,0:0:0:0:
47,180,14719,2,0,L|100:179,1,45,2|0,1:2|0:0,0:0:0:0:
155,129,14904,2,0,L|108:129,1,45,2|8,0:2|0:2,0:0:0:0:
41,79,15088,2,0,L|94:78,1,45,2|0,1:2|0:0,0:0:0:0:
161,35,15272,2,0,L|114:35,1,45,2|0,1:2|0:0,0:0:0:0:
233,71,15456,6,0,P|278:86|323:82,1,90,2|0,1:2|0:0,0:0:0:0:
385,43,15732,1,8,0:2:0:0:
385,43,15824,1,2,1:2:0:0:
447,112,16008,2,0,P|471:152|470:202,1,90,2|0,1:2|1:0,0:0:0:0:
423,277,16376,1,2,0:2:0:0:
386,251,16468,1,8,0:2:0:0:
341,245,16560,1,0,1:2:0:0:
299,260,16652,1,0,0:0:0:0:
268,292,16744,1,0,1:2:0:0:
255,334,16836,1,0,0:0:0:0:
262,378,16928,5,2,0:2:0:0:
239,96,17204,1,2,0:2:0:0:
88,243,17480,1,2,0:2:0:0:
249,233,17664,5,2,0:2:0:0:
55,87,17940,1,2,0:2:0:0:
32,338,18216,1,2,0:2:0:0:
139,160,18400,6,0,P|159:133|234:98,1,107.999996704102,2|0,1:2|0:0,0:0:0:0:
297,120,18953,1,2,0:2:0:0:
370,157,19137,2,0,P|400:163|428:160,1,53.9999983520508,0|0,0:0|0:0,0:0:0:0:
493,124,19505,2,0,L|516:188,1,53.9999983520508,2|0,0:2|0:0,0:0:0:0:
461,237,19873,6,0,L|452:298,1,53.9999983520508,2|0,0:2|0:0,0:0:0:0:
439,364,20241,1,2,0:2:0:0:
367,320,20425,2,0,P|338:303|312:298,1,53.9999983520508,2|0,0:2|0:0,0:0:0:0:
254,337,20793,2,0,P|225:342|195:338,1,53.9999983520508,2|0,0:2|0:0,0:0:0:0:
130,300,21161,1,0,0:0:0:0:
166,184,21345,6,0,B|177:124|143:126|150:75,1,107.999996704102,2|0,0:2|0:0,0:0:0:0:
214,15,21897,2,0,P|245:33|276:38,1,53.9999983520508,2|0,0:2|0:0,0:0:0:0:
339,15,22265,2,0,P|352:61|337:120,1,107.999996704102,0|0,0:0|0:0,0:0:0:0:
296,188,22818,5,2,0:2:0:0:
361,240,23002,1,2,0:2:0:0:
299,286,23186,1,2,0:2:0:0:
416,181,23370,2,0,B|456:140|456:140|457:81,1,107.999996704102,2|2,0:2|0:2,0:0:0:0:
397,37,23922,2,0,P|361:25|306:27,1,80.9999975280763,2|0,0:2|0:0,0:0:0:0:
297,37,24290,6,0,P|253:51|232:51,1,53.9999983520508,2|0,1:2|0:0,0:0:0:0:
161,23,24658,2,0,L|146:79,1,53.9999983520508,10|2,0:3|0:2,0:0:0:0:
193,137,25026,2,0,L|205:203,1,53.9999983520508,2|0,1:2|0:0,0:0:0:0:
184,285,25394,2,0,P|146:284|128:275,1,53.9999983520508,10|0,0:3|0:0,0:0:0:0:
32,194,25762,6,0,L|30:269,1,53.9999983520508,2|0,1:2|0:0,0:0:0:0:
90,142,26131,1,10,0:3:0:0:
163,175,26315,2,0,P|206:184|223:182,1,53.9999983520508,2|0,1:2|1:0,0:0:0:0:
285,142,26683,2,0,P|323:133|361:135,1,53.9999983520508,2|8,0:2|0:3,0:0:0:0:
409,158,27051,1,2,0:2:0:0:
432,308,27235,6,0,P|402:325|361:326,1,53.9999983520508,2|0,1:2|0:0,0:0:0:0:
271,307,27603,1,10,0:3:0:0:
312,230,27787,2,0,P|319:188|314:166,1,53.9999983520508,2|0,0:2|1:0,0:0:0:0:
272,115,28155,1,2,0:2:0:0:
214,175,28339,1,10,0:3:0:0:
195,100,28523,1,2,0:2:0:0:
236,254,28707,6,0,P|180:249|132:197,1,107.999996704102,2|8,1:2|0:3,0:0:0:0:
113,142,29259,1,2,0:2:0:0:
56,250,29443,1,2,1:2:0:0:
22,182,29627,1,0,1:0:0:0:
13,156,29719,1,0,1:0:0:0:
11,129,29811,1,8,0:3:0:0:
15,102,29903,1,0,1:0:0:0:
24,77,29995,1,0,1:0:0:0:
181,39,30180,5,0,1:2:0:0:
181,39,30272,1,0,1:2:0:0:
181,39,30364,1,0,1:2:0:0:
210,142,30549,1,2,0:2:0:0:
317,104,30733,2,0,L|355:91,2,36,2|0|2,1:2|1:2|1:2,0:0:0:0:
293,196,31103,1,2,0:2:0:0:
185,238,31287,2,0,L|150:255,2,36,2|0|2,1:2|1:2|1:2,0:0:0:0:
96,174,31656,6,0,L|77:143,2,36,2|0|0,1:2|1:2|1:2,0:0:0:0:
152,253,32026,1,2,0:2:0:0:
70,307,32210,2,0,L|35:330,2,36,2|0|0,1:2|1:2|1:2,0:0:0:0:
152,253,32580,1,2,0:2:0:0:
234,331,32764,1,0,1:2:0:0:
234,331,32856,1,0,1:2:0:0:
234,331,32949,1,2,1:2:0:0:
363,329,33133,6,0,L|406:329,2,36,2|0|0,1:2|1:2|1:2,0:0:0:0:
297,258,33503,1,2,0:2:0:0:
368,184,33687,2,0,L|403:153,2,36,2|0|0,1:2|1:2|1:2,0:0:0:0:
281,168,34056,1,2,0:2:0:0:
281,65,34241,1,0,1:2:0:0:
281,65,34333,1,0,1:2:0:0:
281,65,34426,1,2,1:2:0:0:
191,117,34610,5,0,1:2:0:0:
191,117,34703,1,0,1:2:0:0:
191,117,34795,2,0,P|148:133|81:124,1,108,2|0,1:2|0:0,0:0:0:0:
59,109,35164,2,0,L|84:56,2,36,2|0|0,1:2|1:2|1:2,0:0:0:0:
58,286,35718,1,0,1:2:0:0:
58,286,35810,1,0,1:2:0:0:
58,286,35903,1,0,1:2:0:0:
203,235,36087,5,4,1:2:0:0:
203,235,36180,1,0,1:2:0:0:
203,235,36272,1,0,1:2:0:0:
206,327,36456,1,2,0:2:0:0:
303,317,36641,2,0,L|345:313,2,36,2|0|2,1:2|1:2|1:2,0:0:0:0:
296,226,37010,1,2,0:2:0:0:
291,123,37195,2,0,L|286:72,2,36,2|0|2,1:2|1:2|1:2,0:0:0:0:
424,111,37564,6,0,L|466:109,2,36,2|0|0,1:2|1:2|1:2,0:0:0:0:
316,115,37933,1,2,0:2:0:0:
401,199,38118,2,0,L|442:238,2,36,2|0|0,1:2|1:2|1:2,0:0:0:0:
273,186,38487,1,2,0:2:0:0:
273,297,38672,2,0,L|272:342,2,36,0|0|2,1:2|1:2|1:2,0:0:0:0:
157,236,39044,6,0,L|120:237,2,36,0|0|0,0:0|1:2|0:0,0:0:0:0:
185,317,39409,1,0,0:0:0:0:
64,312,39592,2,0,L|24:313,2,36,2|0|2,1:2|1:2|1:2,0:0:0:0:
35,225,39958,1,2,0:2:0:0:
86,155,40141,1,0,1:2:0:0:
86,155,40233,1,0,1:2:0:0:
86,155,40324,1,2,1:2:0:0:
34,60,40507,6,0,L|14:25,2,36,2|0|2,1:2|1:2|1:2,0:0:0:0:
130,71,40873,1,0,0:0:0:0:
220,33,41056,1,2,1:2:0:0:
254,24,41147,1,0,1:2:0:0:
290,24,41238,1,0,0:0:0:0:
325,33,41330,1,0,0:0:0:0:
352,57,41422,1,2,0:2:0:0:
362,91,41513,1,2,0:2:0:0:
350,124,41604,1,0,1:2:0:0:
330,154,41696,1,2,1:2:0:0:
306,180,41787,1,2,1:2:0:0:
302,215,41879,1,0,0:0:0:0:
319,256,41970,6,0,P|354:292|400:309,1,90,4|0,0:2|0:0,0:0:0:0:
475,293,42245,1,8,0:2:0:0:
475,293,42336,1,0,1:0:0:0:
432,175,42519,1,10,1:2:0:0:
432,175,42611,1,0,0:0:0:0:
432,175,42702,6,0,P|379:152|321:151,1,90,0|0,1:0|0:0,0:0:0:0:
268,169,42976,1,8,0:2:0:0:
268,169,43068,1,0,1:0:0:0:
210,51,43251,1,8,0:2:0:0:
160,172,43434,6,0,P|132:207|95:233,1,90,0|0,1:0|0:0,0:0:0:0:
24,270,43708,1,8,0:2:0:0:
24,270,43800,1,0,1:0:0:0:
46,168,43983,1,8,1:2:0:0:
115,249,44165,6,0,L|144:288,1,45,0|0,1:0|0:0,0:0:0:0:
174,316,44348,1,0,0:0:0:0:
212,338,44439,1,8,0:2:0:0:
256,347,44530,1,0,1:0:0:0:
300,339,44622,1,0,1:0:0:0:
339,316,44713,1,8,1:2:0:0:
367,281,44805,1,0,0:0:0:0:
381,239,44896,5,2,0:2:0:0:
248,33,45172,1,2,0:2:0:0:
140,249,45446,1,2,0:2:0:0:
311,126,45629,5,2,0:2:0:0:
65,124,45903,1,2,0:2:0:0:
178,316,46178,1,2,0:2:0:0:
186,127,46399,5,0,0:0:0:0:
87,354,46673,1,2,0:2:0:0:
297,359,46947,1,2,0:2:0:0:
136,236,47130,5,2,0:2:0:0:
406,97,47862,6,0,P|347:81|285:88,1,107.999996704102,4|0,0:2|0:0,0:0:0:0:
193,133,48138,1,8,0:2:0:0:
193,133,48230,1,0,1:0:0:0:
319,276,48414,1,10,0:2:0:0:
92,281,48598,2,0,P|78:217|85:152,1,107.999996704102,2|0,1:2|0:0,0:0:0:0:
112,64,48874,1,10,0:2:0:0:
112,64,48966,1,0,1:0:0:0:
261,215,49150,1,10,0:2:0:0:
459,96,49334,6,0,P|445:154|449:218,1,107.999996704102,2|0,1:2|0:0,0:0:0:0:
470,306,49610,1,8,0:2:0:0:
470,306,49702,1,0,1:0:0:0:
225,317,49886,1,8,0:2:0:0:
306,190,50070,6,0,P|317:135|286:80,1,107.999996704102,2|0,1:2|0:0,0:0:0:0:
205,42,50346,2,0,P|211:100|245:146,1,107.999996704102,10|0,0:2|0:0,0:0:0:0:
306,190,50622,2,0,L|305:253,1,53.9999983520508,10|0,0:2|0:0,0:0:0:0:
309,348,50806,6,0,P|245:355|188:346,1,107.999996704102,2|0,1:2|0:0,0:0:0:0:
90,311,51082,1,10,0:2:0:0:
90,311,51174,1,0,1:0:0:0:
135,147,51358,1,10,0:2:0:0:
7,211,51542,2,0,P|-3:133|15:87,1,107.999996704102,2|0,1:2|0:0,0:0:0:0:
67,25,51819,1,10,0:2:0:0:
67,25,51911,1,0,1:0:0:0:
135,147,52095,1,10,0:2:0:0:
254,86,52279,6,0,P|306:71|371:76,1,107.999996704102,2|0,1:2|0:0,0:0:0:0:
432,133,52555,2,0,L|432:187,1,53.9999983520508,10|0,0:2|1:0,0:0:0:0:
432,21,52831,1,8,0:2:0:0:
336,166,53015,2,0,L|266:261,1,107.999996704102,0|0,1:0|0:0,0:0:0:0:
186,352,53291,1,8,0:2:0:0:
112,342,53383,1,0,1:0:0:0:
57,291,53475,1,0,0:0:0:0:
43,218,53567,1,10,0:2:0:0:
75,151,53659,1,0,0:0:0:0:
140,115,53751,6,0,P|198:94|270:92,1,107.999996704102,2|0,1:2|0:0,0:0:0:0:
358,119,54027,1,10,0:2:0:0:
358,119,54119,1,0,1:0:0:0:
232,217,54303,1,10,0:2:0:0:
392,281,54487,2,0,P|450:244|470:198,1,107.999996704102,2|0,1:2|0:0,0:0:0:0:
466,112,54763,1,10,0:2:0:0:
466,112,54855,1,0,1:0:0:0:
294,169,55039,1,10,0:2:0:0:
368,9,55223,6,0,L|255:9,1,107.999996704102,2|0,1:2|0:0,0:0:0:0:
177,16,55500,2,0,P|154:70|152:118,1,107.999996704102,10|0,0:2|0:0,0:0:0:0:
192,196,55776,2,0,L|145:235,1,53.9999983520508,10|0,0:2|0:0,0:0:0:0:
65,300,55960,6,0,P|117:350|179:359,1,107.999996704102,2|0,1:2|0:0,0:0:0:0:
254,337,56236,1,8,0:2:0:0:
254,337,56328,1,0,1:0:0:0:
237,122,56512,1,10,0:2:0:0:
353,217,56696,6,0,P|412:247|468:249,1,107.999996704102,2|0,1:2|0:0,0:0:0:0:
511,175,56972,1,10,0:2:0:0:
511,175,57064,1,0,1:0:0:0:
420,27,57248,1,10,0:2:0:0:
306,126,57432,2,0,P|255:149|185:144,1,107.999996704102,2|0,1:2|0:0,0:0:0:0:
101,115,57708,1,10,0:2:0:0:
101,115,57800,1,0,1:0:0:0:
127,270,57984,1,10,0:2:0:0:
14,169,58168,6,0,P|4:113|20:53,1,107.999996704102,2|0,1:2|0:0,0:0:0:0:
97,1,58444,1,8,0:2:0:0:
97,1,58536,1,0,1:0:0:0:
165,131,58720,1,8,0:2:0:0:
274,75,58904,5,2,1:2:0:0:
345,53,58996,1,0,0:0:0:0:
418,70,59088,1,2,1:2:0:0:
472,122,59180,1,0,1:0:0:0:
493,194,59272,1,0,1:2:0:0:
475,266,59364,1,2,1:2:0:0:
423,320,59456,1,0,1:2:0:0:
352,341,59548,1,0,1:0:0:0:
279,322,59641,6,0,P|220:304|172:308,1,107.999996704102,6|0,0:2|0:0,0:0:0:0:
82,350,59917,1,8,0:2:0:0:
82,350,60009,1,0,1:0:0:0:
123,169,60193,1,10,0:2:0:0:
286,212,60377,2,0,P|346:219|403:195,1,107.999996704102,2|0,1:2|0:0,0:0:0:0:
445,149,60653,2,0,P|410:94|355:68,1,107.999996704102,10|0,0:2|0:0,0:0:0:0:
297,53,60929,2,0,L|257:112,1,53.9999983520508,10|0,0:2|0:0,0:0:0:0:
206,177,61113,6,0,P|153:143|72:142,1,107.999996704102,0|0,1:0|0:0,0:0:0:0:
3,166,61389,1,8,0:2:0:0:
3,166,61481,1,0,1:0:0:0:
19,27,61665,1,8,0:2:0:0:
110,135,61849,6,0,P|120:192|106:262,1,107.999996704102,2|0,1:2|0:0,0:0:0:0:
98,326,62125,2,0,L|206:344,1,107.999996704102,10|0,0:2|0:0,0:0:0:0:
290,320,62401,2,0,L|299:260,1,53.9999983520508,10|0,0:2|0:0,0:0:0:0:
309,177,62585,6,0,P|380:142|420:144,1,107.999996704102,2|0,1:2|0:0,0:0:0:0:
497,191,62861,1,10,0:2:0:0:
497,191,62954,1,0,1:0:0:0:
388,258,63138,1,10,0:2:0:0:
365,115,63322,2,0,P|330:66|274:47,1,107.999996704102,0|2,1:0|0:2,0:0:0:0:
196,35,63598,1,8,0:2:0:0:
196,35,63690,1,0,1:0:0:0:
266,143,63874,1,10,0:2:0:0:
132,160,64058,6,0,P|60:189|32:220,1,107.999996704102,0|0,1:0|0:0,0:0:0:0:
12,298,64334,1,8,0:2:0:0:
12,298,64426,1,0,1:0:0:0:
135,377,64610,1,8,0:2:0:0:
247,277,64794,5,0,1:0:0:0:
310,236,64886,1,0,1:0:0:0:
385,236,64978,1,0,1:0:0:0:
438,288,65070,1,8,0:2:0:0:
386,342,65162,1,0,1:0:0:0:
317,313,65254,1,0,1:0:0:0:
310,236,65346,1,10,0:2:0:0:
344,168,65438,1,0,1:2:0:0:
380,101,65530,6,0,P|344:52|286:33,1,107.999996704102,2|0,1:2|0:0,0:0:0:0:
205,31,65806,1,10,0:2:0:0:
205,31,65898,1,0,1:0:0:0:
268,170,66082,1,10,0:2:0:0:
135,194,66266,6,0,P|72:210|29:255,1,107.999996704102,2|0,1:2|0:0,0:0:0:0:
10,331,66542,1,10,0:2:0:0:
10,331,66635,1,0,1:0:0:0:
8,154,66819,1,10,0:2:0:0:
125,284,67003,6,0,P|182:309|256:309,1,107.999996704102,2|0,1:2|0:0,0:0:0:0:
303,286,67279,2,0,P|316:225|315:161,1,107.999996704102,10|0,0:2|0:0,0:0:0:0:
306,102,67555,2,0,L|365:96,1,53.9999983520508,10|0,0:2|0:0,0:0:0:0:
464,89,67739,6,0,P|477:151|468:198,1,107.999996704102,2|0,1:2|0:0,0:0:0:0:
439,284,68015,1,8,0:2:0:0:
439,284,68107,1,0,1:0:0:0:
316,183,68291,1,10,0:2:0:0:
316,183,68383,1,0,0:0:0:0:
316,183,68475,6,0,P|264:159|207:155,1,107.999996704102,2|0,1:2|0:0,0:0:0:0:
125,184,68751,1,10,0:2:0:0:
125,184,68843,1,0,1:0:0:0:
237,257,69027,1,10,0:2:0:0:
285,90,69211,2,0,P|247:48|197:31,1,107.999996704102,2|0,1:2|0:0,0:0:0:0:
109,25,69487,1,10,0:2:0:0:
109,25,69579,1,0,1:0:0:0:
23,130,69763,1,10,0:2:0:0:
23,130,69855,1,0,0:0:0:0:
23,130,69947,5,2,1:2:0:0:
51,199,70039,1,0,1:0:0:0:
101,255,70131,1,0,1:0:0:0:
175,269,70223,1,0,1:2:0:0:
243,236,70315,1,0,1:0:0:0:
285,172,70408,1,0,1:0:0:0:
313,101,70500,1,0,1:2:0:0:
358,40,70592,1,0,1:0:0:0:
432,29,70684,1,0,1:0:0:0:
489,78,70776,1,0,1:0:0:0:
497,153,70868,1,0,1:0:0:0:
455,215,70960,1,0,1:2:0:0:
388,251,71052,1,0,1:0:0:0:
335,261,71144,1,0,1:0:0:0:
281,254,71236,1,0,1:2:0:0:
235,224,71328,1,0,1:0:0:0:
206,182,71420,6,0,P|174:143|114:111,1,107.999996704102,4|2,1:2|1:2,0:0:0:0:
42,133,71972,1,2,0:2:0:0:
83,204,72156,2,0,L|109:255,1,53.9999983520508,0|0,1:0|0:0,0:0:0:0:
50,307,72524,1,0,1:0:0:0:
50,307,72708,1,2,0:2:0:0:
151,357,72892,6,0,P|188:362|213:359,1,53.9999983520508,2|0,1:2|0:0,0:0:0:0:
274,316,73260,2,0,P|311:305|337:303,1,53.9999983520508,0|0,1:0|0:0,0:0:0:0:
412,324,73628,2,0,P|428:272|410:200,1,107.999996704102,2|0,1:2|1:0,0:0:0:0:
377,149,74181,1,2,0:2:0:0:
377,149,74273,1,2,0:2:0:0:
377,149,74365,6,0,B|312:166|311:135|265:144,1,107.999996704102,2|0,1:2|1:0,0:0:0:0:
202,186,74917,2,0,L|185:237,1,53.9999983520508,2|0,0:2|1:0,0:0:0:0:
135,300,75285,1,0,0:0:0:0:
72,246,75469,2,0,L|19:205,1,53.9999983520508,2|0,1:2|0:0,0:0:0:0:
26,132,75837,1,0,1:0:0:0:
26,132,76021,1,0,0:0:0:0:
114,29,76205,5,4,1:2:0:0:
184,97,76389,1,0,0:0:0:0:
184,97,76481,1,0,0:0:0:0:
184,97,76573,1,0,1:0:0:0:
247,142,76757,1,0,1:0:0:0:
273,142,76849,1,0,1:0:0:0:
297,130,76941,1,0,1:0:0:0:
317,112,77033,1,0,1:0:0:0:
335,92,77125,1,0,1:0:0:0:
344,66,77217,1,0,1:0:0:0:
350,39,77309,6,0,P|375:17|452:32,1,107.999996704102,4|0,1:2|1:0,0:0:0:0:
472,209,78046,2,0,L|447:152,1,53.9999983520508,0|0,1:0|0:0,0:0:0:0:
381,106,78414,2,0,L|360:164,1,53.9999983520508,0|0,1:0|0:0,0:0:0:0:
319,266,78782,6,0,P|281:276|250:269,1,53.9999983520508,2|0,1:2|0:0,0:0:0:0:
188,242,79150,2,0,P|159:232|121:229,1,53.9999983520508,2|0,1:2|0:0,0:0:0:0:
59,260,79518,2,0,L|37:202,1,53.9999983520508,2|0,1:2|0:0,0:0:0:0:
88,145,79886,2,0,L|101:82,1,53.9999983520508,0|2,1:0|0:2,0:0:0:0:
199,20,80254,6,0,P|241:13|272:17,1,53.9999983520508,2|0,1:2|0:0,0:0:0:0:
319,52,80622,1,0,1:0:0:0:
271,107,80806,1,2,0:2:0:0:
353,124,80990,1,0,1:0:0:0:
353,124,81174,1,0,1:0:0:0:
276,243,81358,2,0,L|294:177,1,53.9999983520508,8|0,1:2|0:0,0:0:0:0:
198,278,81727,5,2,1:2:0:0:
434,229,82003,1,2,1:2:0:0:
231,73,82279,1,2,1:2:0:0:
311,256,82463,5,10,1:2:0:0:
333,36,82739,1,2,1:2:0:0:
128,115,83015,1,2,1:2:0:0:
321,150,83199,6,0,P|363:158|401:157,1,72,4|2,0:2|0:2,0:0:0:0:
504,116,83567,1,10,0:2:0:0:
508,230,83751,2,0,L|508:302,1,72,2|0,1:2|0:0,0:0:0:0:
438,364,84119,2,0,P|402:348|366:341,1,72,2|8,1:2|0:2,0:0:0:0:
286,362,84487,1,2,0:2:0:0:
239,249,84671,6,0,P|214:191|213:164,1,72,2|0,1:2|0:0,0:0:0:0:
214,62,85039,1,10,0:2:0:0:
120,142,85223,2,0,L|61:185,1,72,2|0,1:2|0:0,0:0:0:0:
2,261,85592,2,0,L|61:304,1,72,2|8,1:2|0:2,0:0:0:0:
132,354,85960,1,2,0:2:0:0:
243,280,86144,6,0,P|281:262|318:260,1,72,2|2,1:2|0:2,0:0:0:0:
429,300,86512,1,10,0:2:0:0:
475,212,86696,2,0,L|498:133,1,72,2|0,1:2|0:0,0:0:0:0:
442,82,87064,2,0,L|425:4,1,72,2|8,1:2|0:2,0:0:0:0:
337,7,87432,1,2,0:2:0:0:
238,77,87616,6,0,P|191:93|157:93,1,72,2|0,1:2|0:0,0:0:0:0:
52,68,87984,1,10,0:2:0:0:
55,178,88168,2,0,L|58:264,1,72,2|0,1:2|0:0,0:0:0:0:
88,331,88536,1,2,1:2:0:0:
197,278,88720,2,0,P|232:262|268:261,1,72,10|0,0:2|0:0,0:0:0:0:
421,327,89088,6,0,L|420:235,1,72,2|2,1:2|0:2,0:0:0:0:
404,116,89457,1,10,0:2:0:0:
309,166,89641,2,0,P|268:173|227:164,1,72,2|0,1:2|0:0,0:0:0:0:
172,115,90009,2,0,P|139:100|88:95,1,72,2|8,1:2|0:2,0:0:0:0:
25,113,90377,1,2,0:2:0:0:
90,200,90561,6,0,P|99:237|95:279,1,72,2|2,1:2|0:2,0:0:0:0:
65,374,90929,1,10,0:2:0:0:
174,377,91113,2,0,L|254:375,1,72,2|0,1:2|0:0,0:0:0:0:
315,320,91481,2,0,L|392:320,1,72,2|8,1:2|0:2,0:0:0:0:
473,324,91849,1,2,0:2:0:0:
503,208,92033,6,0,P|514:160|512:122,1,72,2|2,1:2|0:2,0:0:0:0:
486,17,92401,1,10,0:2:0:0:
431,85,92585,1,2,1:2:0:0:
409,2,92769,1,2,0:2:0:0:
348,64,92954,1,0,1:0:0:0:
219,31,93138,1,8,0:2:0:0:
216,124,93322,6,0,P|214:177|197:222,1,72,2|0,0:2|1:0,0:0:0:0:
167,268,93690,1,2,0:2:0:0:
117,195,93874,2,0,P|83:164|49:148,1,72,10|2,0:2|1:2,0:0:0:0:
14,224,94242,1,2,1:2:0:0:
9,259,94334,1,0,1:0:0:0:
15,294,94426,1,2,1:2:0:0:
31,326,94518,1,0,1:0:0:0:
56,352,94610,1,10,0:2:0:0:
88,369,94702,1,0,1:0:0:0:
123,376,94794,1,0,1:0:0:0:
158,372,94886,1,0,1:0:0:0:
191,358,94978,6,0,P|247:338|335:346,1,135,4|0,0:2|1:0,0:0:0:0:
360,364,95346,1,0,1:0:0:0:
392,263,95530,1,4,0:3:0:0:
474,313,95714,1,0,1:0:0:0:
435,194,95898,1,4,0:3:0:0:
392,263,96082,1,0,1:0:0:0:
326,182,96266,1,0,0:0:0:0:
385,80,96450,6,0,P|345:47|246:49,1,135,0|0,1:0|1:0,0:0:0:0:
226,66,96819,1,0,1:0:0:0:
97,30,97003,2,0,P|74:82|114:205,1,180,2|0,0:2|1:0,0:0:0:0:
134,230,97463,1,0,1:0:0:0:
174,250,97555,1,0,1:0:0:0:
218,252,97647,1,0,1:0:0:0:
256,229,97739,1,0,1:0:0:0:
298,214,97831,1,0,0:0:0:0:
342,222,97923,6,0,P|389:238|428:327,1,135,4|0,0:2|1:0,0:0:0:0:
429,354,98291,2,0,P|350:369|288:350,1,135,2|0,1:2|0:0,0:0:0:0:
266,323,98659,1,2,1:2:0:0:
265,208,98843,2,0,L|265:115,2,90,6|0|2,0:3|1:2|0:2,0:0:0:0:
150,282,99395,6,0,P|89:295|16:244,1,135,0|0,1:0|1:0,0:0:0:0:
5,222,99763,1,0,1:0:0:0:
110,208,99947,1,0,1:0:0:0:
53,141,100131,1,2,1:2:0:0:
39,98,100223,1,2,1:2:0:0:
51,56,100315,1,2,1:2:0:0:
85,28,100407,1,2,1:2:0:0:
130,24,100499,1,10,1:2:0:0:
168,49,100592,1,2,1:2:0:0:
202,77,100684,1,2,1:2:0:0:
246,81,100776,1,2,1:2:0:0:
288,65,100868,6,0,P|338:49|432:88,1,135,6|0,1:2|1:0,0:0:0:0:
452,96,101236,1,0,1:0:0:0:
383,174,101420,1,4,0:3:0:0:
495,191,101604,1,0,1:0:0:0:
421,274,101788,2,0,P|365:310|316:315,1,90,4|0,0:3|1:0,0:0:0:0:
254,295,102156,1,0,0:0:0:0:
294,200,102340,6,0,P|294:148|277:100,1,90,0|2,1:0|1:2,0:0:0:0:
219,43,102708,1,2,1:2:0:0:
142,102,102892,2,0,P|93:112|39:101,1,90,2|0,1:2|1:2,0:0:0:0:
30,193,103260,1,10,0:2:0:0:
29,237,103352,1,8,0:2:0:0:
29,282,103444,1,10,0:2:0:0:
48,323,103536,1,0,1:0:0:0:
87,344,103628,1,2,1:2:0:0:
131,351,103720,1,0,1:0:0:0:
174,339,103812,6,0,P|219:328|281:256,1,135,4|0,1:2|1:0,0:0:0:0:
283,219,104181,1,2,1:2:0:0:
374,302,104365,1,6,0:3:0:0:
402,199,104549,2,0,L|424:104,1,90,2|6,1:2|0:3,0:0:0:0:
444,28,104917,1,0,1:0:0:0:
503,102,105101,1,2,0:2:0:0:
345,52,105285,5,0,1:0:0:0:
303,37,105377,1,0,1:0:0:0:
259,46,105469,1,2,1:2:0:0:
227,77,105561,1,0,1:0:0:0:
216,120,105653,1,10,1:2:0:0:
214,165,105745,1,0,1:0:0:0:
213,209,105837,1,2,1:2:0:0:
213,253,105929,1,0,1:0:0:0:
214,297,106021,5,10,1:2:0:0:
191,335,106113,1,0,1:0:0:0:
151,356,106205,1,0,1:0:0:0:
106,349,106297,1,0,1:0:0:0:
78,313,106389,1,10,1:2:0:0:
86,268,106481,1,0,1:0:0:0:
126,247,106573,1,0,1:0:0:0:
169,260,106665,1,0,1:0:0:0:
214,297,106757,5,2,0:2:0:0:
112,79,112095,5,0,1:0:0:0:
112,79,112187,1,0,1:0:0:0:
112,79,112279,1,0,1:0:0:0:
203,235,112647,5,4,1:2:0:0:
203,235,112740,1,0,1:2:0:0:
203,235,112832,1,0,1:2:0:0:
206,327,113016,1,2,0:2:0:0:
303,317,113199,2,0,L|345:313,2,36,2|0|2,1:2|1:2|1:2,0:0:0:0:
296,226,113567,1,2,0:2:0:0:
291,123,113751,2,0,L|286:72,2,36,2|0|2,1:2|1:2|1:2,0:0:0:0:
424,111,114119,6,0,L|466:109,2,36,2|0|0,1:2|1:2|1:2,0:0:0:0:
316,115,114487,1,2,0:2:0:0:
401,199,114671,2,0,L|442:238,2,36,2|0|0,1:2|1:2|1:2,0:0:0:0:
273,186,115039,1,2,0:2:0:0:
273,297,115223,2,0,L|272:342,2,36,0|0|2,1:2|1:2|1:2,0:0:0:0:
157,236,115592,6,0,L|120:237,2,36,2|0|2,1:2|1:2|1:2,0:0:0:0:
185,317,115960,1,0,1:0:0:0:
64,312,116144,2,0,L|24:313,2,36,2|0|0,1:2|0:0|0:0,0:0:0:0:
35,225,116512,1,2,0:2:0:0:
86,155,116696,1,0,1:2:0:0:
86,155,116788,1,0,1:2:0:0:
86,155,116880,1,2,1:2:0:0:
34,60,117064,6,0,L|14:25,2,36,2|0|2,1:2|1:2|1:2,0:0:0:0:
130,71,117432,1,0,0:0:0:0:
220,33,117616,1,2,1:2:0:0:
254,24,117708,1,0,1:2:0:0:
290,24,117800,1,2,1:2:0:0:
325,33,117892,1,0,0:0:0:0:
352,57,117984,1,2,0:2:0:0:
362,91,118076,1,2,0:2:0:0:
350,124,118168,1,0,1:2:0:0:
330,154,118260,1,2,1:2:0:0:
306,180,118352,1,2,1:2:0:0:
302,215,118444,1,0,0:0:0:0:
319,256,118536,6,0,P|354:292|400:309,1,90,4|0,0:2|0:0,0:0:0:0:
475,293,118812,1,8,0:2:0:0:
475,293,118904,1,0,1:0:0:0:
432,175,119088,1,10,1:2:0:0:
432,175,119181,1,0,0:0:0:0:
432,175,119273,6,0,P|379:152|321:151,1,90,0|0,1:0|0:0,0:0:0:0:
268,169,119549,1,8,0:2:0:0:
268,169,119641,1,0,1:0:0:0:
210,51,119825,1,8,0:2:0:0:
160,172,120009,6,0,P|132:207|95:233,1,90,0|0,1:0|0:0,0:0:0:0:
24,270,120285,1,8,0:2:0:0:
24,270,120377,1,0,1:0:0:0:
46,168,120561,1,8,1:2:0:0:
115,249,120745,6,0,L|144:288,1,45,0|0,1:0|1:0,0:0:0:0:
174,316,120929,1,0,1:0:0:0:
212,338,121021,1,8,0:2:0:0:
256,347,121114,1,0,1:0:0:0:
300,339,121206,1,0,1:0:0:0:
339,316,121297,1,8,1:2:0:0:
367,281,121389,1,0,0:0:0:0:
381,239,121480,5,2,0:2:0:0:
248,33,121757,1,2,0:2:0:0:
140,249,122033,1,2,0:2:0:0:
311,126,122217,5,2,0:2:0:0:
65,124,122493,1,2,0:2:0:0:
178,316,122769,1,2,0:2:0:0:
186,127,122954,5,2,0:2:0:0:
87,354,123230,1,2,0:2:0:0:
297,359,123506,1,2,0:2:0:0:
136,236,123690,5,2,0:2:0:0:
227,196,123874,1,0,1:0:0:0:
227,196,123966,1,0,1:0:0:0:
227,196,124058,1,4,0:2:0:0:
66,33,124426,6,0,P|43:89|45:150,1,107.999996704102,4|0,0:2|0:0,0:0:0:0:
73,228,124702,1,8,0:2:0:0:
73,228,124794,1,0,1:0:0:0:
150,98,124978,1,10,0:2:0:0:
251,180,125162,2,0,P|308:206|378:210,1,107.999996704102,2|0,1:2|0:0,0:0:0:0:
441,178,125438,1,10,0:2:0:0:
441,178,125530,1,0,1:0:0:0:
410,287,125714,1,10,0:2:0:0:
338,100,125898,6,0,P|281:55|233:38,1,107.999996704102,2|0,1:2|0:0,0:0:0:0:
155,26,126174,1,8,0:2:0:0:
155,26,126266,1,0,1:0:0:0:
75,148,126450,1,8,0:2:0:0:
219,159,126635,6,0,P|239:216|234:286,1,107.999996704102,2|0,1:2|0:0,0:0:0:0:
222,345,126911,2,0,L|334:349,1,107.999996704102,10|0,0:2|0:0,0:0:0:0:
411,330,127187,2,0,L|432:273,1,53.9999983520508,10|0,0:2|0:0,0:0:0:0:
453,183,127371,6,0,P|444:127|386:65,1,107.999996704102,2|0,1:2|0:0,0:0:0:0:
340,41,127647,1,10,0:2:0:0:
340,41,127739,1,0,1:0:0:0:
324,169,127923,1,10,0:2:0:0:
232,84,128107,2,0,P|180:67|121:72,1,107.999996704102,2|0,1:2|0:0,0:0:0:0:
41,113,128383,1,10,0:2:0:0:
41,113,128475,1,0,1:0:0:0:
134,192,128659,1,10,0:2:0:0:
58,297,128843,6,0,P|117:332|172:333,1,107.999996704102,2|0,1:2|0:0,0:0:0:0:
240,302,129119,1,10,0:2:0:0:
240,302,129211,1,0,1:0:0:0:
134,192,129395,2,0,P|191:157|245:153,1,107.999996704102,8|0,0:2|1:0,0:0:0:0:
344,213,129763,1,0,1:0:0:0:
416,227,129855,1,8,0:2:0:0:
478,187,129947,1,0,1:0:0:0:
496,116,130039,1,0,0:0:0:0:
459,52,130131,1,10,0:2:0:0:
388,31,130223,1,0,0:0:0:0:
317,58,130315,6,0,P|259:74|199:70,1,107.999996704102,2|0,1:2|0:0,0:0:0:0:
128,37,130592,1,10,0:2:0:0:
128,37,130684,1,0,1:0:0:0:
146,159,130868,1,10,0:2:0:0:
34,124,131052,6,0,P|14:182|21:244,1,107.999996704102,2|0,1:2|0:0,0:0:0:0:
50,306,131328,2,0,L|163:262,1,107.999996704102,10|0,0:2|0:0,0:0:0:0:
218,226,131604,2,0,L|252:289,1,53.9999983520508,10|0,0:2|0:0,0:0:0:0:
306,359,131788,6,0,P|366:358|423:336,1,107.999996704102,2|0,1:2|0:0,0:0:0:0:
481,278,132064,1,10,0:2:0:0:
481,278,132156,1,0,1:0:0:0:
358,222,132340,1,10,0:2:0:0:
462,144,132524,2,0,P|482:82|476:40,1,107.999996704102,2|0,1:2|0:0,0:0:0:0:
397,4,132800,1,8,0:2:0:0:
397,4,132892,1,0,1:0:0:0:
361,134,133076,1,10,0:2:0:0:
231,89,133260,6,0,P|166:71|114:71,1,107.999996704102,2|0,1:2|0:0,0:0:0:0:
39,95,133536,1,10,0:2:0:0:
39,95,133628,1,0,1:0:0:0:
117,195,133812,1,10,0:2:0:0:
25,308,133996,2,0,P|86:294|146:311,1,107.999996704102,2|0,1:2|0:0,0:0:0:0:
207,360,134273,1,10,0:2:0:0:
207,360,134365,1,0,1:0:0:0:
208,199,134549,1,10,0:2:0:0:
326,278,134733,6,0,P|386:296|439:293,1,107.999996704102,2|0,1:2|0:0,0:0:0:0:
508,247,135009,1,8,0:2:0:0:
508,247,135101,1,0,1:0:0:0:
442,125,135285,1,8,0:2:0:0:
330,145,135469,2,0,L|327:200,1,53.9999983520508,2|0,1:2|0:0,0:0:0:0:
330,71,135653,1,2,1:2:0:0:
260,44,135745,1,0,1:0:0:0:
187,60,135837,1,0,1:2:0:0:
134,113,135929,1,2,1:2:0:0:
119,186,136021,1,0,1:2:0:0:
147,255,136113,1,0,1:0:0:0:
195,312,136205,6,0,P|250:341|319:334,1,107.999996704102,6|0,0:2|0:0,0:0:0:0:
388,298,136481,1,8,0:2:0:0:
388,298,136573,1,0,1:0:0:0:
329,146,136757,1,10,0:2:0:0:
252,242,136941,2,0,L|123:189,1,107.999996704102,2|0,1:2|0:0,0:0:0:0:
77,155,137217,2,0,P|97:105|139:71,1,107.999996704102,10|0,0:2|0:0,0:0:0:0:
218,49,137493,2,0,L|276:38,1,53.9999983520508,10|0,0:2|0:0,0:0:0:0:
355,17,137677,6,0,P|381:72|375:138,1,107.999996704102,0|0,1:0|0:0,0:0:0:0:
353,211,137954,1,8,0:2:0:0:
353,211,138046,1,0,1:0:0:0:
468,178,138230,1,8,0:2:0:0:
432,309,138414,2,0,P|379:341|318:340,1,107.999996704102,2|0,1:2|0:0,0:0:0:0:
238,311,138690,1,10,0:2:0:0:
238,311,138782,1,0,1:0:0:0:
353,211,138966,1,10,0:2:0:0:
246,136,139150,6,0,P|200:109|143:104,1,107.999996704102,2|0,1:2|0:0,0:0:0:0:
52,137,139426,1,10,0:2:0:0:
52,137,139518,1,0,1:0:0:0:
150,227,139702,2,0,P|172:286|161:338,1,107.999996704102,10|0,0:2|1:0,0:0:0:0:
52,279,140070,2,0,L|-18:278,2,53.9999983520508,2|8|0,0:2|0:2|1:0,0:0:0:0:
131,141,140438,1,10,0:2:0:0:
255,202,140622,6,0,P|312:218|374:214,1,107.999996704102,0|0,1:0|0:0,0:0:0:0:
435,167,140898,1,8,0:2:0:0:
435,167,140990,1,0,1:0:0:0:
336,91,141174,1,8,0:2:0:0:
361,217,141358,1,0,1:0:0:0:
366,296,141450,1,0,1:0:0:0:
326,360,141542,1,0,1:0:0:0:
250,374,141635,1,8,0:2:0:0:
175,363,141727,1,0,1:0:0:0:
130,302,141819,1,0,1:0:0:0:
136,226,141911,1,10,0:2:0:0:
183,167,142003,1,0,1:2:0:0:
257,153,142095,6,0,P|252:93|201:41,1,107.999996704102,2|0,1:2|0:0,0:0:0:0:
142,18,142371,1,10,0:2:0:0:
142,18,142463,1,0,1:0:0:0:
51,124,142647,1,10,0:2:0:0:
136,226,142831,2,0,P|176:268|250:291,1,107.999996704102,2|0,1:2|0:0,0:0:0:0:
307,291,143107,2,0,P|352:249|419:244,1,107.999996704102,10|0,0:2|0:0,0:0:0:0:
475,250,143383,2,0,L|472:191,1,53.9999983520508,10|0,0:2|0:0,0:0:0:0:
456,87,143567,6,0,P|402:50|352:42,1,107.999996704102,2|0,1:2|0:0,0:0:0:0:
257,60,143843,1,10,0:2:0:0:
257,60,143935,1,0,1:0:0:0:
334,162,144119,1,10,0:2:0:0:
201,197,144303,2,0,P|137:208|73:197,1,107.999996704102,2|0,1:2|0:0,0:0:0:0:
11,134,144579,1,8,0:2:0:0:
11,134,144671,1,0,1:0:0:0:
0,264,144855,1,10,0:2:0:0:
0,264,144947,1,2,0:2:0:0:
0,264,145039,6,0,P|56:305|125:313,1,107.999996704102,2|0,1:2|0:0,0:0:0:0:
176,302,145315,2,0,L|203:185,1,107.999996704102,10|0,0:2|0:0,0:0:0:0:
224,113,145592,2,0,L|282:118,1,53.9999983520508,10|0,0:2|0:0,0:0:0:0:
379,117,145776,6,0,P|402:192|397:244,1,107.999996704102,2|0,1:2|0:0,0:0:0:0:
369,309,146052,1,10,0:2:0:0:
369,309,146144,1,0,1:0:0:0:
497,297,146328,2,0,L|499:357,1,53.9999983520508,10|0,0:2|0:0,0:0:0:0:
507,213,146512,1,2,1:2:0:0:
511,138,146604,1,0,1:0:0:0:
480,70,146696,1,0,1:0:0:0:
420,25,146788,1,0,1:2:0:0:
345,14,146880,1,0,1:0:0:0:
272,33,146972,1,0,1:0:0:0:
216,84,147064,2,0,L|171:129,2,53.9999983520508,0|0|0,1:2|1:0|1:0,0:0:0:0:
216,84,147432,5,0,1:0:0:0:
268,138,147524,1,0,1:2:0:0:
280,212,147616,2,0,L|292:275,3,53.9999983520508,0|0|0|0,1:0|1:0|1:2|1:0,0:0:0:0:
228,320,147984,5,8,1:2:0:0:
206,299,148076,1,0,1:2:0:0:
186,316,148168,1,0,1:2:0:0:
167,297,148260,1,0,1:2:0:0:
146,318,148352,1,8,1:2:0:0:
124,297,148444,1,0,1:2:0:0:
104,314,148536,1,0,1:2:0:0:
85,295,148628,1,0,1:2:0:0:
59,312,148720,1,8,1:2:0:0:
56,113,148904,1,2,0:2:0:0:
126,204,149273,6,0,L|75:206,1,36,2|2,0:2|0:2,0:0:0:0:
146,124,149457,2,0,B|216:109|215:178|283:162,1,144,2|2,0:2|0:2,0:0:0:0:
355,121,150009,2,0,L|398:113,1,36,0|0,0:0|0:0,0:0:0:0:
459,132,150193,2,0,L|481:181,1,36,2|2,0:2|0:2,0:0:0:0:
415,209,150377,2,0,L|393:258,1,36,2|2,0:2|0:2,0:0:0:0:
355,306,150561,5,8,1:2:0:0:
333,285,150653,1,0,1:2:0:0:
313,302,150745,1,0,1:2:0:0:
294,283,150837,1,0,1:2:0:0:
273,304,150929,1,8,1:2:0:0:
251,283,151021,1,0,1:2:0:0:
231,300,151113,1,0,1:2:0:0:
212,281,151205,1,0,1:2:0:0:
186,298,151297,1,8,1:2:0:0:
34,173,151481,1,2,0:2:0:0:
134,85,151849,6,0,B|208:68|214:118|283:103,1,144,2|0,0:2|0:0,0:0:0:0:
348,61,152401,2,0,L|385:129,1,72,2|2,0:2|0:2,0:0:0:0:
324,202,152769,1,2,0:2:0:0:
332,213,152861,1,2,0:2:0:0:
326,229,152954,1,2,1:2:0:0:
330,240,153046,1,2,0:2:0:0:
325,250,153138,2,0,L|321:329,1,72,2|2,1:2|0:2,0:0:0:0:
205,284,153506,5,8,1:2:0:0:
205,253,153598,1,0,1:2:0:0:
179,250,153690,1,0,1:2:0:0:
181,223,153782,1,0,1:2:0:0:
151,221,153874,1,8,1:2:0:0:
152,191,153966,1,0,1:2:0:0:
126,187,154058,1,0,1:2:0:0:
127,161,154150,1,0,1:2:0:0:
97,153,154242,1,8,1:2:0:0:
243,66,154426,1,2,0:2:0:0:
352,178,154794,6,0,B|354:193|354:193|348:193|348:193|354:199|354:199|348:199|348:199|354:207|354:207|348:207|348:207|354:215|354:215|348:215|348:215|354:222|354:222|348:222|348:222|354:231|354:231|348:231|348:231|354:242|354:242|348:241|348:241|354:251|354:251|348:251|348:251|354:262|354:262|349:262|349:262|354:270|354:270|347:270|347:270|354:279|354:279|347:278|347:278|347:310,1,216,2|2,0:2|0:2,0:0:0:0:
296,366,155530,1,0,1:0:0:0:
152,179,155714,1,4,0:2:0:0:
204,44,156082,5,8,1:2:0:0:
230,27,156174,1,0,1:2:0:0:
249,46,156266,1,0,1:2:0:0:
269,29,156358,1,0,1:2:0:0:
291,50,156450,1,8,1:2:0:0:
312,29,156542,1,0,1:2:0:0:
331,48,156634,1,0,1:2:0:0:
351,31,156726,1,0,1:2:0:0:
373,52,156818,1,8,1:2:0:0:
377,220,157003,1,2,0:2:0:0:
55,106,157371,6,0,B|41:186|73:183|44:279,1,144,4|0,0:2|1:0,0:0:0:0:
40,342,157923,1,0,1:0:0:0:
151,207,158107,1,0,1:0:0:0:
129,345,158291,1,0,1:0:0:0:
242,215,158475,1,0,1:0:0:0:
217,350,158659,1,0,1:0:0:0:
330,220,158843,1,8,1:2:0:0:
143,275,159027,5,8,1:2:0:0:
329,303,159211,1,8,1:2:0:0:
238,136,159395,1,12,1:2:0:0:
237,223,159579,1,0,0:0:0:0:
237,223,159671,1,0,0:0:0:0:
237,223,159763,1,2,1:2:0:0:
272,217,159855,1,2,1:2:0:0:
302,198,159947,1,2,1:2:0:0:
321,168,160039,1,2,1:2:0:0:
325,132,160131,1,2,1:2:0:0:
315,98,160223,1,2,1:2:0:0:
291,72,160315,1,2,1:2:0:0:
258,58,160407,1,2,1:2:0:0:
222,60,160500,6,0,P|171:73|100:71,1,90,4|0,0:2|0:0,0:0:0:0:
65,53,160776,2,0,L|16:186,1,135,2|2,1:2|1:2,0:0:0:0:
36,258,161144,1,0,1:0:0:0:
36,258,161236,1,2,1:2:0:0:
97,198,161420,1,2,1:2:0:0:
193,271,161604,6,0,P|240:292|302:293,1,90,2|0,1:2|0:0,0:0:0:0:
388,239,161972,2,0,L|390:348,1,90,8|0,0:2|0:0,0:0:0:0:
451,379,162248,1,0,1:0:0:0:
451,379,162340,1,0,1:0:0:0:
496,301,162524,1,8,1:2:0:0:
449,180,162708,6,0,P|419:139|359:109,1,90,2|0,1:2|0:0,0:0:0:0:
312,113,162984,1,2,1:2:0:0:
312,113,163076,1,8,0:2:0:0:
272,200,163260,2,0,L|252:250,1,45,2|0,0:2|1:0,0:0:0:0:
211,302,163444,2,0,P|156:304|113:284,1,90,2|10,1:2|1:2,0:0:0:0:
57,177,163812,6,0,P|72:117|170:46,1,180,2|8,1:2|0:2,0:0:0:0:
237,89,164365,1,2,1:2:0:0:
237,89,164457,1,2,1:2:0:0:
237,89,164549,2,0,P|281:106|347:105,1,90,10|2,1:2|1:2,0:0:0:0:
449,55,164917,6,0,P|470:109|467:141,1,90,6|0,0:2|0:0,0:0:0:0:
430,209,165193,2,0,L|408:265,2,45,2|8|0,1:2|0:2|0:0,0:0:0:0:
390,137,165469,2,0,L|346:117,1,45,2|0,1:2|1:0,0:0:0:0:
271,118,165653,2,0,P|213:131|171:122,1,90,2|8,1:2|1:2,0:0:0:0:
78,53,166021,6,0,P|55:97|55:159,1,90,2|0,1:2|0:0,0:0:0:0:
92,202,166297,2,0,L|117:246,2,45,2|8|0,1:2|0:2|0:0,0:0:0:0:
28,246,166573,2,0,L|13:300,1,45,2|0,1:2|1:0,0:0:0:0:
71,344,166757,2,0,P|125:360|172:360,1,90,2|8,1:2|0:2,0:0:0:0:
290,312,167125,6,0,P|270:263|272:215,1,90,2|0,1:2|0:0,0:0:0:0:
298,153,167401,2,0,L|316:100,2,45,2|8|0,1:2|0:2|0:0,0:0:0:0:
365,206,167677,2,0,L|421:217,1,45,2|0,1:2|1:0,0:0:0:0:
475,166,167861,2,0,P|494:108|487:73,1,90,2|8,1:2|0:2,0:0:0:0:
403,15,168230,6,0,P|341:37|226:11,1,180,2|10,1:2|0:2,0:0:0:0:
144,56,168782,1,0,1:2:0:0:
124,96,168874,1,0,1:0:0:0:
123,141,168966,1,0,1:2:0:0:
139,182,169058,1,0,0:0:0:0:
167,217,169150,1,8,0:2:0:0:
182,259,169242,1,0,0:0:0:0:
165,301,169334,6,0,P|123:335|41:298,1,135,6|2,1:2|1:2,0:0:0:0:
23,244,169702,2,0,L|117:215,1,90,8|2,0:2|1:2,0:0:0:0:
200,184,170070,1,2,1:2:0:0:
109,104,170254,1,8,0:2:0:0:
205,48,170438,2,0,B|294:31|292:92|392:65,1,180,2|8,1:2|0:2,0:0:0:0:
468,31,170990,1,0,1:2:0:0:
468,31,171082,1,0,1:0:0:0:
468,31,171174,2,0,P|477:77|470:124,1,90,2|8,1:2|0:2,0:0:0:0:
419,206,171542,6,0,P|370:190|221:229,1,180,2|10,1:2|0:2,0:0:0:0:
179,286,172095,1,2,1:2:0:0:
179,286,172187,1,0,1:0:0:0:
179,286,172279,2,0,L|266:329,1,90,2|0,1:2|0:0,0:0:0:0:
402,306,172647,2,0,B|403:206|343:204|354:124,1,180,2|8,1:2|0:2,0:0:0:0:
383,48,173199,1,0,1:2:0:0:
383,48,173291,1,0,1:0:0:0:
383,48,173383,2,0,P|337:35|292:38,1,90,0|8,1:2|0:2,0:0:0:0:
206,95,173751,6,0,P|157:102|99:89,1,90,2|0,1:2|0:0,0:0:0:0:
42,59,174027,2,0,L|15:107,1,45,2|8,1:2|0:2,0:0:0:0:
73,185,174303,1,2,1:2:0:0:
73,185,174395,1,0,1:0:0:0:
73,185,174487,1,2,1:2:0:0:
44,283,174671,1,8,0:2:0:0:
130,325,174855,6,0,P|184:338|228:333,1,90,2|0,1:2|0:0,0:0:0:0:
282,293,175131,2,0,L|251:221,1,45,2|8,1:2|0:2,0:0:0:0:
222,150,175407,1,2,1:2:0:0:
222,150,175499,1,0,1:0:0:0:
222,150,175592,1,2,1:2:0:0:
172,233,175776,1,8,0:2:0:0:
361,217,175960,6,0,P|415:200|443:173,1,90,2|0,1:2|0:0,0:0:0:0:
461,31,176328,2,0,P|407:48|368:74,1,90,8|0,0:2|1:2,0:0:0:0:
332,132,176604,1,0,1:0:0:0:
332,132,176696,1,0,1:2:0:0:
277,32,176880,1,8,0:2:0:0:
208,133,177064,6,0,P|170:178|123:196,1,90,2|0,1:2|0:0,0:0:0:0:
63,202,177340,2,0,L|62:269,1,45,2|8,1:2|0:2,0:0:0:0:
164,301,177616,2,0,L|226:300,1,45,2|0,1:2|1:0,0:0:0:0:
277,256,177800,2,0,P|323:237|422:265,1,135,2|0,1:2|0:0,0:0:0:0:
467,313,178168,5,2,0:2:0:0:
295,59,178444,1,2,0:2:0:0:
239,313,178720,1,2,0:2:0:0:
373,173,178904,5,2,0:2:0:0:
373,173,179273,5,10,0:1:0:0:
147,178,179549,1,2,0:2:0:0:
243,13,179825,1,2,0:2:0:0:
254,171,180009,5,2,0:2:0:0:
254,171,180377,5,2,0:2:0:0:
52,86,180653,1,2,0:2:0:0:
64,280,180929,1,2,0:2:0:0:
140,135,181113,5,2,0:2:0:0:
197,341,181389,1,2,0:2:0:0:
326,193,181665,1,2,0:2:0:0:
166,227,181849,5,2,0:2:0:0:
242,140,182033,1,0,1:0:0:0:
275,110,182125,1,2,0:2:0:0:
318,98,182217,1,0,1:0:0:0:
362,106,182309,1,0,1:0:0:0:
397,133,182401,1,2,0:2:0:0:
418,173,182493,1,0,1:0:0:0:
419,217,182585,1,2,0:2:0:0:
85,80,183322,6,0,P|163:72|221:89,1,107.999996704102,4|0,0:2|0:0,0:0:0:0:
279,136,183598,1,8,0:2:0:0:
279,136,183690,1,0,1:0:0:0:
147,208,183874,1,10,0:2:0:0:
288,262,184058,2,0,P|339:278|405:274,1,107.999996704102,2|0,1:2|0:0,0:0:0:0:
486,232,184334,1,10,0:2:0:0:
486,232,184426,1,0,1:0:0:0:
460,352,184610,1,10,0:2:0:0:
379,207,184794,6,0,P|365:155|370:92,1,107.999996704102,2|0,1:2|0:0,0:0:0:0:
420,13,185070,1,8,0:2:0:0:
420,13,185162,1,0,1:0:0:0:
454,120,185346,1,8,0:2:0:0:
290,64,185530,6,0,P|232:51|179:56,1,107.999996704102,2|0,1:2|0:0,0:0:0:0:
123,105,185806,2,0,L|123:218,1,107.999996704102,10|0,0:2|0:0,0:0:0:0:
153,298,186082,2,0,L|202:257,1,53.9999983520508,10|0,0:2|0:0,0:0:0:0:
263,197,186266,6,0,P|326:192|389:218,1,107.999996704102,2|0,1:2|0:0,0:0:0:0:
453,273,186542,1,10,0:2:0:0:
453,273,186634,1,0,1:0:0:0:
346,356,186818,1,10,0:2:0:0:
223,282,187002,2,0,P|167:254|108:253,1,107.999996704102,2|0,1:2|0:0,0:0:0:0:
23,289,187279,1,10,0:2:0:0:
23,289,187371,1,0,1:0:0:0:
144,342,187555,1,10,0:2:0:0:
187,169,187739,6,0,P|197:113|174:56,1,107.999996704102,2|0,1:2|0:0,0:0:0:0:
101,15,188015,1,10,0:2:0:0:
101,15,188107,1,0,1:0:0:0:
22,104,188291,1,8,0:2:0:0:
90,225,188475,1,0,1:0:0:0:
150,269,188567,1,0,1:0:0:0:
218,300,188659,1,0,1:0:0:0:
291,282,188751,1,8,0:2:0:0:
351,236,188843,1,0,1:0:0:0:
390,171,188935,1,0,1:0:0:0:
378,96,189027,1,10,0:2:0:0:
326,40,189119,1,0,1:0:0:0:
253,18,189211,6,0,P|207:64|181:142,1,107.999996704102,2|0,1:2|0:0,0:0:0:0:
188,200,189487,1,10,0:2:0:0:
188,200,189579,1,0,1:0:0:0:
304,134,189763,1,10,0:2:0:0:
308,280,189947,2,0,P|279:330|222:348,1,107.999996704102,2|0,1:2|0:0,0:0:0:0:
143,323,190223,1,10,0:2:0:0:
143,323,190315,1,0,1:0:0:0:
215,228,190499,1,10,0:2:0:0:
71,227,190683,6,0,P|45:172|52:120,1,107.999996704102,2|0,1:2|0:0,0:0:0:0:
91,57,190960,2,0,L|201:99,1,107.999996704102,10|0,0:2|0:0,0:0:0:0:
273,97,191236,2,0,L|334:67,1,53.9999983520508,10|0,0:2|0:0,0:0:0:0:
411,30,191420,2,0,P|441:83|441:137,1,107.999996704102,2|0,1:2|0:0,0:0:0:0:
421,221,191696,1,8,0:2:0:0:
421,221,191788,1,0,1:0:0:0:
281,175,191972,1,10,0:2:0:0:
337,325,192156,6,0,P|281:344|232:337,1,107.999996704102,2|0,1:2|0:0,0:0:0:0:
152,289,192432,1,10,0:2:0:0:
152,289,192524,1,0,1:0:0:0:
258,248,192708,1,10,0:2:0:0:
165,168,192892,2,0,P|121:136|57:118,1,107.999996704102,2|0,1:2|0:0,0:0:0:0:
1,189,193168,1,10,0:2:0:0:
1,189,193260,1,0,1:0:0:0:
6,58,193444,1,10,0:2:0:0:
146,18,193628,5,2,1:2:0:0:
217,106,193812,1,0,1:0:0:0:
278,150,193904,1,8,0:2:0:0:
352,163,193996,1,0,1:0:0:0:
415,122,194088,1,0,1:0:0:0:
465,65,194180,1,8,0:2:0:0:
498,132,194272,1,0,1:0:0:0:
470,202,194364,5,2,1:2:0:0:
436,244,194456,1,0,1:0:0:0:
390,272,194548,1,2,1:2:0:0:
335,267,194641,1,0,1:0:0:0:
288,239,194733,1,0,1:2:0:0:
234,232,194825,1,2,1:2:0:0:
181,243,194917,1,0,1:2:0:0:
134,270,195009,1,0,1:0:0:0:
94,307,195101,6,0,P|58:255|48:197,1,107.999996704102,6|0,0:2|0:0,0:0:0:0:
66,104,195377,1,8,0:2:0:0:
66,104,195469,1,0,1:0:0:0:
128,192,195653,1,10,0:2:0:0:
215,104,195837,2,0,P|263:75|326:70,1,107.999996704102,2|0,1:2|0:0,0:0:0:0:
411,104,196113,1,10,0:2:0:0:
411,104,196205,1,0,1:0:0:0:
317,193,196389,2,0,L|279:232,1,53.9999983520508,10|0,0:2|0:0,0:0:0:0:
225,297,196573,6,0,P|163:275|114:278,1,107.999996704102,0|0,1:0|0:0,0:0:0:0:
35,315,196849,1,8,0:2:0:0:
35,315,196941,1,0,1:0:0:0:
141,361,197125,1,8,0:2:0:0:
103,200,197309,6,0,P|88:134|94:79,1,107.999996704102,6|0,1:1|0:0,0:0:0:0:
128,13,197585,2,0,L|228:102,1,107.999996704102,10|0,0:2|0:0,0:0:0:0:
282,135,197861,2,0,L|330:108,1,53.9999983520508,10|0,0:2|0:0,0:0:0:0:
403,47,198045,6,0,P|448:108|452:154,1,107.999996704102,2|0,1:2|0:0,0:0:0:0:
434,232,198321,1,10,0:2:0:0:
434,232,198414,1,0,1:0:0:0:
319,210,198598,1,10,0:2:0:0:
362,324,198782,2,0,P|296:341|246:331,1,107.999996704102,0|2,1:0|0:2,0:0:0:0:
163,296,199058,1,8,0:2:0:0:
163,296,199150,1,0,1:0:0:0:
228,209,199334,1,10,0:2:0:0:
92,216,199518,6,0,P|65:166|61:116,1,107.999996704102,0|0,1:0|0:0,0:0:0:0:
98,32,199794,1,8,0:2:0:0:
98,32,199886,1,0,1:0:0:0:
153,139,200070,1,8,0:2:0:0:
250,69,200254,5,0,1:0:0:0:
322,47,200346,1,0,1:0:0:0:
396,60,200438,1,0,1:0:0:0:
455,106,200530,1,8,0:2:0:0:
478,177,200622,1,0,1:0:0:0:
454,248,200714,1,0,1:0:0:0:
400,301,200806,1,10,0:2:0:0:
326,320,200898,1,0,1:2:0:0:
258,285,200990,6,0,P|198:256|140:247,1,107.999996704102,2|0,1:2|0:0,0:0:0:0:
77,277,201266,1,10,0:2:0:0:
77,277,201358,1,0,1:0:0:0:
154,357,201542,1,10,0:2:0:0:
243,184,201726,2,0,P|260:126|249:63,1,107.999996704102,2|0,1:2|0:0,0:0:0:0:
201,3,202002,1,10,0:2:0:0:
201,3,202094,1,0,1:0:0:0:
152,102,202279,1,10,0:2:0:0:
318,27,202463,6,0,P|374:24|450:52,1,107.999996704102,2|0,1:2|0:0,0:0:0:0:
479,96,202739,2,0,P|466:168|436:211,1,107.999996704102,10|0,0:2|0:0,0:0:0:0:
377,238,203015,2,0,L|403:299,1,53.9999983520508,10|0,0:2|0:0,0:0:0:0:
432,372,203199,6,0,P|373:383|326:374,1,107.999996704102,2|0,1:2|0:0,0:0:0:0:
250,318,203475,1,8,0:2:0:0:
250,318,203567,1,0,1:0:0:0:
290,184,203751,2,0,L|311:133,1,53.9999983520508,10|0,0:2|0:0,0:0:0:0:
279,48,203935,2,0,P|208:30|171:37,1,107.999996704102,2|0,1:2|0:0,0:0:0:0:
99,89,204211,1,10,0:2:0:0:
99,89,204303,1,0,1:0:0:0:
203,140,204487,1,10,0:2:0:0:
53,193,204671,5,2,1:2:0:0:
128,277,204855,1,0,1:0:0:0:
192,315,204947,1,10,0:2:0:0:
266,322,205039,1,0,1:0:0:0:
337,296,205131,1,0,1:0:0:0:
388,242,205223,1,10,0:2:0:0:
412,170,205315,1,0,1:0:0:0:
390,98,205407,6,0,P|349:57|185:53,1,215.999993408203,2|0,1:2|1:0,0:0:0:0:
83,142,205960,1,0,1:0:0:0:
240,143,206144,1,0,1:0:0:0:
69,222,206328,1,0,1:0:0:0:
265,221,206512,1,0,1:0:0:0:
124,68,206696,1,0,1:0:0:0:
221,293,206880,1,0,1:0:0:0:
205,47,207064,1,0,1:0:0:0:
143,312,207248,1,0,1:0:0:0:
42,104,207432,1,0,1:0:0:0:
149,180,207616,5,0,1:0:0:0:
173,190,207708,1,0,1:0:0:0:
200,196,207800,1,0,1:0:0:0:
227,197,207892,1,0,1:0:0:0:
253,193,207984,1,0,1:0:0:0:
139,102,214184,5,0,1:0:0:0:
167,123,214276,1,0,1:0:0:0:
201,135,214368,1,0,1:0:0:0:
237,137,214460,1,0,1:0:0:0:
271,129,214552,1,4,0:1:0:0:
297,300,214966,5,4,0:2:0:0:
39,168,215711,1,2,1:2:0:0:
283,75,216456,5,2,1:2:0:0:
181,232,216736,1,2,1:2:0:0:
114,80,217015,1,2,1:2:0:0:
241,156,217202,1,2,1:2:0:0:
102,188,217388,1,0,1:0:0:0:
86,220,217481,1,0,1:0:0:0:
83,255,217574,1,0,1:0:0:0:
94,289,217667,1,0,1:0:0:0:
118,316,217760,1,0,1:0:0:0:
150,333,217853,1,0,0:0:0:0:
185,335,217947,5,2,0:2:0:0:
190,140,218226,1,2,0:2:0:0:
336,282,218506,1,2,0:2:0:0:
187,235,218692,5,2,0:2:0:0:
343,122,218972,1,2,0:2:0:0:
337,351,219251,1,2,0:2:0:0:
266,177,219438,6,0,P|228:135|126:117,1,144,2|0,0:2|1:0,0:0:0:0:
3,193,219997,1,0,1:0:0:0:
92,47,220183,1,0,1:0:0:0:
176,202,220369,1,0,1:0:0:0:
5,99,220556,1,0,1:0:0:0:
190,104,220742,1,0,1:0:0:0:
75,262,220928,1,0,1:0:0:0:
90,13,221115,1,0,1:0:0:0:
201,239,221301,1,4,1:2:0:0:
285,135,221487,5,0,1:0:0:0:
343,92,221580,1,0,1:0:0:0:
415,88,221674,1,2,1:2:0:0:
475,126,221767,1,2,1:2:0:0:
487,196,221860,1,2,1:2:0:0:
453,259,221953,1,2,1:2:0:0:
397,304,222046,1,2,1:2:0:0:
328,325,222139,1,2,1:2:0:0:
258,304,222233,1,2,1:2:0:0:
201,259,222326,1,2,1:2:0:0:
143,200,222419,6,0,P|108:161|87:105,1,90,2|0,0:2|0:0,0:0:0:0:
117,26,222787,2,0,L|224:24,1,90,4|0,0:3|1:2,0:0:0:0:
314,65,223155,1,0,1:2:0:0:
277,149,223339,2,0,P|273:202|282:245,1,90,2|8,1:2|0:2,0:0:0:0:
368,350,223707,2,0,P|372:297|363:254,1,90,2|0,1:2|1:2,0:0:0:0:
272,200,224075,6,0,P|226:191|178:192,1,90,2|8,1:2|0:2,0:0:0:0:
94,242,224443,1,0,1:2:0:0:
105,133,224627,1,0,1:2:0:0:
105,133,224719,1,0,0:0:0:0:
105,133,224811,1,0,1:2:0:0:
25,190,224995,1,8,0:2:0:0:
31,78,225179,1,2,1:2:0:0:
31,78,225271,1,2,0:2:0:0:
31,78,225363,6,0,P|66:50|138:44,1,90,2|0,1:2|1:2,0:0:0:0:
188,66,225639,2,0,L|271:109,1,90,2|0,0:2|0:0,0:0:0:0:
351,139,225915,2,0,L|390:104,1,45,2|0,1:2|0:0,0:0:0:0:
454,66,226099,6,0,P|478:112|483:176,1,90,2|0,1:2|1:2,0:0:0:0:
466,232,226376,2,0,P|437:270|385:274,1,90,2|0,0:2|0:0,0:0:0:0:
326,239,226652,2,0,L|274:213,1,45,2|0,1:2|0:0,0:0:0:0:
206,170,226836,6,0,P|181:217|177:268,1,90,2|0,1:2|1:2,0:0:0:0:
197,335,227112,2,0,P|143:344|105:333,1,90,2|0,0:2|0:0,0:0:0:0:
44,291,227388,2,0,L|74:246,1,45,2|0,1:2|0:0,0:0:0:0:
112,178,227572,6,0,P|125:124|116:77,1,90,2|0,1:2|1:2,0:0:0:0:
74,18,227940,1,8,0:2:0:0:
187,17,228124,1,2,0:2:0:0:
187,17,228216,1,2,0:2:0:0:
187,17,228308,6,0,P|246:13|296:31,1,90,2|0,0:2|1:2,0:0:0:0:
367,84,228676,1,8,0:2:0:0:
296,153,228860,1,0,1:2:0:0:
296,153,228952,1,0,0:0:0:0:
296,153,229044,1,0,1:2:0:0:
385,171,229228,2,0,P|428:191|457:235,1,90,2|8,1:2|0:2,0:0:0:0:
387,311,229596,6,0,P|346:293|283:296,1,90,2|0,1:2|1:2,0:0:0:0:
134,319,229965,2,0,L|121:214,1,90,2|8,1:2|0:2,0:0:0:0:
115,125,230333,1,0,1:2:0:0:
115,125,230425,1,0,0:0:0:0:
115,125,230517,1,0,1:2:0:0:
39,175,230701,1,0,1:2:0:0:
8,51,230885,5,8,0:2:0:0:
120,15,231069,1,2,1:2:0:0:
120,15,231161,1,2,0:2:0:0:
120,15,231253,1,2,1:2:0:0:
152,46,231345,1,0,1:2:0:0:
189,70,231437,1,0,1:2:0:0:
231,87,231529,1,2,1:2:0:0:
275,96,231621,1,8,0:2:0:0:
320,95,231713,1,0,1:2:0:0:
364,86,231805,1,2,1:2:0:0:
405,69,231897,1,0,1:2:0:0:
443,44,231989,6,0,P|479:108|482:150,1,90,2|0,1:2|1:2,0:0:0:0:
458,215,232265,1,2,1:2:0:0:
458,215,232357,1,8,0:2:0:0:
353,177,232541,1,2,1:2:0:0:
316,313,232725,5,2,1:2:0:0:
278,337,232817,1,0,1:2:0:0:
235,349,232909,1,0,1:2:0:0:
190,346,233001,1,0,1:2:0:0:
149,329,233093,1,8,0:2:0:0:
115,300,233185,1,0,0:0:0:0:
92,262,233277,1,2,1:2:0:0:
82,218,233369,1,2,1:2:0:0:
87,173,233461,2,0,L|100:117,1,45,2|0,1:2|0:0,0:0:0:0:
172,69,233645,2,0,L|165:124,1,45,2|0,1:2|1:2,0:0:0:0:
228,179,233830,2,0,L|232:149,1,22.5,10|0,0:2|0:0,0:0:0:0:
259,144,233922,2,0,L|262:114,1,22.5,0|0,1:2|0:0,0:0:0:0:
291,115,234014,2,0,L|293:64,1,45,2|0,1:2|1:2,0:0:0:0:
367,20,234198,6,0,P|399:66|411:113,1,90,4|0,0:2|0:0,0:0:0:0:
409,193,234474,1,8,0:2:0:0:
409,193,234566,1,0,1:0:0:0:
510,138,234750,2,0,L|510:89,1,45,0|0,1:0|0:0,0:0:0:0:
506,218,234934,6,0,P|491:263|451:302,1,90,0|0,1:0|0:0,0:0:0:0:
388,335,235210,1,8,0:2:0:0:
388,335,235302,1,0,1:0:0:0:
306,262,235486,2,0,L|279:220,1,45,0|0,1:0|0:0,0:0:0:0:
221,289,235670,6,0,P|165:300|104:272,1,90,0|0,1:0|0:0,0:0:0:0:
70,232,235946,1,8,0:2:0:0:
70,232,236038,1,0,1:0:0:0:
174,208,236222,2,0,L|219:198,1,45,0|0,1:0|0:0,0:0:0:0:
117,145,236406,1,0,1:0:0:0:
105,101,236498,1,0,0:0:0:0:
111,56,236590,1,0,0:0:0:0:
142,24,236682,1,8,0:2:0:0:
186,16,236774,1,0,1:0:0:0:
229,28,236866,1,0,0:0:0:0:
259,60,236958,1,0,1:0:0:0:
268,104,237050,1,0,0:0:0:0:
251,146,237142,5,2,0:2:0:0:
457,129,237418,1,2,0:2:0:0:
361,297,237695,1,2,0:2:0:0:
352,136,237879,5,2,0:2:0:0:
338,93,237971,1,0,1:0:0:0:
307,61,238063,1,0,1:0:0:0:
265,46,238155,1,2,0:2:0:0:
220,51,238247,1,0,1:0:0:0:
183,75,238339,1,0,1:0:0:0:
159,112,238431,1,2,0:2:0:0:
155,157,238523,1,2,0:2:0:0:
170,200,238615,5,2,0:2:0:0:
39,90,238891,1,2,0:2:0:0:
17,250,239167,1,2,0:2:0:0:
108,141,239351,5,2,0:2:0:0:
142,310,239627,1,2,0:2:0:0:
270,177,239903,1,2,0:2:0:0:
