osu file format v14

[General]
AudioFilename: audio.mp3
AudioLeadIn: 0
PreviewTime: -1
Countdown: 2
SampleSet: Soft
StackLeniency: 0.6
Mode: 0
LetterboxInBreaks: 1
WidescreenStoryboard: 0

[Editor]
DistanceSpacing: 1
BeatDivisor: 8
GridSize: 32
TimelineZoom: 1.7

[Metadata]
Title:RESISTER
TitleUnicode:RESISTER
Artist:ASCA
ArtistUnicode:ASCA
Creator:izumilance
Version:Aincrad Style
Source:Sword Art Online: Alicization
Tags:SAO Alicization opening 2 full ASCA RESISTER Alice Best Waifu
BeatmapID:1899539
BeatmapSetID:910262

[Difficulty]
HPDrainRate:7
CircleSize:5.5
OverallDifficulty:7
ApproachRate:7
SliderMultiplier:2.2
SliderTickRate:3

[Events]
//Background and Video events
0,0,"thumb-1920-733061.png",0,0
//Break Periods
2,79116,88300
2,110699,113737
2,144762,148300
//Storyboard Layer 0 (Background)
//Storyboard Layer 1 (Fail)
//Storyboard Layer 2 (Pass)
//Storyboard Layer 3 (Foreground)
//Storyboard Sound Samples

[TimingPoints]
0,500,4,2,0,100,1,0

[Colours]
Combo1 : 0,255,255
Combo2 : 255,128,0
Combo3 : 0,0,160
Combo4 : 244,198,11

[HitObjects]
130,129,5500,5,0,0:0:0:0:
130,129,5584,1,0,0:0:0:0:
130,129,5667,1,0,0:0:0:0:
130,129,5750,1,0,0:0:0:0:
130,129,5834,1,0,0:0:0:0:
130,129,5917,1,0,0:0:0:0:
130,129,6000,1,0,0:0:0:0:
130,129,6084,1,0,0:0:0:0:
137,139,6833,5,0,0:0:0:0:
36,93,7125,1,0,0:0:0:0:
68,227,7292,1,0,0:0:0:0:
173,242,7459,1,0,0:0:0:0:
177,45,7625,1,0,0:0:0:0:
257,156,7792,1,0,0:0:0:0:
311,352,8166,1,0,0:0:0:0:
461,338,8437,1,0,0:0:0:0:
336,290,8604,1,0,0:0:0:0:
480,274,8771,1,0,0:0:0:0:
364,231,8938,1,0,0:0:0:0:
490,216,9104,1,0,0:0:0:0:
393,151,9500,5,0,0:0:0:0:
88,69,9750,1,0,0:0:0:0:
56,68,10312,1,0,0:0:0:0:
56,68,10625,2,0,L|381:288,1,385
271,316,11750,1,0,0:0:0:0:
159,249,12083,1,0,0:0:0:0:
84,213,12375,1,0,0:0:0:0:
182,177,12542,1,0,0:0:0:0:
109,141,12709,1,0,0:0:0:0:
208,103,12875,1,0,0:0:0:0:
145,70,13042,1,0,0:0:0:0:
291,46,13416,5,0,0:0:0:0:
304,128,13708,1,0,0:0:0:0:
287,157,13875,1,0,0:0:0:0:
275,183,14042,1,0,0:0:0:0:
259,211,14209,1,0,0:0:0:0:
245,237,14375,1,0,0:0:0:0:
212,299,14750,1,0,0:0:0:0:
347,323,15000,1,0,0:0:0:0:
466,193,15500,1,0,0:0:0:0:
256,192,15916,12,0,16916,0:0:0:0:
44,322,17333,6,0,B|92:130|154:88|357:106|148:366|462:68,1,577.5
460,69,18937,1,0,0:0:0:0:
460,69,19125,1,0,0:0:0:0:
372,52,19500,1,0,0:0:0:0:
210,62,19833,1,0,0:0:0:0:
56,56,20000,1,0,0:0:0:0:
63,122,20250,1,0,0:0:0:0:
63,122,20416,1,0,0:0:0:0:
63,122,20750,2,0,L|278:220,1,220
245,186,21916,1,0,0:0:0:0:
245,186,22416,5,0,0:0:0:0:
206,250,22582,1,0,0:0:0:0:
165,309,22749,1,0,0:0:0:0:
245,186,23083,1,0,0:0:0:0:
288,126,23249,1,0,0:0:0:0:
331,61,23416,1,0,0:0:0:0:
373,246,23687,1,0,0:0:0:0:
249,306,23853,1,0,0:0:0:0:
213,246,24020,1,0,0:0:0:0:
343,188,24187,1,0,0:0:0:0:
197,166,24353,1,0,0:0:0:0:
256,62,24520,1,0,0:0:0:0:
122,26,24687,1,0,0:0:0:0:
38,38,25083,6,0,B|103:73|59:125|168:82|451:49|99:230|469:128|80:340|474:339,1,577.5
399,109,27750,2,0,L|433:204,1,82.5
433,247,28125,1,0,0:0:0:0:
340,324,28500,1,0,0:0:0:0:
272,207,28833,1,0,0:0:0:0:
272,207,29000,1,0,0:0:0:0:
126,317,29250,2,0,L|276:205,1,165
272,207,29937,5,0,0:0:0:0:
188,111,30083,1,0,0:0:0:0:
283,48,30250,1,0,0:0:0:0:
283,48,30416,2,0,L|34:216,3,275
39,212,32875,1,0,0:0:0:0:
39,212,33042,1,0,0:0:0:0:
77,279,33208,1,0,0:0:0:0:
129,336,33375,1,0,0:0:0:0:
143,239,33542,1,0,0:0:0:0:
188,291,33708,1,0,0:0:0:0:
246,337,33875,1,0,0:0:0:0:
246,337,34250,2,0,B|243:290|248:278|252:260|254:232,1,82.5
257,244,34583,1,0,0:0:0:0:
175,235,34750,1,0,0:0:0:0:
91,184,34875,1,0,0:0:0:0:
179,51,35062,1,0,0:0:0:0:
347,60,35187,1,0,0:0:0:0:
256,192,35750,12,0,38333,0:0:0:0:
149,95,38666,5,0,0:0:0:0:
201,179,39000,1,0,0:0:0:0:
286,160,39250,1,0,0:0:0:0:
286,160,39583,2,0,P|207:79|140:221,1,302.5
122,193,40562,1,0,0:0:0:0:
263,37,40916,2,0,B|-32:343|168:289|406:20|388:231|404:338,1,605
332,250,42812,1,0,0:0:0:0:
332,250,42916,1,0,0:0:0:0:
479,284,43166,1,0,0:0:0:0:
421,334,43500,1,0,0:0:0:0:
117,332,43666,1,0,0:0:0:0:
329,247,43833,1,0,0:0:0:0:
199,247,44000,1,0,0:0:0:0:
124,178,44166,1,0,0:0:0:0:
418,172,44333,1,0,0:0:0:0:
326,110,44500,1,0,0:0:0:0:
212,109,44666,1,0,0:0:0:0:
119,46,44833,1,0,0:0:0:0:
420,46,45000,1,0,0:0:0:0:
264,165,45166,1,0,0:0:0:0:
256,192,45500,12,0,47250,0:0:0:0:
227,180,47500,6,0,L|260:204,12,27.5
135,279,48833,1,0,0:0:0:0:
328,103,48999,1,0,0:0:0:0:
350,91,49333,5,0,0:0:0:0:
349,91,49500,1,0,0:0:0:0:
388,213,49833,1,0,0:0:0:0:
388,213,50166,2,0,L|253:283,1,137.5
258,279,50750,1,0,0:0:0:0:
258,279,50917,1,0,0:0:0:0:
258,279,51084,1,0,0:0:0:0:
150,298,51416,1,0,0:0:0:0:
277,130,51583,1,0,0:0:0:0:
277,130,51750,2,0,L|326:122,9,36.6666666666667
381,154,52583,1,0,0:0:0:0:
385,218,52750,1,0,0:0:0:0:
233,305,53083,1,0,0:0:0:0:
233,305,53250,1,0,0:0:0:0:
78,246,53500,1,0,0:0:0:0:
256,192,53916,12,0,55000,0:0:0:0:
111,41,55333,5,0,0:0:0:0:
67,216,55500,1,0,0:0:0:0:
111,41,55666,1,0,0:0:0:0:
150,204,55833,1,0,0:0:0:0:
111,41,56000,1,0,0:0:0:0:
226,180,56166,1,0,0:0:0:0:
226,180,56500,5,0,0:0:0:0:
374,45,56667,1,0,0:0:0:0:
384,125,56833,1,0,0:0:0:0:
377,208,57000,1,0,0:0:0:0:
341,274,57167,1,0,0:0:0:0:
290,315,57333,1,0,0:0:0:0:
220,335,57500,1,0,0:0:0:0:
312,183,57833,1,0,0:0:0:0:
220,182,58000,1,0,0:0:0:0:
303,78,58333,1,0,0:0:0:0:
235,82,58666,1,0,0:0:0:0:
158,115,59000,1,0,0:0:0:0:
403,93,59333,2,0,B|183:251|85:246|370:99|170:23|179:405|63:96|71:102,1,412.5
45,52,60583,5,0,0:0:0:0:
261,46,61083,1,0,0:0:0:0:
197,171,61250,1,0,0:0:0:0:
268,294,61416,1,0,0:0:0:0:
120,215,61750,5,0,0:0:0:0:
195,60,61916,1,0,0:0:0:0:
315,108,62083,1,0,0:0:0:0:
438,158,62250,1,0,0:0:0:0:
361,292,62416,1,0,0:0:0:0:
225,247,62583,1,0,0:0:0:0:
93,149,62750,1,0,0:0:0:0:
425,146,62916,1,0,0:0:0:0:
122,342,63083,1,0,0:0:0:0:
222,39,63250,1,0,0:0:0:0:
369,339,63416,1,0,0:0:0:0:
33,160,63583,1,0,0:0:0:0:
432,123,63750,1,0,0:0:0:0:
81,340,63916,1,0,0:0:0:0:
114,331,64166,1,0,0:0:0:0:
114,328,64499,2,0,P|226:233|328:337,1,302.5
349,333,65666,5,0,0:0:0:0:
437,250,65832,1,0,0:0:0:0:
320,314,65999,1,0,0:0:0:0:
404,224,66166,1,0,0:0:0:0:
288,296,66332,1,0,0:0:0:0:
367,200,66499,1,0,0:0:0:0:
254,266,66666,1,0,0:0:0:0:
329,182,66833,1,0,0:0:0:0:
221,238,67000,1,0,0:0:0:0:
292,156,67166,1,0,0:0:0:0:
187,207,67333,1,0,0:0:0:0:
259,129,67500,1,0,0:0:0:0:
154,179,67666,1,0,0:0:0:0:
154,179,67750,1,0,0:0:0:0:
154,179,67833,1,0,0:0:0:0:
223,100,68000,1,0,0:0:0:0:
256,192,68416,12,0,69750,0:0:0:0:
339,97,70500,5,0,0:0:0:0:
151,260,71083,1,0,0:0:0:0:
91,200,71583,2,0,L|66:239,4,27.5
90,313,72083,1,0,0:0:0:0:
148,244,72416,1,0,0:0:0:0:
231,260,73083,1,0,0:0:0:0:
185,246,73666,2,0,B|185:246|386:118|386:118|354:20|354:20|214:115|214:115|339:64|386:227,1,742.5
419,313,75666,1,0,0:0:0:0:
419,313,76312,2,0,B|314:343|332:340,1,82.5
323,273,76645,2,0,L|406:247,1,82.5
385,186,76979,2,0,L|305:211,1,82.5
292,149,77312,2,0,L|370:123,1,82.5
256,192,77750,12,0,78916,0:0:0:0:
96,192,89500,5,0,0:0:0:0:
140,131,89833,1,0,0:0:0:0:
183,65,90083,1,0,0:0:0:0:
264,136,90416,1,0,0:0:0:0:
264,136,90583,2,0,L|414:52,2,165
264,136,91583,5,2,0:0:0:0:
365,211,91750,1,2,0:0:0:0:
248,299,91916,1,0,0:0:0:0:
155,209,92083,1,0,0:0:0:0:
155,209,92416,2,0,L|86:149,1,82.5
178,112,92916,1,0,0:0:0:0:
259,57,93166,1,0,0:0:0:0:
48,56,94500,5,0,0:0:0:0:
59,73,94666,1,0,0:0:0:0:
71,89,94833,1,0,0:0:0:0:
81,108,95000,1,0,0:0:0:0:
90,123,95166,1,0,0:0:0:0:
99,142,95333,1,0,0:0:0:0:
105,155,95500,1,0,0:0:0:0:
204,195,95666,1,0,0:0:0:0:
316,162,95833,1,0,0:0:0:0:
417,191,95999,1,0,0:0:0:0:
416,206,96166,1,0,0:0:0:0:
410,225,96333,1,0,0:0:0:0:
405,245,96499,1,0,0:0:0:0:
399,260,96666,1,0,0:0:0:0:
391,274,96833,1,0,0:0:0:0:
256,192,97250,12,0,99250,0:0:0:0:
245,325,100000,5,0,0:0:0:0:
184,261,100333,1,0,0:0:0:0:
250,200,100583,1,0,0:0:0:0:
306,104,101000,1,0,0:0:0:0:
306,104,101250,1,0,0:0:0:0:
258,73,102000,2,0,L|153:176,1,137.5
153,175,102583,1,0,0:0:0:0:
153,175,103000,2,0,L|380:254,1,220
308,262,103833,2,0,P|316:215|311:270,1,330
141,295,105166,5,0,0:0:0:0:
314,244,105333,1,0,0:0:0:0:
140,208,105500,1,0,0:0:0:0:
314,154,105666,1,0,0:0:0:0:
141,120,105833,1,0,0:0:0:0:
314,154,106000,1,0,0:0:0:0:
143,209,106166,1,0,0:0:0:0:
316,245,106333,1,0,0:0:0:0:
141,295,106500,1,0,0:0:0:0:
127,275,107166,5,0,0:0:0:0:
127,275,107333,1,0,0:0:0:0:
242,233,107625,1,0,0:0:0:0:
242,233,107791,1,0,0:0:0:0:
314,244,108500,1,0,0:0:0:0:
314,244,108666,1,0,0:0:0:0:
224,280,108875,1,0,0:0:0:0:
224,280,109062,2,0,P|85:197|287:240,1,632.5
153,178,114937,5,0,0:0:0:0:
108,92,115062,1,0,0:0:0:0:
197,109,115312,2,0,L|365:184,1,165
393,192,116250,5,0,0:0:0:0:
264,256,116375,1,0,0:0:0:0:
129,198,116500,5,0,0:0:0:0:
366,234,116875,1,0,0:0:0:0:
309,158,117000,1,0,0:0:0:0:
366,234,117312,1,0,0:0:0:0:
309,158,117500,1,0,0:0:0:0:
209,163,117812,1,0,0:0:0:0:
209,163,118125,2,0,L|116:259,1,110
116,254,118625,1,0,0:0:0:0:
253,299,118813,1,0,0:0:0:0:
363,282,119187,1,0,0:0:0:0:
256,192,119562,12,0,120562,0:0:0:0:
386,348,120916,5,0,0:0:0:0:
159,354,121083,1,0,0:0:0:0:
387,285,121250,1,0,0:0:0:0:
159,290,121416,1,0,0:0:0:0:
390,227,121583,1,0,0:0:0:0:
159,229,121750,1,0,0:0:0:0:
166,144,122083,5,0,0:0:0:0:
166,144,122250,1,0,0:0:0:0:
166,144,122416,1,0,0:0:0:0:
166,144,122583,1,0,0:0:0:0:
323,142,122750,1,0,0:0:0:0:
230,86,122916,1,0,0:0:0:0:
394,57,123083,1,0,0:0:0:0:
417,124,123416,5,0,0:0:0:0:
370,188,123583,1,0,0:0:0:0:
255,145,123833,1,0,0:0:0:0:
212,206,124166,1,0,0:0:0:0:
125,165,124500,1,0,0:0:0:0:
125,165,124875,2,0,B|172:258|298:133|298:133|285:326|427:260,1,440
411,266,126166,1,0,0:0:0:0:
273,239,126625,2,0,L|235:324,2,82.5
134,270,127333,1,0,0:0:0:0:
176,222,127500,1,0,0:0:0:0:
86,225,127833,1,0,0:0:0:0:
129,178,127999,1,0,0:0:0:0:
238,100,128332,1,0,0:0:0:0:
145,51,128625,5,0,0:0:0:0:
373,106,128792,1,0,0:0:0:0:
145,67,128958,1,0,0:0:0:0:
374,84,129125,1,0,0:0:0:0:
144,86,129292,1,0,0:0:0:0:
372,61,129458,1,0,0:0:0:0:
330,135,129750,2,0,P|254:63|142:184,1,302.5
140,179,130625,1,0,0:0:0:0:
95,202,131250,5,0,0:0:0:0:
292,294,131416,1,0,0:0:0:0:
101,207,131583,1,0,0:0:0:0:
292,294,131750,1,0,0:0:0:0:
101,206,131916,1,0,0:0:0:0:
290,294,132083,1,0,0:0:0:0:
100,207,132250,1,0,0:0:0:0:
287,209,132583,5,0,0:0:0:0:
113,320,132749,1,0,0:0:0:0:
287,209,132916,1,0,0:0:0:0:
111,317,133083,1,0,0:0:0:0:
287,208,133249,1,0,0:0:0:0:
109,317,133416,1,0,0:0:0:0:
286,209,133583,1,0,0:0:0:0:
375,107,133916,1,0,0:0:0:0:
301,69,134082,1,0,0:0:0:0:
286,166,134416,1,0,0:0:0:0:
223,115,134666,1,0,0:0:0:0:
188,193,135000,1,0,0:0:0:0:
133,84,135333,1,0,0:0:0:0:
117,155,136000,6,0,P|153:297|122:141,1,880
141,106,138666,1,0,0:0:0:0:
256,192,139250,12,0,141333,0:0:0:0:
143,199,141833,5,0,0:0:0:0:
217,155,142166,1,0,0:0:0:0:
217,155,142333,1,0,0:0:0:0:
217,155,142500,1,0,0:0:0:0:
283,102,142833,2,0,L|282:189,2,82.5
290,40,143583,1,0,0:0:0:0:
279,218,143750,1,0,0:0:0:0:
178,162,144062,2,0,L|381:67,1,220
256,192,149500,12,0,153750,0:0:0:0:
157,180,154500,5,0,0:0:0:0:
262,92,154687,1,0,0:0:0:0:
147,47,155083,5,0,0:0:0:0:
211,144,155333,1,0,0:0:0:0:
105,157,155666,1,0,0:0:0:0:
173,244,155916,1,0,0:0:0:0:
285,243,156166,1,0,0:0:0:0:
285,243,156250,1,0,0:0:0:0:
285,243,156333,1,0,0:0:0:0:
366,181,156500,1,0,0:0:0:0:
234,151,156666,1,0,0:0:0:0:
158,146,156916,5,0,0:0:0:0:
128,255,157250,1,0,0:0:0:0:
232,256,157500,1,0,0:0:0:0:
232,256,157584,1,0,0:0:0:0:
232,256,157667,1,0,0:0:0:0:
309,220,157834,1,0,0:0:0:0:
375,161,158000,1,0,0:0:0:0:
437,173,158250,2,0,L|375:238,1,82.5
386,226,158583,6,0,L|311:211,1,55
314,211,158916,2,0,L|237:165,1,82.5
190,231,159333,1,0,0:0:0:0:
128,155,159750,1,0,0:0:0:0:
128,155,159916,1,0,0:0:0:0:
341,51,160250,5,0,0:0:0:0:
165,86,160583,1,0,0:0:0:0:
327,146,160916,1,0,0:0:0:0:
155,191,161250,1,0,0:0:0:0:
285,243,161416,1,0,0:0:0:0:
285,243,161500,1,0,0:0:0:0:
285,243,161583,1,0,0:0:0:0:
285,243,161666,1,0,0:0:0:0:
285,243,161750,1,0,0:0:0:0:
285,243,161834,1,0,0:0:0:0:
285,243,161917,1,0,0:0:0:0:
169,277,162166,1,0,0:0:0:0:
266,110,162583,5,0,0:0:0:0:
266,110,162916,2,0,L|186:88,1,82.5
169,153,163187,2,0,L|250:175,1,82.5
223,236,163500,2,0,L|143:214,1,82.5
331,130,163812,2,0,L|415:153,1,82.5
385,211,164125,2,0,L|305:189,1,82.5
314,191,164583,5,0,0:0:0:0:
193,321,164875,1,0,0:0:0:0:
101,196,165187,1,0,0:0:0:0:
256,192,165562,12,0,166750,0:0:0:0:
299,236,166833,5,0,0:0:0:0:
299,236,166916,1,0,0:0:0:0:
299,236,167000,1,0,0:0:0:0:
299,236,167062,1,0,0:0:0:0:
299,236,167166,1,0,0:0:0:0:
299,236,167250,1,0,0:0:0:0:
299,236,167333,1,0,0:0:0:0:
299,236,167416,1,0,0:0:0:0:
299,236,167500,1,0,0:0:0:0:
299,236,167583,1,0,0:0:0:0:
299,236,167666,1,0,0:0:0:0:
299,236,167750,1,0,0:0:0:0:
299,236,167833,1,0,0:0:0:0:
299,236,167916,1,0,0:0:0:0:
299,236,168000,1,0,0:0:0:0:
299,236,168083,1,0,0:0:0:0:
134,109,170666,5,0,0:0:0:0:
134,109,170750,1,0,0:0:0:0:
348,151,170916,1,0,0:0:0:0:
189,279,171333,5,0,0:0:0:0:
189,279,171437,2,0,P|293:233|330:239,1,137.5
321,236,172083,1,0,0:0:0:0:
126,248,172583,1,0,0:0:0:0:
161,76,172750,1,0,0:0:0:0:
338,85,172916,1,0,0:0:0:0:
282,133,173187,2,0,L|252:162,18,27.5
255,169,174583,5,0,0:0:0:0:
255,169,174750,1,0,0:0:0:0:
121,251,175000,1,0,0:0:0:0:
73,218,175166,1,0,0:0:0:0:
154,112,175500,1,0,0:0:0:0:
209,99,175916,2,0,P|365:227|186:226,1,495
209,99,177166,5,0,0:0:0:0:
202,247,177333,1,0,0:0:0:0:
281,74,177500,1,0,0:0:0:0:
270,276,177666,1,0,0:0:0:0:
347,107,177833,1,0,0:0:0:0:
336,254,178000,1,0,0:0:0:0:
376,179,178166,1,0,0:0:0:0:
116,71,178437,5,0,0:0:0:0:
394,88,178603,1,0,0:0:0:0:
116,126,178770,1,0,0:0:0:0:
397,140,178937,1,0,0:0:0:0:
116,175,179103,1,0,0:0:0:0:
399,196,179270,1,0,0:0:0:0:
116,224,179437,1,0,0:0:0:0:
162,277,179750,1,0,0:0:0:0:
162,277,179916,2,0,B|226:293|347:362|471:43,1,440
256,192,181083,12,0,182166,0:0:0:0:
66,48,182625,5,0,0:0:0:0:
121,143,183083,1,0,0:0:0:0:
230,82,183250,1,0,0:0:0:0:
220,201,183416,1,0,0:0:0:0:
311,182,183750,2,0,L|382:224,1,82.5
334,273,184250,1,0,0:0:0:0:
233,272,184416,1,0,0:0:0:0:
155,200,184750,1,0,0:0:0:0:
105,346,185000,1,0,0:0:0:0:
241,49,185166,1,0,0:0:0:0:
371,330,185333,1,0,0:0:0:0:
47,140,185500,1,0,0:0:0:0:
459,142,185666,1,0,0:0:0:0:
85,302,185833,1,0,0:0:0:0:
325,338,186166,5,0,0:0:0:0:
460,217,186500,1,0,0:0:0:0:
365,198,186833,5,0,0:0:0:0:
307,186,187000,1,0,0:0:0:0:
112,180,187667,1,0,0:0:0:0:
222,305,187834,1,0,0:0:0:0:
163,146,188000,1,0,0:0:0:0:
273,268,188166,1,0,0:0:0:0:
218,115,188333,1,0,0:0:0:0:
324,234,188499,1,0,0:0:0:0:
324,234,188666,1,0,0:0:0:0:
248,304,189000,5,0,0:0:0:0:
247,71,189166,1,0,0:0:0:0:
103,194,189333,1,0,0:0:0:0:
401,194,189500,1,0,0:0:0:0:
152,101,189666,1,0,0:0:0:0:
348,278,189833,1,0,0:0:0:0:
349,107,190000,1,0,0:0:0:0:
256,192,190416,12,0,191750,0:0:0:0:
255,193,192437,5,0,0:0:0:0:
99,139,193125,2,0,P|193:39|97:146,1,962.5
356,300,195687,2,0,B|345:47|345:47|263:209|263:209|179:45|179:45|182:313|182:313,1,880
100,115,198312,1,0,0:0:0:0:
152,63,198666,1,0,0:0:0:0:
234,39,198916,1,0,0:0:0:0:
365,52,199250,1,0,0:0:0:0:
407,146,199416,1,0,0:0:0:0:
342,251,199583,1,0,0:0:0:0:
234,191,199916,1,0,0:0:0:0:
115,256,200082,1,0,0:0:0:0:
112,123,200416,1,0,0:0:0:0:
256,192,200750,12,0,203083,0:0:0:0:
91,111,203583,5,0,0:0:0:0:
161,229,203750,1,0,0:0:0:0:
91,111,203916,1,0,0:0:0:0:
161,229,204083,1,0,0:0:0:0:
91,111,204250,1,0,0:0:0:0:
225,109,204583,1,0,0:0:0:0:
354,135,204750,1,0,0:0:0:0:
423,250,204937,1,0,0:0:0:0:
248,144,205687,6,0,L|277:153,4,27.5
150,168,206187,1,0,0:0:0:0:
150,168,206312,1,0,0:0:0:0:
265,215,206500,1,0,0:0:0:0:
353,315,206875,1,0,0:0:0:0:
392,356,207000,1,0,0:0:0:0:
471,274,207187,1,0,0:0:0:0:
459,121,207500,1,0,0:0:0:0:
474,67,207625,1,0,0:0:0:0:
338,38,207812,1,0,0:0:0:0:
117,36,208187,1,0,0:0:0:0:
61,29,208313,1,0,0:0:0:0:
74,143,208500,1,0,0:0:0:0:
114,223,208748,5,0,0:0:0:0:
257,75,208914,1,0,0:0:0:0:
114,223,209081,1,0,0:0:0:0:
267,154,209248,1,0,0:0:0:0:
114,223,209414,1,0,0:0:0:0:
261,226,209581,1,0,0:0:0:0:
114,223,209748,1,0,0:0:0:0:
233,291,209914,1,0,0:0:0:0:
114,223,210081,1,0,0:0:0:0:
166,337,210248,1,0,0:0:0:0:
114,223,210416,1,0,0:0:0:0:
218,166,210750,6,0,L|267:181,7,27.5
331,73,211438,1,0,0:0:0:0:
319,62,211500,1,0,0:0:0:0:
307,52,211563,1,0,0:0:0:0:
294,44,211625,1,0,0:0:0:0:
280,37,211688,1,0,0:0:0:0:
265,32,211750,1,0,0:0:0:0:
250,29,211813,1,0,0:0:0:0:
234,29,211875,1,0,0:0:0:0:
218,31,211938,1,0,0:0:0:0:
203,35,212000,1,0,0:0:0:0:
189,40,212063,1,0,0:0:0:0:
175,48,212125,1,0,0:0:0:0:
162,56,212188,1,0,0:0:0:0:
149,65,212250,1,0,0:0:0:0:
139,77,212313,1,0,0:0:0:0:
136,92,212375,1,0,0:0:0:0:
134,108,212438,1,0,0:0:0:0:
135,123,212500,1,0,0:0:0:0:
140,138,212563,1,0,0:0:0:0:
149,151,212625,1,0,0:0:0:0:
162,160,212688,1,0,0:0:0:0:
176,166,212750,1,0,0:0:0:0:
191,171,212813,1,0,0:0:0:0:
206,174,212875,1,0,0:0:0:0:
222,176,212938,1,0,0:0:0:0:
237,178,213000,1,0,0:0:0:0:
253,180,213063,1,0,0:0:0:0:
268,183,213125,1,0,0:0:0:0:
283,187,213188,1,0,0:0:0:0:
297,194,213250,1,0,0:0:0:0:
309,203,213313,1,0,0:0:0:0:
318,217,213375,1,0,0:0:0:0:
322,231,213438,1,0,0:0:0:0:
323,247,213500,1,0,0:0:0:0:
321,263,213563,1,0,0:0:0:0:
317,278,213625,1,0,0:0:0:0:
311,292,213688,1,0,0:0:0:0:
303,305,213750,1,0,0:0:0:0:
291,315,213813,1,0,0:0:0:0:
277,323,213875,1,0,0:0:0:0:
263,329,213938,1,0,0:0:0:0:
248,334,214000,1,0,0:0:0:0:
232,336,214063,1,0,0:0:0:0:
217,336,214125,1,0,0:0:0:0:
201,334,214188,1,0,0:0:0:0:
186,329,214250,1,0,0:0:0:0:
172,322,214313,1,0,0:0:0:0:
159,314,214375,1,0,0:0:0:0:
147,303,214438,1,0,0:0:0:0:
137,292,214500,1,0,0:0:0:0:
128,279,214563,1,0,0:0:0:0:
120,265,214625,1,0,0:0:0:0:
95,154,215062,5,2,0:0:0:0:
190,97,215500,1,2,0:0:0:0:
241,189,216000,1,2,0:0:0:0:
346,267,216375,1,2,0:0:0:0:
256,192,216687,12,0,220937,0:0:0:0:
512,115,221250,5,0,0:0:0:0:
256,192,221437,5,0,0:0:0:0:
0,266,221625,5,4,0:0:0:0:
