osu file format v14

[General]
AudioFilename: audio.mp3
AudioLeadIn: 0
PreviewTime: 47874
Countdown: 0
SampleSet: Soft
StackLeniency: 0.7
Mode: 0
LetterboxInBreaks: 0
WidescreenStoryboard: 1

[Editor]
DistanceSpacing: 1
BeatDivisor: 4
GridSize: 32
TimelineZoom: 1

[Metadata]
Title:RESISTER (TV Size)
TitleUnicode:RESISTER (TV Size)
Artist:ASCA
ArtistUnicode:ASCA
Creator:tomatas95
Version:Normal
Source:ソードアート・オンライン アリシゼーション
Tags:sword art online sao alicization season three 3 kirito asuna eugeo alice opening 大倉明日香 okura asuka japanese anime
BeatmapID:2131527
BeatmapSetID:1018305

[Difficulty]
HPDrainRate:4
CircleSize:3.5
OverallDifficulty:4.5
ApproachRate:5.5
SliderMultiplier:1.2
SliderTickRate:1

[Events]
//Background and Video events
Video,0,"sao-a op.avi"
0,0,"sao alicization.png",0,0
//Break Periods
//Storyboard Layer 0 (Background)
//Storyboard Layer 1 (Fail)
//Storyboard Layer 2 (Pass)
//Storyboard Layer 3 (Foreground)
//Storyboard Layer 4 (Overlay)
//Storyboard Sound Samples

[TimingPoints]
1588,327.868852459016,4,2,1,65,1,0
6833,-100,4,2,1,75,0,0
10112,-100,4,2,1,100,0,0
10768,-100,4,2,1,80,0,0
16014,-111.111111111111,4,2,1,55,0,0
26506,-100,4,2,1,70,0,0
36997,-111.111111111111,4,2,1,55,0,0
42243,-100,4,2,1,75,0,0
48801,-100,4,2,1,85,0,1
59210,-100,4,2,1,85,0,0
59292,-100,4,2,1,85,0,1
69784,-100,4,2,1,75,0,0
76342,-100,4,2,1,65,0,0
77653,-100,4,2,1,75,0,0
82899,-100,4,2,1,80,0,0
87489,-100,4,2,1,90,0,0

[Colours]
Combo1 : 45,100,180
Combo2 : 250,230,0
Combo3 : 150,185,230
Combo4 : 240,200,20

[HitObjects]
270,191,768,6,0,P|256:151|116:116,1,180,2|2,0:0|0:0,0:0:0:0:
160,220,1588,2,0,L|80:332,1,120,4|0,0:0|0:0,0:0:0:0:
207,345,2243,2,0,P|254:296|261:221,1,120,0|0,3:0|0:0,0:0:0:0:
180,160,2899,6,0,P|195:106|263:63,1,120,0|0,3:0|0:0,0:0:0:0:
282,113,3391,2,0,P|329:136|403:116,1,120,0|0,3:0|3:0,0:0:0:0:
475,37,4047,1,0,0:0:0:0:
483,96,4210,6,0,P|481:149|433:203,1,120,0|0,3:0|0:0,0:0:0:0:
397,242,4702,2,0,P|343:269|269:253,1,120,0|2,3:0|0:0,0:0:0:0:
260,207,5194,1,2,3:0:0:0:
293,162,5358,2,0,P|295:115|140:41,2,240,2|0|0,0:0|3:0|3:0,0:0:0:0:
233,168,6833,5,6,0:0:0:0:
125,117,7161,2,0,P|89:117|58:132,1,60,2|8,0:0|3:0,0:0:0:0:
34,176,7489,2,0,L|14:244,1,60,14|8,0:0|3:0,0:0:0:0:
54,281,7817,1,10,3:0:0:0:
99,241,7981,1,8,3:0:0:0:
155,220,8145,6,0,B|213:196|213:196|273:215,1,120,14|2,3:0|0:0,0:0:0:0:
307,258,8637,2,0,L|357:206,1,60,2|0,0:0|0:0,0:0:0:0:
384,166,8965,1,2,0:0:0:0:
316,67,9292,2,0,P|281:31|185:145,1,240,2|8,0:0|3:0,0:0:0:0:
235,147,10112,2,0,L|360:191,1,120,10|0,0:0|0:0,0:0:0:0:
432,272,10768,5,10,0:0:0:0:
332,339,11096,2,0,P|321:299|248:279,1,120,8|8,0:0|0:0,0:0:0:0:
202,310,11587,1,8,3:0:0:0:
142,319,11751,1,8,0:0:0:0:
86,295,11915,1,8,3:0:0:0:
62,239,12079,6,0,P|70:188|138:130,1,120,8|8,0:0|0:0,0:0:0:0:
174,140,12571,2,0,P|204:179|302:125,1,180,8|8,3:0|0:0,0:0:0:0:
336,80,13227,1,8,3:0:0:0:
385,43,13391,2,0,P|451:71|396:202,1,240,8|8,0:0|3:0,0:0:0:0:
285,194,14374,1,8,0:0:0:0:
285,194,14538,1,12,0:0:0:0:
333,95,14866,2,0,P|301:53|229:40,1,120,8|8,3:0|0:0,0:0:0:0:
177,36,15358,2,0,L|109:52,3,60,8|8|8|8,0:0|3:0|3:0|3:0,0:0:0:0:
70,74,16014,6,0,P|62:111|149:200,1,161.999995056153,6|2,0:0|0:0,0:0:0:0:
168,95,16833,2,0,P|201:65|273:41,1,107.999996704102,0|0,0:0|0:0,0:0:0:0:
265,150,17489,2,0,L|380:203,1,107.999996704102,0|2,0:0|0:0,0:0:0:0:
446,264,18145,1,0,0:0:0:0:
354,321,18473,1,2,3:0:0:0:
302,338,18637,6,0,P|252:347|170:275,1,161.999995056153,2|0,0:0|0:0,0:0:0:0:
209,179,19456,1,0,0:0:0:0:
104,152,19784,2,0,P|87:104|242:70,1,269.999991760254,2|0,0:0|0:0,0:0:0:0:
351,251,21260,6,0,B|428:157|428:157|337:34,1,269.999991760254,2|0,0:0|0:0,0:0:0:0:
232,46,22407,1,0,0:0:0:0:
184,62,22571,2,0,P|135:107|130:151,1,107.999996704102,2|2,0:0|0:0,0:0:0:0:
176,244,23227,2,0,L|242:245,1,53.9999983520508,2|0,0:0|0:0,0:0:0:0:
268,143,23719,1,0,0:0:0:0:
296,189,23883,6,0,P|329:204|407:197,1,107.999996704102,0|2,0:0|0:0,0:0:0:0:
449,180,24374,1,0,0:0:0:0:
350,135,24702,1,0,0:0:0:0:
441,77,25030,2,0,B|336:30|336:30|234:127|234:127|108:74,1,377.999988464356,0|0,0:0|0:0,0:0:0:0:
18,30,26506,6,0,L|18:115,1,60,6|0,0:0|0:0,0:0:0:0:
68,122,26833,2,0,L|65:204,1,60,0|0,1:0|0:0,0:0:0:0:
120,207,27161,2,0,L|120:272,1,60,0|0,1:0|0:0,0:0:0:0:
156,314,27489,1,0,1:0:0:0:
213,297,27653,2,0,P|264:316|319:261,2,120,0|0|0,0:0|0:0|0:0,0:0:0:0:
209,236,28473,1,0,1:0:0:0:
239,179,28637,2,0,P|259:123|314:74,1,120,0|0,0:0|0:0,0:0:0:0:
349,116,29128,6,0,P|393:145|460:59,1,180,0|0,1:0|0:0,0:0:0:0:
406,41,29784,1,0,1:0:0:0:
348,26,29948,1,0,0:0:0:0:
291,45,30112,1,0,1:0:0:0:
232,56,30276,2,0,P|199:31|158:215,1,360,0|0,0:0|0:0,0:0:0:0:
181,247,31424,1,0,1:0:0:0:
228,293,31587,1,0,0:0:0:0:
269,336,31751,6,0,L|346:334,1,60,0|0,1:0|0:0,0:0:0:0:
387,347,32079,2,0,L|384:261,1,60,0|0,1:0|0:0,0:0:0:0:
380,226,32407,2,0,L|292:225,1,60,0|0,1:0|0:0,0:0:0:0:
266,253,32735,1,0,1:0:0:0:
213,280,32899,6,0,P|135:269|102:165,2,180,0|0|0,0:0|1:0|0:0,0:0:0:0:
253,235,34047,1,0,1:0:0:0:
253,175,34210,1,0,0:0:0:0:
232,118,34374,2,0,B|174:138|174:138|113:110,1,120,4|0,1:0|1:0,0:0:0:0:
6,76,35030,2,0,P|35:46|75:27,1,60,0|0,1:0|0:0,0:0:0:0:
110,29,35358,1,0,1:0:0:0:
229,19,35686,6,0,L|231:88,1,60,4|0,1:0|0:0,0:0:0:0:
180,112,36014,2,0,L|181:188,1,60,2|0,0:0|1:0,0:0:0:0:
141,217,36342,2,0,L|141:292,1,60,8|0,0:0|1:0,0:0:0:0:
179,334,36669,1,0,1:0:0:0:
286,326,36997,5,6,0:0:0:0:
287,217,37325,2,0,P|298:172|248:113,1,107.999996704102,2|2,0:0|0:0,0:0:0:0:
221,93,37817,1,0,1:0:0:0:
167,102,37981,1,10,0:0:0:0:
70,43,38309,2,0,B|40:91|40:91|75:123|75:123|49:182,1,161.999995056153,4|0,1:0|1:0,0:0:0:0:
51,230,38965,2,0,P|78:242|105:236,1,53.9999983520508,2|0,0:0|1:0,0:0:0:0:
130,192,39292,2,0,P|162:176|186:178,1,53.9999983520508,0|0,1:0|0:0,0:0:0:0:
222,209,39620,6,0,P|249:229|313:198,1,107.999996704102,4|0,1:0|0:0,0:0:0:0:
321,140,40112,2,0,L|288:77,1,53.9999983520508,0|0,1:0|0:0,0:0:0:0:
250,62,40440,1,0,1:0:0:0:
206,30,40604,1,0,1:0:0:0:
168,17,40768,1,2,0:0:0:0:
128,53,40932,6,0,B|78:126|106:139|133:153|54:250,2,215.999993408203,4|2|4,1:0|0:0|1:0,0:0:0:0:
186,39,42407,2,0,P|260:12|335:78,1,180,0|0,0:0|1:0,0:0:0:0:
231,135,43227,1,0,1:0:0:0:
311,224,43555,2,0,L|424:157,1,120,4|0,1:0|1:0,0:0:0:0:
407,42,44210,2,0,P|353:87|280:90,1,120,0|0,1:0|1:0,0:0:0:0:
246,107,44702,1,0,0:0:0:0:
196,73,44866,6,0,P|135:54|108:195,1,240,4|0,1:0|1:0,0:0:0:0:
214,220,45850,1,0,1:0:0:0:
290,127,46178,2,0,P|343:74|342:229,1,360,8|8,0:0|0:0,0:0:0:0:
250,205,47489,5,8,0:0:0:0:
250,205,47653,1,8,0:0:0:0:
219,89,47981,2,0,B|160:63|160:63|63:124,1,180,0|2,0:0|0:0,0:0:0:0:
149,207,48801,6,0,B|206:242|206:242|303:175,1,180,14|0,0:0|0:0,0:0:0:0:
309,118,49456,1,4,1:0:0:0:
345,70,49620,1,0,0:0:0:0:
398,97,49784,1,8,0:0:0:0:
439,140,49948,1,0,0:0:0:0:
471,190,50112,6,0,P|489:240|453:323,1,120,4|10,1:0|0:0,0:0:0:0:
413,337,50604,2,0,L|348:308,1,60,0|0,0:0|1:0,0:0:0:0:
303,338,50932,2,0,L|239:306,1,60,0|8,0:0|0:0,0:0:0:0:
189,300,51260,1,0,0:0:0:0:
137,331,51424,6,0,P|81:329|45:257,1,120,4|8,1:0|0:0,0:0:0:0:
59,222,51915,1,0,0:0:0:0:
32,168,52079,2,0,P|55:135|86:133,1,60,0|2,1:0|0:0,0:0:0:0:
127,156,52407,1,10,0:0:0:0:
173,194,52571,2,0,B|226:231|226:231|294:191,1,120,0|0,0:0|0:0,0:0:0:0:
262,141,53063,5,8,0:0:0:0:
239,85,53227,2,0,L|300:40,1,60,0|0,0:0|1:0,0:0:0:0:
347,57,53555,1,0,0:0:0:0:
400,29,53719,1,8,0:0:0:0:
459,24,53883,1,0,0:0:0:0:
487,59,54047,6,0,P|515:94|495:183,1,120,4|8,1:0|0:0,0:0:0:0:
449,164,54538,1,0,0:0:0:0:
394,190,54702,1,0,1:0:0:0:
340,162,54866,1,0,0:0:0:0:
235,104,55194,5,0,0:0:0:0:
198,47,55358,2,0,L|110:47,1,60,4|0,1:0|0:0,0:0:0:0:
110,100,55686,2,0,L|39:101,1,60,8|0,0:0|0:0,0:0:0:0:
24,155,56014,1,0,1:0:0:0:
63,200,56178,1,0,0:0:0:0:
180,225,56506,1,0,0:0:0:0:
214,206,56669,6,0,P|223:165|311:120,1,120,4|6,1:0|0:0,0:0:0:0:
361,211,57325,2,0,P|411:181|430:125,1,120,0|12,1:0|0:0,0:0:0:0:
337,47,57981,1,4,1:0:0:0:
247,49,58227,1,8,0:0:0:0:
156,49,58473,1,12,0:0:0:0:
133,166,58801,1,0,0:0:0:0:
96,214,58965,2,0,L|94:286,1,60,8|0,0:0|0:0,0:0:0:0:
63,325,59292,6,0,P|94:362|170:329,1,120,12|0,0:0|1:0,0:0:0:0:
175,290,59784,2,0,L|218:229,1,60,0|8,0:0|0:0,0:0:0:0:
261,210,60112,1,0,0:0:0:0:
280,328,60440,1,8,0:0:0:0:
313,352,60604,6,0,P|358:346|432:289,1,120,12|0,0:0|1:0,0:0:0:0:
456,258,61096,2,0,L|453:174,1,60,0|8,0:0|0:0,0:0:0:0:
500,160,61424,1,0,0:0:0:0:
506,100,61587,2,0,L|483:41,1,60,0|0,1:0|0:0,0:0:0:0:
439,20,61915,5,12,0:0:0:0:
388,52,62079,1,0,0:0:0:0:
349,97,62243,1,0,1:0:0:0:
297,127,62407,1,0,0:0:0:0:
241,104,62571,2,0,L|184:69,1,60,12|0,0:0|0:0,0:0:0:0:
130,85,62899,2,0,L|74:56,1,60,4|0,1:0|0:0,0:0:0:0:
22,28,63227,2,0,L|19:169,1,120,4|0,0:0|1:0,0:0:0:0:
74,172,63719,2,0,L|72:300,1,120,0|0,0:0|0:0,0:0:0:0:
16,314,64210,1,8,0:0:0:0:
32,371,64374,5,0,0:0:0:0:
100,384,64538,2,0,P|125:373|170:297,1,120,12|0,0:0|1:0,0:0:0:0:
135,238,65030,1,0,0:0:0:0:
142,178,65194,1,0,0:0:0:0:
173,127,65358,1,0,0:0:0:0:
320,151,65850,6,0,P|379:153|430:123,1,120,12|0,0:0|1:0,0:0:0:0:
471,79,66342,1,2,0:0:0:0:
425,39,66506,1,8,0:0:0:0:
366,49,66669,1,0,0:0:0:0:
208,25,67161,6,0,L|195:155,1,120,12|0,0:0|1:0,0:0:0:0:
91,203,67817,2,0,L|162:239,1,60,8|0,0:0|0:0,0:0:0:0:
147,290,68145,2,0,L|225:323,1,60,0|0,1:0|0:0,0:0:0:0:
227,368,68473,2,0,L|291:386,1,60,12|0,0:0|0:0,0:0:0:0:
339,359,68801,1,0,1:0:0:0:
441,295,69128,6,0,P|470:240|431:131,1,180,4|8,1:0|0:0,0:0:0:0:
374,142,69784,2,0,P|314:161|211:82,1,180,4|0,1:0|1:0,0:0:0:0:
386,34,70768,5,8,0:0:0:0:
459,128,71096,2,0,P|486:190|424:275,1,180,4|0,1:0|1:0,0:0:0:0:
366,284,71751,2,0,P|336:239|199:196,1,180,0|0,1:0|0:0,0:0:0:0:
181,237,72407,2,0,P|144:291|24:174,1,300,4|0,0:0|1:0,0:0:0:0:
67,130,73391,1,8,0:0:0:0:
115,94,73555,2,0,P|175:66|247:89,1,120,2|0,0:0|1:0,0:0:0:0:
276,108,74047,5,14,0:0:0:0:
228,144,74210,1,0,1:0:0:0:
171,163,74374,2,0,L|174:244,1,60,8|0,0:0|1:0,0:0:0:0:
215,266,74702,2,0,L|215:352,1,60,8|0,0:0|1:0,0:0:0:0:
267,355,75030,6,0,P|316:353|369:284,1,120,14|4,0:0|1:0,0:0:0:0:
323,254,75522,1,8,0:0:0:0:
277,214,75686,1,4,1:0:0:0:
329,105,76014,1,0,1:0:0:0:
338,149,76178,1,2,0:0:0:0:
376,194,76342,6,0,P|429:192|441:119,1,120,4|2,1:0|0:0,0:0:0:0:
407,84,76833,1,2,0:0:0:0:
297,35,77161,1,0,1:0:0:0:
272,89,77325,1,8,0:0:0:0:
247,144,77489,1,2,0:0:0:0:
197,177,77653,6,0,P|158:171|66:9,1,240,4|0,1:0|1:0,0:0:0:0:
163,83,78637,2,0,B|253:57|278:97|303:137|452:43,1,300,8|0,0:0|1:0,0:0:0:0:
502,22,79620,1,0,1:0:0:0:
467,137,79948,1,8,0:0:0:0:
384,223,80276,2,0,P|344:257|180:181,1,240,4|0,1:0|1:0,0:0:0:0:
300,160,81260,1,8,0:0:0:0:
255,148,81424,2,0,P|186:117|203:323,1,420,0|8,1:0|0:0,0:0:0:0:
256,192,82899,12,4,86506,1:0:0:0:
126,268,86997,6,0,L|196:260,1,60,4|8,1:0|0:0,0:0:0:0:
262,168,87489,5,4,1:0:0:0:
222,122,87653,1,8,0:0:0:0:
170,90,87817,1,8,0:0:0:0:
