osu file format v14

[General]
AudioFilename: audio.mp3
AudioLeadIn: 0
PreviewTime: 47874
Countdown: 0
SampleSet: Soft
StackLeniency: 0.7
Mode: 0
LetterboxInBreaks: 0
WidescreenStoryboard: 1

[Editor]
DistanceSpacing: 0.7
BeatDivisor: 4
GridSize: 32
TimelineZoom: 1.4

[Metadata]
Title:RESISTER (TV Size)
TitleUnicode:RESISTER (TV Size)
Artist:ASCA
ArtistUnicode:ASCA
Creator:tomatas95
Version:Hard
Source:ソードアート・オンライン アリシゼーション
Tags:sword art online sao alicization season three 3 kirito asuna eugeo alice opening 大倉明日香 okura asuka japanese anime
BeatmapID:2132261
BeatmapSetID:1018305

[Difficulty]
HPDrainRate:5
CircleSize:4
OverallDifficulty:6
ApproachRate:8
SliderMultiplier:1.4
SliderTickRate:1

[Events]
//Background and Video events
Video,0,"sao-a op.avi"
0,0,"sao alicization.png",0,0
//Break Periods
//Storyboard Layer 0 (Background)
//Storyboard Layer 1 (Fail)
//Storyboard Layer 2 (Pass)
//Storyboard Layer 3 (Foreground)
//Storyboard Layer 4 (Overlay)
//Storyboard Sound Samples

[TimingPoints]
1588,327.868852459016,4,2,1,65,1,0
1588,-125,4,2,1,65,0,0
6833,-125,4,2,1,75,0,0
9456,-100,4,2,1,75,0,0
10112,-100,4,2,1,100,0,0
10768,-100,4,2,1,80,0,0
16014,-125,4,2,1,55,0,0
26506,-111.111111111111,4,2,1,70,0,0
36997,-125,4,2,1,55,0,0
42243,-111.111111111111,4,2,1,75,0,0
48801,-100,4,2,1,85,0,1
59210,-100,4,2,1,85,0,0
59292,-100,4,2,1,85,0,1
69784,-100,4,2,1,75,0,0
76342,-125,4,2,1,65,0,0
77653,-100,4,2,1,75,0,0
82899,-100,4,2,1,80,0,0
87489,-100,4,2,1,90,0,0

[Colours]
Combo1 : 45,100,180
Combo2 : 250,230,0
Combo3 : 150,185,230
Combo4 : 240,200,20

[HitObjects]
273,214,768,5,2,0:0:0:0:
229,154,932,2,0,P|196:135|153:137,1,70,2|2,0:0|0:0,0:0:0:0:
144,209,1260,2,0,P|109:206|79:188,1,70,0|0,0:0|0:0,0:0:0:0:
28,119,1588,2,0,P|31:99|118:67,1,112,4|0,0:0|0:0,0:0:0:0:
198,33,2079,1,0,0:0:0:0:
198,33,2243,2,0,B|253:20|253:20|325:39,1,112,0|0,3:0|0:0,0:0:0:0:
261,120,2735,1,2,0:0:0:0:
261,120,2899,6,0,P|248:165|260:227,1,112,0|0,3:0|0:0,0:0:0:0:
336,178,3391,2,0,L|374:128,1,56,0|0,3:0|3:0,0:0:0:0:
440,154,3719,2,0,L|474:97,1,56,0|0,3:0|3:0,0:0:0:0:
496,31,4047,1,0,0:0:0:0:
496,31,4210,6,0,B|426:18|426:18|381:40,1,112,0|0,3:0|0:0,0:0:0:0:
385,121,4702,2,0,P|380:156|358:181,1,56,0|0,3:0|3:0,0:0:0:0:
283,225,5030,2,0,P|249:212|236:196,1,56,2|2,0:0|3:0,0:0:0:0:
200,119,5358,2,0,P|147:81|111:276,1,392,2|0,0:0|3:0,0:0:0:0:
211,353,6833,6,0,L|213:273,1,56,6|0,0:0|0:0,0:0:0:0:
262,213,7161,1,2,0:0:0:0:
175,174,7325,1,8,3:0:0:0:
175,174,7407,1,8,3:0:0:0:
175,174,7489,2,0,L|120:142,1,56,14|8,0:0|3:0,0:0:0:0:
43,99,7817,1,10,3:0:0:0:
121,35,7981,1,8,3:0:0:0:
211,96,8145,6,0,P|256:99|314:64,1,112,14|2,3:0|0:0,0:0:0:0:
416,23,8637,2,0,L|417:102,1,56,2|0,0:0|0:0,0:0:0:0:
458,170,8965,1,2,0:0:0:0:
356,180,9128,2,0,P|317:152|295:152,1,56,0|2,0:0|0:0,0:0:0:0:
238,217,9456,2,0,L|202:243,3,35,10|8|8|8,0:0|3:0|3:0|3:0,0:0:0:0:
141,213,9784,2,0,L|105:239,3,35,8|8|8|8,3:0|3:0|3:0|3:0,0:0:0:0:
25,266,10112,2,0,P|21:316|178:354,1,245,10|0,0:0|0:0,0:0:0:0:
196,326,10768,6,0,P|211:283|255:248,1,70,10|0,0:0|0:0,0:0:0:0:
347,217,11096,2,0,P|335:177|250:142,1,140,8|8,0:0|0:0,0:0:0:0:
170,204,11587,1,8,3:0:0:0:
106,121,11751,1,8,0:0:0:0:
58,209,11915,1,8,3:0:0:0:
97,310,12079,6,0,P|132:326|220:279,1,140,8|8,0:0|0:0,0:0:0:0:
271,206,12571,1,8,3:0:0:0:
271,206,12653,1,8,3:0:0:0:
271,206,12735,2,0,L|366:184,1,70,8|8,0:0|3:0,0:0:0:0:
434,219,13063,1,8,0:0:0:0:
440,119,13227,1,8,3:0:0:0:
352,60,13391,6,0,P|307:35|214:38,1,140,8|8,0:0|0:0,0:0:0:0:
271,119,13883,2,0,L|307:195,1,70,8|8,3:0|3:0,0:0:0:0:
178,144,14210,2,0,L|141:68,1,70,8|8,3:0|0:0,0:0:0:0:
61,30,14538,6,0,B|37:91|37:91|72:138|72:138|60:231,1,210,12|8,0:0|0:0,0:0:0:0:
119,287,15194,1,8,0:0:0:0:
119,287,15276,1,8,0:0:0:0:
119,287,15358,1,8,0:0:0:0:
46,343,15522,2,0,L|16:360,4,35,8|8|8|8|8,3:0|3:0|3:0|3:0|3:0,0:0:0:0:
219,350,16014,6,0,P|236:307|301:293,1,112,6|2,0:0|0:0,0:0:0:0:
358,354,16506,2,0,L|437:350,1,56,2|0,0:0|0:0,0:0:0:0:
477,288,16833,2,0,P|466:244|441:223,1,56,0|0,0:0|0:0,0:0:0:0:
381,209,17161,2,0,P|366:185|363:157,1,56,0|0,0:0|0:0,0:0:0:0:
462,127,17489,6,0,P|455:94|428:71,1,56,0|0,0:0|0:0,0:0:0:0:
347,33,17817,2,0,L|269:32,1,56,2|0,0:0|0:0,0:0:0:0:
249,108,18145,2,0,L|193:107,1,56,0|0,0:0|0:0,0:0:0:0:
102,49,18473,1,2,3:0:0:0:
102,49,18637,6,0,P|77:89|106:147,1,112,2|2,0:0|0:0,0:0:0:0:
187,147,19128,2,0,P|214:148|240:137,1,56,0|0,0:0|0:0,0:0:0:0:
284,57,19456,2,0,P|256:55|230:66,1,56,0|0,0:0|0:0,0:0:0:0:
187,147,19784,2,0,B|156:250|189:256|220:260|193:384,1,224,2|0,0:0|0:0,0:0:0:0:
315,331,20604,2,0,L|301:355,6,28,0|0|0|0|0|0|0,0:0|0:0|0:0|0:0|0:0|0:0|0:0,0:0:0:0:
291,227,21260,6,0,P|321:221|351:229,1,56,2|0,0:0|0:0,0:0:0:0:
404,312,21587,2,0,P|447:297|453:273,1,56,2|0,0:0|0:0,0:0:0:0:
431,204,21915,1,2,0:0:0:0:
431,204,22079,2,0,L|455:146,1,56,0|0,0:0|0:0,0:0:0:0:
495,54,22407,2,0,B|421:39|421:39|381:69|381:69|326:68,1,168,0|2,0:0|0:0,0:0:0:0:
247,37,23063,2,0,L|246:100,1,56,0|2,0:0|0:0,0:0:0:0:
186,182,23391,2,0,L|165:201,4,28,0|0|0|0|0,0:0|0:0|3:0|0:0|0:0,0:0:0:0:
296,184,23883,6,0,P|325:163|405:152,1,112,0|2,0:0|0:0,0:0:0:0:
371,240,24374,2,0,L|401:314,1,56,0|0,0:0|3:0,0:0:0:0:
437,368,24702,2,0,L|493:364,2,56,0|0|0,0:0|0:0|0:0,0:0:0:0:
332,377,25194,2,0,P|296:365|236:248,1,168,2|0,0:0|0:0,0:0:0:0:
287,190,25850,2,0,L|303:161,6,28,0|0|0|0|0|0|0,0:0|0:0|0:0|0:0|0:0|0:0|0:0,0:0:0:0:
230,100,26506,6,0,L|140:76,1,62.9999980773926,6|0,0:0|0:0,0:0:0:0:
203,165,26833,2,0,L|114:142,1,62.9999980773926,0|0,1:0|0:0,0:0:0:0:
182,231,27161,2,0,L|95:214,1,62.9999980773926,0|0,1:0|0:0,0:0:0:0:
21,228,27489,1,0,1:0:0:0:
21,228,27653,1,0,0:0:0:0:
74,148,27817,5,0,1:0:0:0:
74,148,27981,1,0,0:0:0:0:
8,65,28145,2,0,P|35:40|70:28,1,62.9999980773926,0|0,1:0|0:0,0:0:0:0:
168,28,28473,2,0,L|176:93,1,62.9999980773926,0|0,1:0|0:0,0:0:0:0:
242,149,28801,1,0,1:0:0:0:
130,196,28965,1,0,0:0:0:0:
130,196,29128,6,0,P|142:240|159:255,1,62.9999980773926,0|0,1:0|0:0,0:0:0:0:
247,263,29456,1,0,1:0:0:0:
315,196,29620,1,0,0:0:0:0:
365,281,29784,2,0,P|402:270|436:269,1,62.9999980773926,0|0,1:0|0:0,0:0:0:0:
373,364,30112,2,0,P|343:373|311:376,1,62.9999980773926,0|0,1:0|0:0,0:0:0:0:
223,345,30440,6,0,L|149:346,1,62.9999980773926,0|0,1:0|0:0,0:0:0:0:
140,272,30768,2,0,L|66:272,1,62.9999980773926,0|0,1:0|0:0,0:0:0:0:
73,197,31096,2,0,L|-4:197,1,62.9999980773926,0|0,1:0|0:0,0:0:0:0:
41,110,31424,1,0,1:0:0:0:
41,110,31587,1,0,0:0:0:0:
144,116,31751,6,0,B|181:123|181:123|224:111,1,62.9999980773926,0|0,1:0|0:0,0:0:0:0:
222,34,32079,2,0,B|246:27|246:27|283:34,1,62.9999980773926,0|0,1:0|0:0,0:0:0:0:
319,115,32407,2,0,B|322:162|322:162|293:182|293:182|298:227,1,125.999996154785,0|0,1:0|1:0,0:0:0:0:
202,291,32899,1,0,0:0:0:0:
202,291,33063,6,0,B|228:318|228:318|279:321,1,62.9999980773926,0|0,1:0|0:0,0:0:0:0:
335,293,33391,2,0,P|371:288|406:296,1,62.9999980773926,0|0,1:0|0:0,0:0:0:0:
482,347,33719,1,0,1:0:0:0:
482,347,33883,2,0,P|489:298|478:260,1,62.9999980773926,0|0,0:0|1:0,0:0:0:0:
407,189,34210,1,0,0:0:0:0:
407,189,34374,6,0,P|388:143|307:128,2,125.999996154785,4|0|0,1:0|1:0|1:0,0:0:0:0:
307,207,35358,2,0,L|232:206,1,62.9999980773926,0|0,1:0|0:0,0:0:0:0:
179,270,35686,2,0,P|148:239|143:212,1,62.9999980773926,4|0,1:0|0:0,0:0:0:0:
200,153,36014,2,0,P|188:123|164:104,1,62.9999980773926,2|0,0:0|1:0,0:0:0:0:
66,73,36342,2,0,P|82:38|221:41,1,188.999994232178,8|0,0:0|0:0,0:0:0:0:
151,94,36997,6,0,L|185:164,1,56,6|0,0:0|0:0,0:0:0:0:
272,209,37325,2,0,B|300:212|300:212|340:193,1,56,2|0,0:0|1:0,0:0:0:0:
353,117,37653,2,0,B|381:120|381:120|406:108,1,56,2|0,0:0|1:0,0:0:0:0:
458,31,37981,2,0,B|486:34|486:34|511:22,1,56,10|0,0:0|0:0,0:0:0:0:
502,120,38309,2,0,L|499:186,1,56,4|2,1:0|0:0,0:0:0:0:
487,265,38801,5,0,1:0:0:0:
435,294,38965,2,0,P|407:275|380:274,1,56,2|0,0:0|1:0,0:0:0:0:
322,335,39292,2,0,P|294:340|254:333,1,56,0|0,1:0|0:0,0:0:0:0:
191,272,39620,2,0,B|151:253|151:253|124:275|124:275|86:272,1,112,4|0,1:0|0:0,0:0:0:0:
25,342,40112,2,0,P|10:305|23:277,1,56,0|0,1:0|0:0,0:0:0:0:
76,234,40440,1,0,1:0:0:0:
51,155,40604,1,0,1:0:0:0:
19,73,40768,1,2,0:0:0:0:
19,73,40932,6,0,B|70:47|70:47|122:75|122:75|181:65,1,168,4|0,1:0|1:0,0:0:0:0:
266,21,41587,1,2,0:0:0:0:
264,73,41751,1,0,1:0:0:0:
266,130,41915,1,8,0:0:0:0:
221,262,42243,5,4,1:0:0:0:
221,262,42407,2,0,L|141:239,1,62.9999980773926,0|0,0:0|1:0,0:0:0:0:
81,187,42735,1,0,0:0:0:0:
63,282,42899,1,0,1:0:0:0:
158,245,43063,1,0,0:0:0:0:
142,347,43227,2,0,P|179:355|217:349,1,62.9999980773926,0|0,1:0|0:0,0:0:0:0:
256,273,43555,2,0,P|288:246|375:248,1,125.999996154785,4|0,1:0|1:0,0:0:0:0:
467,352,44210,5,0,1:0:0:0:
467,352,44374,2,0,P|479:314|465:264,1,62.9999980773926,0|0,0:0|1:0,0:0:0:0:
429,212,44702,1,0,0:0:0:0:
306,228,44866,2,0,B|259:192|237:214|217:241|162:207,1,125.999996154785,4|0,1:0|1:0,0:0:0:0:
16,103,45522,6,0,P|48:88|86:87,1,62.9999980773926,0|2,1:0|0:0,0:0:0:0:
108,116,45768,2,0,P|150:124|181:110,1,62.9999980773926,0|0,0:0|0:0,0:0:0:0:
177,74,46014,1,6,0:0:0:0:
266,44,46178,6,0,L|255:92,3,31.4999990386963,8|8|8|8,0:0|0:0|0:0|0:0,0:0:0:0:
323,128,46506,2,0,L|312:176,3,31.4999990386963,8|8|8|8,0:0|0:0|0:0|0:0,0:0:0:0:
386,204,46833,2,0,L|375:252,3,31.4999990386963,8|8|8|8,0:0|0:0|0:0|0:0,0:0:0:0:
448,285,47161,2,0,L|437:333,2,31.4999990386963,8|0|8,0:0|0:0|0:0,0:0:0:0:
362,350,47489,5,8,0:0:0:0:
287,246,47653,1,8,0:0:0:0:
169,349,47981,5,0,0:0:0:0:
169,349,48145,2,0,P|136:328|127:300,1,62.9999980773926,2|0,0:0|0:0,0:0:0:0:
190,226,48473,2,0,P|176:198|148:183,1,62.9999980773926,2|0,0:0|0:0,0:0:0:0:
57,172,48801,6,0,P|57:126|136:66,1,140,14|8,0:0|0:0,0:0:0:0:
205,103,49292,1,0,0:0:0:0:
288,22,49456,2,0,P|339:44|314:133,1,140,4|8,1:0|0:0,0:0:0:0:
268,192,49948,1,0,0:0:0:0:
326,284,50112,6,0,B|371:320|392:287|412:262|486:306,1,140,4|10,1:0|0:0,0:0:0:0:
446,372,50604,2,0,B|411:380|411:380|367:363,1,70,0|0,0:0|1:0,0:0:0:0:
326,284,50932,2,0,B|294:271|294:271|259:279,1,70,0|8,0:0|0:0,0:0:0:0:
181,357,51260,1,0,0:0:0:0:
181,357,51424,6,0,P|151:330|134:232,1,140,4|8,1:0|0:0,0:0:0:0:
217,270,51915,2,0,P|236:223|235:184,1,70,0|0,0:0|1:0,0:0:0:0:
151,149,52243,2,0,P|157:110|182:81,1,70,2|10,0:0|0:0,0:0:0:0:
271,53,52571,2,0,P|308:39|281:133,1,210,0|8,0:0|0:0,0:0:0:0:
191,168,53227,2,0,L|113:130,1,70,0|0,0:0|1:0,0:0:0:0:
170,40,53555,2,0,P|131:23|41:62,1,140,0|0,0:0|0:0,0:0:0:0:
18,154,54047,5,4,1:0:0:0:
60,243,54210,1,0,0:0:0:0:
126,160,54374,2,0,P|164:154|198:161,1,70,8|0,0:0|0:0,0:0:0:0:
280,246,54702,2,0,P|242:252|208:245,1,70,0|0,1:0|0:0,0:0:0:0:
111,242,55030,2,0,L|100:335,1,70,8|0,0:0|0:0,0:0:0:0:
173,356,55358,5,4,1:0:0:0:
278,336,55522,1,0,0:0:0:0:
286,230,55686,2,0,P|290:186|312:153,1,70,8|0,0:0|0:0,0:0:0:0:
419,110,56014,2,0,P|415:154|393:187,1,70,0|0,1:0|0:0,0:0:0:0:
366,257,56342,2,0,L|458:257,1,70,8|0,0:0|0:0,0:0:0:0:
475,354,56669,6,0,P|438:358|364:339,1,105,4|0,1:0|0:0,0:0:0:0:
339,316,56997,2,0,P|300:304|221:329,1,105,6|0,0:0|1:0,0:0:0:0:
199,344,57325,2,0,P|157:323|136:266,1,105,0|8,1:0|0:0,0:0:0:0:
161,231,57653,2,0,P|161:187|136:134,1,70,12|8,0:0|0:0,0:0:0:0:
49,122,57981,5,4,1:0:0:0:
163,66,58227,1,8,0:0:0:0:
282,98,58473,1,12,0:0:0:0:
282,98,58637,2,0,P|312:68|326:166,1,210,0|0,0:0|0:0,0:0:0:0:
260,210,59292,6,0,L|261:364,1,140,12|0,0:0|1:0,0:0:0:0:
365,368,59784,1,0,0:0:0:0:
456,312,59948,1,8,0:0:0:0:
336,267,60112,1,0,0:0:0:0:
440,219,60276,1,0,1:0:0:0:
366,146,60440,1,8,0:0:0:0:
396,49,60604,6,0,P|350:33|318:37,1,70,12|0,0:0|0:0,0:0:0:0:
282,117,60932,1,0,1:0:0:0:
207,28,61096,2,0,P|161:21|127:26,1,70,0|8,0:0|0:0,0:0:0:0:
80,89,61424,1,0,0:0:0:0:
167,151,61587,1,0,1:0:0:0:
75,239,61751,5,0,0:0:0:0:
75,239,61915,2,0,B|100:274|100:274|145:279,1,70,12|0,0:0|0:0,0:0:0:0:
211,234,62243,1,0,1:0:0:0:
296,293,62407,1,0,0:0:0:0:
191,359,62571,2,0,P|148:359|109:340,1,70,12|0,0:0|0:0,0:0:0:0:
63,258,62899,2,0,L|78:174,1,70,4|0,1:0|0:0,0:0:0:0:
70,87,63227,6,0,B|129:60|139:90|151:122|233:84,1,140,4|0,0:0|1:0,0:0:0:0:
271,21,63719,2,0,L|286:168,1,140,0|0,0:0|0:0,0:0:0:0:
219,230,64210,2,0,L|225:318,1,70,8|0,0:0|0:0,0:0:0:0:
307,354,64538,5,12,0:0:0:0:
365,282,64702,1,0,0:0:0:0:
425,354,64866,1,0,1:0:0:0:
365,282,65030,2,0,P|352:241|325:219,1,70,0|0,0:0|0:0,0:0:0:0:
245,190,65358,1,0,0:0:0:0:
192,101,65522,1,4,1:0:0:0:
298,68,65686,1,0,0:0:0:0:
298,68,65850,6,0,B|334:54|334:54|376:70,1,70,12|2,0:0|0:0,0:0:0:0:
433,128,66178,2,0,L|507:126,1,70,0|2,1:0|0:0,0:0:0:0:
408,211,66506,2,0,L|328:211,1,70,8|0,0:0|0:0,0:0:0:0:
249,155,66833,1,4,1:0:0:0:
238,268,66997,1,0,0:0:0:0:
238,268,67161,6,0,P|213:302|142:290,1,105,12|0,0:0|0:0,0:0:0:0:
127,278,67489,2,0,P|94:248|98:193,1,70,0|0,1:0|0:0,0:0:0:0:
181,148,67817,2,0,P|141:139|101:160,1,70,8|0,0:0|0:0,0:0:0:0:
217,214,68145,2,0,P|254:222|287:214,1,70,0|0,1:0|0:0,0:0:0:0:
354,102,68473,2,0,L|357:255,1,140,12|0,0:0|1:0,0:0:0:0:
467,359,69128,6,0,B|387:356|367:317|367:317|351:355|271:356,1,210,4|8,1:0|0:0,0:0:0:0:
298,270,69784,2,0,P|266:226|249:204,1,70,4|0,1:0|0:0,0:0:0:0:
179,125,70112,1,8,0:0:0:0:
179,125,70276,2,0,P|183:191|162:291,1,140,0|0,1:0|1:0,0:0:0:0:
124,322,70768,6,0,P|84:307|59:288,1,70,8|0,0:0|1:0,0:0:0:0:
23,214,71096,1,4,1:0:0:0:
21,112,71260,1,0,1:0:0:0:
123,93,71424,1,8,0:0:0:0:
175,184,71587,1,0,1:0:0:0:
258,150,71751,2,0,P|311:173|426:68,1,210,0|0,1:0|0:0,0:0:0:0:
328,84,72407,6,0,L|457:336,1,280,4|0,0:0|0:0,0:0:0:0:
359,353,73227,1,0,1:0:0:0:
291,278,73391,1,8,0:0:0:0:
226,355,73555,2,0,P|188:334|172:289,1,70,2|4,0:0|1:0,0:0:0:0:
223,231,73883,5,0,1:0:0:0:
153,169,74047,1,14,0:0:0:0:
57,217,74210,1,0,1:0:0:0:
57,217,74374,1,8,0:0:0:0:
102,116,74538,1,0,1:0:0:0:
102,116,74702,1,8,0:0:0:0:
145,238,74866,1,0,1:0:0:0:
236,185,75030,6,0,P|261:154|277:110,1,70,14|0,0:0|1:0,0:0:0:0:
231,31,75358,2,0,P|206:62|190:106,1,70,4|8,1:0|0:0,0:0:0:0:
236,185,75686,2,0,L|312:186,1,70,4|0,1:0|1:0,0:0:0:0:
365,111,76014,1,0,1:0:0:0:
443,38,76178,1,2,0:0:0:0:
467,161,76342,6,0,B|491:216|491:216|434:246,1,112,4|2,1:0|0:0,0:0:0:0:
354,208,76833,2,0,L|354:282,1,56,2|0,0:0|0:0,0:0:0:0:
301,341,77161,1,0,1:0:0:0:
301,341,77243,1,0,1:0:0:0:
301,341,77325,1,8,0:0:0:0:
224,268,77489,1,2,0:0:0:0:
182,364,77653,6,0,P|133:368|102:349,1,70,4|0,1:0|1:0,0:0:0:0:
31,324,77981,2,0,L|36:239,1,70,8|0,0:0|0:0,0:0:0:0:
86,182,78309,1,0,1:0:0:0:
86,182,78473,1,0,1:0:0:0:
185,133,78637,2,0,P|197:88|279:46,1,140,8|0,0:0|1:0,0:0:0:0:
272,135,79128,6,0,L|352:184,1,70,0|8,1:0|0:0,0:0:0:0:
409,125,79456,1,0,1:0:0:0:
409,125,79620,1,0,1:0:0:0:
460,210,79784,1,0,1:0:0:0:
374,273,79948,2,0,P|334:278|285:265,1,70,8|0,0:0|1:0,0:0:0:0:
261,156,80276,6,0,P|236:129|201:107,1,70,4|0,1:0|1:0,0:0:0:0:
113,142,80604,1,10,0:0:0:0:
173,215,80768,2,0,L|135:286,1,70,2|0,0:0|1:0,0:0:0:0:
45,352,81096,2,0,P|87:361|121:359,1,70,0|8,1:0|0:0,0:0:0:0:
207,303,81424,1,0,1:0:0:0:
207,303,81587,6,0,B|273:272|273:272|278:198|278:198|339:162,1,210,4|0,1:0|1:0,0:0:0:0:
396,263,82243,1,8,0:0:0:0:
476,176,82407,2,0,L|442:147,5,35,8|8|8|8|8|8,0:0|0:0|0:0|0:0|0:0|0:0,0:0:0:0:
414,126,82899,6,0,P|387:93|269:72,1,140,4|8,1:0|0:0,0:0:0:0:
327,154,83391,1,0,0:0:0:0:
235,99,83555,1,0,1:0:0:0:
178,181,83719,1,0,0:0:0:0:
180,291,83883,2,0,L|180:368,1,70,8|0,0:0|0:0,0:0:0:0:
277,374,84210,5,0,1:0:0:0:
314,270,84374,1,0,0:0:0:0:
254,189,84538,1,8,0:0:0:0:
336,132,84702,1,0,0:0:0:0:
423,186,84866,2,0,L|510:183,1,70,0|0,1:0|0:0,0:0:0:0:
461,77,85194,2,0,P|436:47|397:38,1,70,8|0,0:0|0:0,0:0:0:0:
325,109,85522,6,0,P|281:115|229:99,1,70,4|8,1:0|0:0,0:0:0:0:
183,43,85850,1,8,0:0:0:0:
111,120,86014,2,0,L|105:201,1,70,4|8,1:0|0:0,0:0:0:0:
30,260,86342,1,8,0:0:0:0:
30,260,86424,1,8,0:0:0:0:
30,260,86506,2,0,B|76:296|86:272|101:243|162:284,1,140,4|8,1:0|0:0,0:0:0:0:
236,288,86997,1,4,1:0:0:0:
267,213,87161,2,0,L|307:177,3,35,8|8|8|8,0:0|0:0|0:0|0:0,0:0:0:0:
325,145,87489,5,4,1:0:0:0:
419,55,87653,1,8,0:0:0:0:
301,32,87817,2,0,L|151:31,1,140,8|0,0:0|0:0,0:0:0:0:
