osu file format v14

[General]
AudioFilename: audio.mp3
AudioLeadIn: 0
PreviewTime: 47874
Countdown: 0
SampleSet: Soft
StackLeniency: 0.7
Mode: 0
LetterboxInBreaks: 0
WidescreenStoryboard: 1

[Editor]
DistanceSpacing: 1.3
BeatDivisor: 4
GridSize: 32
TimelineZoom: 2.5

[Metadata]
Title:RESISTER (TV Size)
TitleUnicode:RESISTER (TV Size)
Artist:ASCA
ArtistUnicode:ASCA
Creator:tomatas95
Version:Blue Sky
Source:ソードアート・オンライン アリシゼーション
Tags:sword art online sao alicization season three 3 kirito asuna eugeo alice opening 大倉明日香 okura asuka japanese anime
BeatmapID:2131015
BeatmapSetID:1018305

[Difficulty]
HPDrainRate:6
CircleSize:3.8
OverallDifficulty:8.7
ApproachRate:9.2
SliderMultiplier:1.7
SliderTickRate:1

[Events]
//Background and Video events
Video,0,"sao-a op.avi"
0,0,"sao alicization.png",0,0
//Break Periods
//Storyboard Layer 0 (Background)
//Storyboard Layer 1 (Fail)
//Storyboard Layer 2 (Pass)
//Storyboard Layer 3 (Foreground)
//Storyboard Layer 4 (Overlay)
//Storyboard Sound Samples

[TimingPoints]
1588,327.868852459016,4,2,1,65,1,0
1588,-133.333333333333,4,2,1,65,0,0
6833,-125,4,2,1,75,0,0
10112,-200,4,2,1,100,0,0
10768,-100,4,2,1,80,0,0
16014,-133.333333333333,4,2,1,55,0,0
26506,-100,4,2,1,70,0,0
35686,-133.333333333333,4,2,1,70,0,0
36997,-133.333333333333,4,2,1,55,0,0
42243,-100,4,2,1,75,0,0
47981,-133.333333333333,4,2,1,75,0,0
48801,-100,4,2,1,85,0,1
69784,-100,4,2,1,75,0,1
76342,-133.333333333333,4,2,1,65,0,0
77653,-100,4,2,1,75,0,0
82899,-100,4,2,1,80,0,0
87489,-100,4,2,1,90,0,0

[Colours]
Combo1 : 45,100,180
Combo2 : 250,230,0
Combo3 : 150,185,230
Combo4 : 240,200,20

[HitObjects]
250,182,768,5,2,0:0:0:0:
211,91,932,2,0,B|166:83|166:83|122:98,1,85,2|2,0:0|0:0,0:0:0:0:
55,173,1260,2,0,L|68:279,1,85
155,336,1588,2,0,P|200:335|267:289,1,127.500004863739,4|0,0:0|0:0,0:0:0:0:
187,237,2079,1,0,0:0:0:0:
264,158,2243,1,0,3:0:0:0:
364,194,2407,2,0,L|454:209,1,63.7500024318696
404,323,2735,1,2,0:0:0:0:
281,315,2899,6,0,P|253:289|219:280,1,63.7500024318696,0|0,3:0|3:0,0:0:0:0:
137,339,3227,1,0,0:0:0:0:
31,313,3391,2,0,P|34:275|73:238,1,63.7500024318696,0|0,3:0|3:0,0:0:0:0:
154,231,3719,2,0,P|149:193|131:151,1,63.7500024318696,0|0,3:0|3:0,0:0:0:0:
59,101,4047,1,0,0:0:0:0:
138,32,4210,6,0,B|177:18|177:18|219:23,1,63.7500024318696,0|0,3:0|0:0,0:0:0:0:
236,121,4538,1,0,0:0:0:0:
320,48,4702,2,0,P|340:90|338:133,1,63.7500024318696,0|0,3:0|3:0,0:0:0:0:
373,207,5030,2,0,L|296:261,1,63.7500024318696,2|2,0:0|3:0,0:0:0:0:
244,337,5358,6,0,P|205:344|114:310,1,127.500004863739,2|0,0:0|3:0,0:0:0:0:
25,272,5850,2,0,L|34:181,1,63.7500024318696,0|0,3:0|3:0,0:0:0:0:
104,126,6178,2,0,P|150:115|177:120,1,63.7500024318696,0|0,3:0|3:0,0:0:0:0:
248,189,6506,2,0,P|280:195|314:190,1,63.7500024318696,0|0,3:0|3:0,0:0:0:0:
472,187,6833,6,0,P|477:220|472:253,1,68,6|0,0:0|0:0,0:0:0:0:
396,320,7161,2,0,L|304:297,1,68,2|8,0:0|3:0,0:0:0:0:
286,297,7407,1,8,3:0:0:0:
286,297,7489,1,14,0:0:0:0:
148,290,7653,1,8,3:0:0:0:
241,167,7817,1,10,3:0:0:0:
79,205,7981,1,8,3:0:0:0:
347,238,8145,6,0,B|364:193|364:193|340:157|340:157|383:100,1,136,14|2,3:0|0:0,0:0:0:0:
478,36,8637,2,0,P|430:19|394:26,1,68,2|0,0:0|0:0,0:0:0:0:
303,80,8965,2,0,L|225:74,1,68,2|0,0:0|0:0,0:0:0:0:
115,17,9292,1,2,0:0:0:0:
45,98,9456,5,10,0:0:0:0:
31,129,9537,1,8,3:0:0:0:
27,162,9619,1,8,3:0:0:0:
34,195,9701,1,8,3:0:0:0:
50,225,9783,1,8,3:0:0:0:
74,249,9865,1,8,3:0:0:0:
105,264,9947,1,8,3:0:0:0:
138,269,10029,1,8,3:0:0:0:
172,264,10112,2,0,B|215:236|215:236|220:200|220:200|270:163,1,148.75,10|0,0:0|0:0,0:0:0:0:
318,101,10768,6,0,L|319:215,1,85,10|0,0:0|0:0,0:0:0:0:
396,339,11096,2,0,P|411:286|408:248,1,85,8|0,0:0|0:0,0:0:0:0:
386,123,11424,1,8,0:0:0:0:
512,12,11587,1,8,3:0:0:0:
347,36,11751,1,8,0:0:0:0:
512,101,11915,1,8,3:0:0:0:
320,188,12079,6,0,P|273:204|219:196,1,85,8|0,0:0|0:0,0:0:0:0:
198,91,12407,1,8,0:0:0:0:
111,240,12571,1,8,3:0:0:0:
111,240,12653,1,8,3:0:0:0:
111,240,12735,1,8,0:0:0:0:
71,62,12899,1,8,3:0:0:0:
56,255,13063,1,8,0:0:0:0:
189,63,13227,1,8,3:0:0:0:
242,243,13391,6,0,P|285:258|333:251,1,85,8|0,0:0|0:0,0:0:0:0:
362,252,13637,1,0,0:0:0:0:
362,252,13719,1,8,0:0:0:0:
354,145,13883,1,8,3:0:0:0:
512,278,14047,1,8,3:0:0:0:
490,104,14210,1,8,3:0:0:0:
411,297,14374,1,8,0:0:0:0:
349,54,14538,2,0,P|285:49|244:62,1,85,12|0,0:0|0:0,0:0:0:0:
305,143,14866,5,8,3:0:0:0:
167,34,15030,1,8,0:0:0:0:
221,205,15194,1,8,0:0:0:0:
221,205,15276,1,8,0:0:0:0:
221,205,15358,1,8,0:0:0:0:
39,89,15522,1,8,3:0:0:0:
268,63,15686,2,0,P|301:33|381:10,1,127.5,8|0,3:0|0:0,0:0:0:0:
416,5,16014,6,0,P|456:51|442:130,1,127.500004863739,6|0,0:0|0:0,0:0:0:0:
395,204,16506,2,0,P|353:196|324:172,1,63.7500024318696,2|0,0:0|0:0,0:0:0:0:
336,98,16833,2,0,P|332:64|312:31,1,63.7500024318696
219,35,17161,6,0,P|168:25|147:29,1,63.7500024318696,0|0,0:0|0:0,0:0:0:0:
151,183,17489,2,0,L|173:123,1,63.7500024318696,0|0,0:0|0:0,0:0:0:0:
85,281,17817,2,0,B|123:294|123:294|175:287,1,63.7500024318696,2|0,0:0|0:0,0:0:0:0:
320,201,18145,2,0,B|282:188|282:188|230:195,1,63.7500024318696,0|0,0:0|0:0,0:0:0:0:
257,320,18473,1,2,3:0:0:0:
367,364,18637,6,0,P|407:343|420:314,1,63.7500024318696,2|2,0:0|0:0,0:0:0:0:
432,222,18965,1,2,0:0:0:0:
361,144,19128,2,0,P|330:121|291:106,1,63.7500024318696
224,202,19456,2,0,P|252:207|287:202,1,63.7500024318696
95,270,19784,2,0,P|126:293|165:308,1,63.7500024318696,2|2,0:0|0:0,0:0:0:0:
246,339,20112,5,0,0:0:0:0:
309,274,20276,1,0,0:0:0:0:
374,204,20440,1,0,0:0:0:0:
434,116,20604,2,0,B|385:107|385:107|353:129|353:129|296:125,1,127.500004863739,0|0,0:0|0:0,0:0:0:0:
250,50,21096,1,0,0:0:0:0:
181,151,21260,5,2,0:0:0:0:
124,63,21424,2,0,P|86:47|42:43,1,63.7500024318696,0|2,0:0|0:0,0:0:0:0:
68,151,21751,1,0,0:0:0:0:
136,240,21915,1,2,0:0:0:0:
208,153,22079,2,0,L|271:117,1,63.7500024318696,0|0,0:0|0:0,0:0:0:0:
358,70,22407,1,0,0:0:0:0:
472,143,22571,5,2,0:0:0:0:
406,239,22735,2,0,P|375:262|325:273,1,63.7500024318696,0|2,0:0|0:0,0:0:0:0:
262,335,23063,2,0,L|187:343,1,63.7500024318696,0|2,0:0|0:0,0:0:0:0:
92,344,23391,2,0,P|83:299|88:267,1,63.7500024318696,0|0,0:0|3:0,0:0:0:0:
117,188,23719,1,0,0:0:0:0:
32,124,23883,6,0,P|42:88|157:35,1,159.375006079674,0|0,0:0|0:0,0:0:0:0:
171,62,24374,2,0,P|198:91|269:87,1,95.6250036478044,0|0,0:0|0:0,0:0:0:0:
281,73,24702,2,0,P|310:50|391:64,1,95.6250036478044,0|0,0:0|0:0,0:0:0:0:
404,73,25030,2,0,L|402:164,1,63.7500024318696,0|2,0:0|0:0,0:0:0:0:
361,207,25358,5,0,0:0:0:0:
269,203,25522,1,0,0:0:0:0:
137,210,25686,1,0,0:0:0:0:
42,279,25850,2,0,P|30:237|135:86,1,223.125008511544
176,109,26506,6,0,L|281:120,1,85,6|0,0:0|0:0,0:0:0:0:
337,228,26833,2,0,L|240:217,1,85,0|0,1:0|0:0,0:0:0:0:
134,296,27161,2,0,L|227:315,1,85,0|0,1:0|0:0,0:0:0:0:
321,360,27489,1,0,0:0:0:0:
252,218,27653,2,0,B|237:177|237:177|262:120,1,85
326,55,27981,2,0,B|367:41|367:41|424:64,1,85
447,161,28309,1,0,0:0:0:0:
409,262,28473,6,0,L|293:274,1,85,0|0,1:0|0:0,0:0:0:0:
171,281,28801,2,0,P|132:248|108:198,1,85
75,114,29128,6,0,B|106:82|106:82|155:85,1,85,0|0,1:0|0:0,0:0:0:0:
244,127,29456,1,0,1:0:0:0:
298,82,29620,2,0,P|342:60|389:20,1,85,0|0,0:0|1:0,0:0:0:0:
172,171,29948,2,0,P|216:149|263:109,1,85,0|0,0:0|1:0,0:0:0:0:
28,257,30276,2,0,P|68:237|132:259,1,85,0|0,0:0|1:0,0:0:0:0:
197,355,30604,5,0,0:0:0:0:
309,257,30768,1,0,1:0:0:0:
179,263,30932,1,0,0:0:0:0:
360,323,31096,1,0,1:0:0:0:
230,201,31260,1,0,0:0:0:0:
255,366,31424,1,0,1:0:0:0:
342,197,31587,1,0,0:0:0:0:
446,271,31751,6,0,P|470:326|473:365,1,85,0|0,1:0|0:0,0:0:0:0:
342,197,32079,2,0,P|322:159|314:117,1,85,0|0,1:0|0:0,0:0:0:0:
224,47,32407,1,0,1:0:0:0:
187,146,32571,2,0,L|94:144,1,85,0|0,0:0|1:0,0:0:0:0:
59,243,32899,1,0,0:0:0:0:
145,307,33063,6,0,P|175:266|182:202,1,85,0|0,1:0|0:0,0:0:0:0:
131,111,33391,1,0,1:0:0:0:
271,233,33555,1,0,0:0:0:0:
88,198,33719,1,0,1:0:0:0:
233,131,33883,2,0,L|343:104,1,85,0|0,0:0|1:0,0:0:0:0:
420,66,34210,1,0,0:0:0:0:
479,192,34374,6,0,P|485:240|442:310,1,127.5,4|0,1:0|0:0,0:0:0:0:
388,226,34702,2,0,P|337:188|274:206,1,127.5,0|0,1:0|0:0,0:0:0:0:
192,324,35030,2,0,P|251:322|306:269,1,127.5,0|0,1:0|0:0,0:0:0:0:
215,230,35358,2,0,L|97:161,1,127.5,0|0,1:0|0:0,0:0:0:0:
0,169,35686,6,0,P|1:121|30:84,1,95.6250036478044,4|0,1:0|0:0,0:0:0:0:
132,27,36014,1,2,0:0:0:0:
204,129,36178,1,0,1:0:0:0:
91,187,36342,1,8,0:0:0:0:
30,84,36506,1,0,1:0:0:0:
209,56,36669,2,0,P|246:44|310:54,1,95.6250036478044,0|0,1:0|0:0,0:0:0:0:
348,63,36997,6,0,L|351:155,1,63.7500024318696,6|0,0:0|0:0,0:0:0:0:
280,213,37325,1,2,0:0:0:0:
396,251,37489,1,0,1:0:0:0:
287,310,37653,2,0,P|243:323|204:321,1,63.7500024318696,2|0,0:0|1:0,0:0:0:0:
405,352,37981,2,0,P|441:345|479:321,1,63.7500024318696,10|0,0:0|0:0,0:0:0:0:
349,193,38309,6,0,P|359:149|427:69,1,127.500004863739,4|0,1:0|0:0,0:0:0:0:
465,168,38801,1,0,1:0:0:0:
410,261,38965,1,2,0:0:0:0:
307,288,39128,1,0,1:0:0:0:
221,160,39292,2,0,P|207:118|169:89,1,63.7500024318696,0|0,1:0|0:0,0:0:0:0:
95,13,39620,6,0,B|61:68|61:68|105:131,1,127.500004863739,4|0,1:0|0:0,0:0:0:0:
183,233,40112,2,0,L|270:232,1,63.7500024318696,0|0,1:0|0:0,0:0:0:0:
302,127,40440,1,0,1:0:0:0:
438,200,40604,1,0,1:0:0:0:
310,233,40768,1,2,0:0:0:0:
431,94,40932,5,4,1:0:0:0:
310,233,41096,2,0,L|220:231,1,63.7500024318696,0|0,0:0|0:0,0:0:0:0:
150,310,41424,1,0,1:0:0:0:
48,357,41587,2,0,P|45:319|60:278,1,63.7500024318696,2|0,0:0|1:0,0:0:0:0:
123,220,41915,1,8,0:0:0:0:
10,163,42079,1,0,0:0:0:0:
142,79,42243,6,0,P|185:62|226:58,1,85,4|0,1:0|0:0,0:0:0:0:
339,27,42571,1,0,1:0:0:0:
271,149,42735,1,0,0:0:0:0:
341,52,42899,1,0,1:0:0:0:
375,200,43063,1,0,0:0:0:0:
369,74,43227,1,0,1:0:0:0:
494,238,43391,1,0,0:0:0:0:
256,33,43555,6,0,P|213:17|142:21,1,85,4|0,1:0|0:0,0:0:0:0:
160,192,43883,2,0,L|193:114,1,85,0|0,1:0|0:0,0:0:0:0:
31,258,44210,2,0,P|74:286|131:284,1,85,0|0,1:0|0:0,0:0:0:0:
159,269,44456,1,0,0:0:0:0:
159,269,44538,1,0,1:0:0:0:
249,346,44702,1,0,0:0:0:0:
261,157,44866,6,0,P|265:106|306:68,1,85,4|0,1:0|0:0,0:0:0:0:
397,20,45194,2,0,B|424:61|424:61|410:104,1,85,0|0,1:0|0:0,0:0:0:0:
341,248,45522,2,0,P|296:233|231:252,1,85,0|2,1:0|0:0,0:0:0:0:
241,260,45768,1,0,0:0:0:0:
241,260,45850,1,0,1:0:0:0:
92,352,46014,1,6,0:0:0:0:
92,352,46096,1,0,1:0:0:0:
92,352,46178,6,0,L|71:299,1,42.5,8|8,0:0|0:0,0:0:0:0:
181,352,46342,2,0,L|195:296,1,42.5,8|8,0:0|0:0,0:0:0:0:
134,220,46506,2,0,L|71:221,1,42.5,8|8,0:0|0:0,0:0:0:0:
175,151,46669,2,0,L|236:151,1,42.5,8|8,0:0|0:0,0:0:0:0:
104,78,46833,2,0,L|40:80,1,42.5,8|8,0:0|0:0,0:0:0:0:
182,33,46997,2,0,L|246:31,1,42.5,8|8,0:0|0:0,0:0:0:0:
328,28,47161,2,0,L|333:89,1,42.5,8|8,0:0|0:0,0:0:0:0:
413,117,47325,2,0,L|415:174,1,42.5,8|8,0:0|0:0,0:0:0:0:
436,188,47489,5,8,0:0:0:0:
241,378,47653,1,8,0:0:0:0:
108,286,47981,5,0,0:0:0:0:
194,54,48145,1,2,0:0:0:0:
71,291,48309,1,0,0:0:0:0:
263,193,48473,2,0,P|301:154|331:114,1,95.6250036478044,2|0,0:0|0:0,0:0:0:0:
375,37,48801,6,0,P|420:37|463:55,1,85,14|0,0:0|0:0,0:0:0:0:
471,174,49128,1,8,0:0:0:0:
215,139,49292,1,0,0:0:0:0:
388,287,49456,1,4,1:0:0:0:
358,74,49620,1,0,0:0:0:0:
265,268,49784,2,0,L|150:267,1,85,8|0,0:0|0:0,0:0:0:0:
440,358,50112,6,0,P|468:321|469:276,1,85,4|0,1:0|0:0,0:0:0:0:
411,157,50440,1,10,0:0:0:0:
349,297,50604,1,0,0:0:0:0:
248,152,50768,1,0,1:0:0:0:
430,270,50932,1,0,0:0:0:0:
331,91,51096,1,8,0:0:0:0:
245,274,51260,1,0,0:0:0:0:
462,82,51424,6,0,P|448:35|404:-6,1,85,4|0,1:0|0:0,0:0:0:0:
331,91,51751,1,8,0:0:0:0:
187,172,51915,1,0,0:0:0:0:
238,21,52079,1,0,1:0:0:0:
310,181,52243,1,2,0:0:0:0:
101,62,52407,1,10,0:0:0:0:
179,258,52571,1,0,0:0:0:0:
246,91,52735,6,0,P|293:83|345:89,1,85,4|0,1:0|0:0,0:0:0:0:
312,194,53063,1,8,0:0:0:0:
489,136,53227,2,0,P|511:179|501:248,1,85,0|0,0:0|1:0,0:0:0:0:
228,379,53555,2,0,B|180:302|214:288|251:274|197:213,1,170
283,104,54047,5,4,1:0:0:0:
119,214,54210,1,0,0:0:0:0:
348,257,54374,1,8,0:0:0:0:
205,75,54538,1,0,0:0:0:0:
150,309,54702,1,0,1:0:0:0:
364,185,54866,1,0,0:0:0:0:
109,139,55030,2,0,L|11:124,1,85,8|0,0:0|0:0,0:0:0:0:
125,30,55358,5,4,1:0:0:0:
210,230,55522,1,0,0:0:0:0:
326,45,55686,1,8,0:0:0:0:
85,142,55850,1,0,0:0:0:0:
328,208,56014,1,0,1:0:0:0:
218,24,56178,1,0,0:0:0:0:
134,221,56342,2,0,L|99:306,1,85,8|0,0:0|0:0,0:0:0:0:
236,362,56669,6,0,P|286:333|306:235,1,127.5,4|0,1:0|0:0,0:0:0:0:
227,276,56997,2,0,P|210:213|247:127,1,127.5,6|0,0:0|1:0,0:0:0:0:
282,142,57325,1,0,1:0:0:0:
314,169,57406,1,8,0:0:0:0:
355,177,57488,1,8,0:0:0:0:
395,166,57570,1,8,0:0:0:0:
425,136,57653,1,12,0:0:0:0:
450,103,57734,1,8,0:0:0:0:
450,62,57816,1,8,0:0:0:0:
423,30,57898,1,8,0:0:0:0:
385,22,57981,6,0,P|326:8|269:13,1,85,4|0,1:0|0:0,0:0:0:0:
262,176,58227,2,0,P|263:133|246:95,1,85,8|0,0:0|0:0,0:0:0:0:
175,33,58473,2,0,P|103:2|20:48,1,170,12|0,0:0|0:0,0:0:0:0:
104,101,58965,2,0,L|95:185,1,85,8|0,0:0|0:0,0:0:0:0:
17,358,59292,6,0,B|73:354|73:354|90:315|90:315|164:303,1,170,12|0,0:0|1:0,0:0:0:0:
239,171,59784,1,0,0:0:0:0:
339,341,59948,1,8,0:0:0:0:
161,304,60112,1,0,0:0:0:0:
378,222,60276,2,0,L|362:129,1,85,0|8,1:0|0:0,0:0:0:0:
231,29,60604,6,0,P|290:14|350:14,1,85,12|0,0:0|0:0,0:0:0:0:
428,78,60932,1,0,1:0:0:0:
218,123,61096,2,0,P|174:121|130:105,1,85,0|8,0:0|0:0,0:0:0:0:
25,27,61424,1,0,0:0:0:0:
25,27,61506,1,0,0:0:0:0:
25,27,61587,2,0,L|15:120,1,85,0|0,1:0|0:0,0:0:0:0:
75,248,61915,5,12,0:0:0:0:
185,110,62079,1,0,0:0:0:0:
265,256,62243,1,0,1:0:0:0:
95,182,62407,1,0,0:0:0:0:
327,96,62571,2,0,P|373:73|433:67,1,85,12|0,0:0|0:0,0:0:0:0:
433,252,62899,2,0,L|408:171,1,85,4|0,1:0|0:0,0:0:0:0:
504,361,63227,6,0,P|456:368|392:354,1,85,4|0,0:0|0:0,0:0:0:0:
332,225,63555,1,0,1:0:0:0:
218,345,63719,1,0,0:0:0:0:
191,202,63883,2,0,B|150:187|150:187|99:200,1,85,0|0,1:0|0:0,0:0:0:0:
13,366,64210,2,0,L|114:354,1,85,8|0,0:0|0:0,0:0:0:0:
197,277,64538,5,12,0:0:0:0:
372,358,64702,1,0,0:0:0:0:
349,177,64866,1,0,1:0:0:0:
250,357,65030,1,0,0:0:0:0:
463,290,65194,1,0,0:0:0:0:
222,200,65358,1,0,0:0:0:0:
390,355,65522,2,0,L|498:356,1,85,4|0,1:0|0:0,0:0:0:0:
321,245,65850,5,12,0:0:0:0:
466,142,66014,1,2,0:0:0:0:
294,112,66178,1,0,1:0:0:0:
440,261,66342,1,2,0:0:0:0:
397,39,66506,1,8,0:0:0:0:
239,219,66669,1,0,0:0:0:0:
495,191,66833,2,0,L|377:192,1,85,4|0,1:0|0:0,0:0:0:0:
146,108,67161,6,0,P|169:71|249:51,1,127.5,12|0,0:0|0:0,0:0:0:0:
408,113,67489,2,0,P|348:132|285:128,1,127.5,0|0,1:0|0:0,0:0:0:0:
474,9,67817,2,0,L|482:117,1,85,8|0,0:0|0:0,0:0:0:0:
393,311,68145,2,0,L|385:203,1,85,0|0,1:0|0:0,0:0:0:0:
260,174,68473,6,0,B|228:142|228:142|159:144,1,85,12|0,0:0|0:0,0:0:0:0:
156,318,68801,2,0,L|190:241,1,85,0|0,1:0|0:0,0:0:0:0:
72,186,69128,1,4,1:0:0:0:
102,28,69292,2,0,L|35:25,1,42.5,8|8,0:0|0:0,0:0:0:0:
130,116,69456,2,0,L|190:115,1,42.5,8|8,0:0|0:0,0:0:0:0:
257,65,69620,2,0,L|255:130,1,42.5,8|8,0:0|0:0,0:0:0:0:
264,202,69784,6,0,B|315:195|346:230|346:230|378:191|448:188,1,170,4|8,1:0|0:0,0:0:0:0:
339,118,70276,2,0,L|393:32,1,85,0|0,1:0|0:0,0:0:0:0:
499,25,70604,1,0,1:0:0:0:
419,269,70768,6,0,P|365:270|314:233,1,85,8|0,0:0|1:0,0:0:0:0:
241,134,71096,1,4,1:0:0:0:
181,266,71260,1,0,1:0:0:0:
353,173,71424,1,8,0:0:0:0:
128,180,71587,1,0,1:0:0:0:
307,294,71751,1,0,1:0:0:0:
230,73,71915,1,0,1:0:0:0:
176,278,72079,2,0,L|85:276,1,85,8|0,0:0|0:0,0:0:0:0:
340,364,72407,6,0,P|388:366|440:339,1,85,4|0,0:0|0:0,0:0:0:0:
372,284,72735,1,8,0:0:0:0:
189,363,72899,2,0,P|154:338|126:306,1,85,0|0,1:0|0:0,0:0:0:0:
216,229,73227,1,0,1:0:0:0:
59,247,73391,1,8,0:0:0:0:
93,96,73555,2,0,P|136:122|200:119,1,85,2|4,0:0|1:0,0:0:0:0:
256,38,73883,5,0,1:0:0:0:
381,200,74047,1,14,0:0:0:0:
169,126,74210,1,0,1:0:0:0:
385,97,74374,1,8,0:0:0:0:
223,247,74538,1,0,1:0:0:0:
311,32,74702,1,8,0:0:0:0:
453,235,74866,1,0,1:0:0:0:
157,148,75030,6,0,P|112:106|71:90,1,85,14|0,0:0|1:0,0:0:0:0:
49,216,75358,1,4,1:0:0:0:
289,351,75522,1,8,0:0:0:0:
36,255,75686,1,4,1:0:0:0:
334,263,75850,1,0,1:0:0:0:
41,294,76014,1,0,1:0:0:0:
292,109,76178,1,2,0:0:0:0:
431,324,76342,6,0,B|444:282|444:282|413:261|413:261|398:207,1,127.500004863739,4|2,1:0|0:0,0:0:0:0:
330,134,76833,2,0,P|363:95|393:79,1,63.7500024318696,2|0,0:0|0:0,0:0:0:0:
485,39,77161,1,0,1:0:0:0:
485,39,77243,1,0,1:0:0:0:
485,39,77325,1,8,0:0:0:0:
323,18,77489,1,2,0:0:0:0:
452,176,77653,5,4,1:0:0:0:
242,63,77817,1,0,1:0:0:0:
476,37,77981,1,8,0:0:0:0:
287,138,78145,2,0,P|236:146|177:131,1,85,0|0,0:0|1:0,0:0:0:0:
84,24,78473,1,0,1:0:0:0:
26,182,78637,1,8,0:0:0:0:
117,19,78801,1,0,1:0:0:0:
111,219,78965,6,0,P|145:251|184:259,1,85,0|0,1:0|1:0,0:0:0:0:
293,194,79292,1,8,0:0:0:0:
376,316,79456,1,0,1:0:0:0:
366,194,79620,1,0,1:0:0:0:
298,299,79784,1,0,1:0:0:0:
436,226,79948,1,8,0:0:0:0:
246,228,80112,1,0,1:0:0:0:
488,309,80276,6,0,P|510:267|504:201,1,85,4|0,1:0|1:0,0:0:0:0:
413,142,80604,1,10,0:0:0:0:
494,33,80768,2,0,P|447:20|395:31,1,85,2|0,0:0|1:0,0:0:0:0:
413,142,81096,1,0,1:0:0:0:
214,156,81260,1,8,0:0:0:0:
355,267,81424,1,0,1:0:0:0:
216,48,81587,6,0,P|172:30|117:54,1,85,4|0,1:0|1:0,0:0:0:0:
52,162,81915,2,0,B|23:199|23:199|48:249,1,85,8|0,0:0|1:0,0:0:0:0:
147,306,82243,1,8,0:0:0:0:
261,331,82407,5,8,0:0:0:0:
299,349,82488,1,8,0:0:0:0:
339,360,82570,1,8,0:0:0:0:
382,364,82652,1,8,0:0:0:0:
424,358,82734,1,8,0:0:0:0:
464,345,82816,1,8,0:0:0:0:
502,326,82899,6,0,P|488:273|458:222,1,85,4|0,1:0|0:0,0:0:0:0:
377,182,83227,2,0,L|336:211,1,42.5,8|0,0:0|0:0,0:0:0:0:
338,102,83391,2,0,L|289:129,1,42.5,0|0,0:0|0:0,0:0:0:0:
220,195,83555,2,0,P|170:179|126:131,1,85,0|0,1:0|0:0,0:0:0:0:
21,66,83883,2,0,B|59:41|59:41|108:42,1,85,8|0,0:0|0:0,0:0:0:0:
201,95,84210,5,0,1:0:0:0:
326,205,84374,1,0,0:0:0:0:
349,86,84538,1,8,0:0:0:0:
196,185,84702,1,0,0:0:0:0:
431,139,84866,2,0,P|453:186|452:247,1,85,0|0,1:0|0:0,0:0:0:0:
201,95,85194,2,0,P|179:48|180:-13,1,85,8|0,0:0|0:0,0:0:0:0:
246,261,85522,6,0,L|132:219,1,85,4|8,1:0|0:0,0:0:0:0:
203,137,85768,1,8,0:0:0:0:
203,137,85850,2,0,L|255:82,1,42.5,8|0,0:0|0:0,0:0:0:0:
400,215,86014,2,0,L|474:165,1,85,4|8,1:0|0:0,0:0:0:0:
442,81,86260,1,8,0:0:0:0:
442,81,86342,2,0,L|394:59,1,42.5,8|8,0:0|0:0,0:0:0:0:
203,137,86506,6,0,L|104:137,1,85,4|8,1:0|0:0,0:0:0:0:
50,60,86751,1,8,0:0:0:0:
50,60,86833,2,0,L|32:120,1,42.5,8|8,0:0|0:0,0:0:0:0:
79,256,86997,2,0,L|191:283,1,85,4|8,1:0|0:0,0:0:0:0:
199,316,87243,1,8,0:0:0:0:
236,336,87324,1,8,0:0:0:0:
277,344,87406,1,8,0:0:0:0:
319,340,87488,5,4,1:0:0:0:
456,49,87653,1,8,0:0:0:0:
319,340,87817,1,8,0:0:0:0:
