osu file format v14

[General]
AudioFilename: audio.mp3
AudioLeadIn: 0
PreviewTime: 47892
Countdown: 0
SampleSet: Soft
StackLeniency: 0.6
Mode: 0
LetterboxInBreaks: 0
WidescreenStoryboard: 0

[Editor]
DistanceSpacing: 0.9
BeatDivisor: 4
GridSize: 32
TimelineZoom: 5.799996

[Metadata]
Title:RESISTER (TV Size)
TitleUnicode:RESISTER (TV Size)
Artist:ASCA
ArtistUnicode:ASCA
Creator:Sotarks
Version:Reform's EXPERT
Source:ソードアート・オンライン アリシゼーション
Tags:sword art online sao alicization season three 3 kirito asuna eugeo alice opening op 2 jrock j-rock rock japanese female vocals vocal vocalist reform kujinn smokelind snownino_ akitoshi corinn -laura- SACRA MUSIC Sony Entertainment 大倉明日香 Asuka Ōkura okura oukura SAO-A Project
BeatmapID:1898522
BeatmapSetID:909759

[Difficulty]
HPDrainRate:5
CircleSize:4
OverallDifficulty:8.5
ApproachRate:9.1
SliderMultiplier:1.8
SliderTickRate:1

[Events]
//Background and Video events
0,0,"bg.jpg",0,0
Video,-40,"video.avi"
//Break Periods
//Storyboard Layer 0 (Background)
//Storyboard Layer 1 (Fail)
//Storyboard Layer 2 (Pass)
//Storyboard Layer 3 (Foreground)
//Storyboard Sound Samples

[TimingPoints]
1590,327.868852459016,4,2,22,42,1,0
1590,-181.818181818181,4,2,22,42,0,0
4212,-181.818181818181,4,2,22,42,0,0
6508,309.278350515464,4,2,22,42,1,0
6817,327.868852459016,4,2,22,52,1,0
6817,-133.333333333333,4,2,22,52,0,0
9439,322.58064516129,4,2,22,52,1,0
9439,-181.818181818181,4,2,22,52,0,0
9761,-181.818181818181,4,2,22,52,0,0
10084,340.909090909091,4,2,22,52,1,0
10084,-181.818181818181,4,2,22,52,0,0
10680,-181.818181818181,4,2,22,5,0,0
10765,326.086956521739,4,2,22,62,1,0
10765,-95.2380952380951,4,2,22,62,0,0
12069,324.324324324324,4,2,22,62,1,0
12069,-95.2380952380951,4,2,22,62,0,0
13366,331.491712707182,4,2,22,62,1,0
13366,-95.2380952380951,4,2,22,62,0,0
14857,321.71581769437,4,2,22,62,1,0
15017,321.71581769437,4,2,22,62,1,0
15338,-95.2380952380952,4,2,22,62,0,0
15821,363.636363636364,4,2,22,42,1,0
16002,327.868852459016,4,2,22,42,1,0
16002,-181.818181818182,4,2,22,42,0,0
26493,337.078651685393,4,2,22,52,1,0
26493,-133.333333333334,4,2,22,52,0,0
27167,324.324324324324,4,2,22,52,1,0
27167,-133.333333333334,4,2,22,52,0,0
27815,324.324324324324,4,2,22,52,1,0
27815,-133.333333333333,4,2,22,52,0,0
29112,329.67032967033,4,2,22,52,1,0
29112,-133.333333333333,4,2,22,52,0,0
31749,327.868852459016,4,2,22,52,1,0
31749,-133.333333333333,4,2,22,52,0,0
35683,335.195530726257,4,2,22,52,1,0
36185,317.460317460317,4,2,22,52,1,0
36502,329.67032967033,4,2,22,52,1,0
36831,338.983050847458,4,2,22,52,1,0
37000,323.450134770889,4,2,22,52,1,0
37000,-133.333333333334,4,2,22,52,0,0
38293,329.67032967033,4,2,22,52,1,0
38293,-133.333333333334,4,2,22,52,0,0
39611,326.086956521739,4,2,22,52,1,0
39611,-133.333333333333,4,2,22,52,0,0
41893,331.491712707182,4,2,22,52,1,0
41893,-133.333333333333,4,2,22,52,0,0
42224,329.67032967033,4,2,22,62,1,0
42224,-95.2380952380956,4,2,22,62,0,0
43542,326.975476839237,4,2,22,62,1,0
43542,-95.2380952380951,4,2,22,62,0,0
45830,332.409972299169,4,2,22,62,1,0
45830,-95.2380952380951,4,2,22,62,0,0
46162,329.67032967033,4,2,22,62,1,0
46162,-95.2380952380951,4,2,22,62,0,0
47480,-95.2380952380951,4,2,22,72,0,0
47975,-181.818181818182,4,2,22,42,0,0
48387,-181.818181818182,4,2,22,5,0,0
48469,-181.818181818182,4,2,22,42,0,0
48716,-181.818181818182,4,2,22,5,0,0
48799,326.530612244898,4,2,22,82,1,1
48799,-86.9565217391305,4,2,22,82,0,1
51411,327.868852459016,4,2,22,82,1,1
51411,-86.9565217391305,4,2,22,82,0,1
54033,337.078651685393,4,2,22,82,1,1
54707,322.58064516129,4,2,22,82,1,1
54707,-95.2380952380951,4,2,22,82,0,1
55352,327.868852459016,4,2,22,82,1,1
55352,-86.9565217391305,4,2,22,82,0,1
57647,317.460317460317,4,2,22,82,1,1
57647,-86.9565217391305,4,2,22,82,0,1
57964,331.491712707182,4,2,22,82,1,1
57964,-86.9565217391305,4,2,22,82,0,1
58129,-86.9565217391305,4,2,22,5,0,1
58213,-86.9565217391305,4,2,22,82,0,1
58378,-86.9565217391305,4,2,22,5,0,1
58461,-86.9565217391305,4,2,22,82,0,1
58958,327.868852459016,4,2,22,82,1,1
59285,327.868852459016,4,2,22,82,1,1
59285,-86.9565217391305,4,2,22,82,0,1
67153,324.324324324324,4,2,22,82,1,1
67153,-86.9565217391305,4,2,22,82,0,1
67801,329.67032967033,4,2,22,82,1,1
67801,-86.9565217391305,4,2,22,82,0,1
68460,326.086956521739,4,2,22,82,1,1
68460,-86.9565217391305,4,2,22,82,0,1
69112,324.324324324324,4,2,22,82,1,1
69112,-86.9565217391305,4,2,22,82,0,1
69760,331.491712707182,4,2,22,72,1,0
69760,-86.9565217391305,4,2,22,72,0,0
71748,326.086956521739,4,2,22,72,1,0
71748,-86.9565217391305,4,2,22,72,0,0
72400,326.086956521739,4,2,22,72,1,0
72400,-86.9565217391305,4,2,22,72,0,0
73704,322.58064516129,4,2,22,72,1,0
73704,-86.9565217391305,4,2,22,72,0,0
74994,333.333333333333,4,2,22,72,1,0
74994,-86.9565217391304,4,2,22,72,0,0
76327,-181.818181818182,4,2,22,72,0,0
76994,300,4,2,22,72,1,0
77144,324.324324324324,4,2,22,72,1,0
77306,-133.333333333333,4,2,22,72,0,0
77630,329.67032967033,4,2,22,72,1,0
77630,-95.2380952380956,4,2,22,72,0,0
79608,319.148936170213,4,2,22,72,1,0
79608,-95.2380952380951,4,2,22,72,0,0
80246,319.148936170213,4,2,22,72,1,0
80246,-95.2380952380951,4,2,22,72,0,0
80565,327.868852459016,4,2,22,72,1,0
80565,-95.2380952380952,4,2,22,72,0,0
81548,333.333333333333,4,2,22,72,1,0
81548,-95.2380952380952,4,2,22,72,0,0
82881,337.078651685393,4,2,22,72,1,0
82881,-95.2380952380951,4,2,22,72,0,0
83555,322.58064516129,4,2,22,72,1,0
83555,-95.2380952380952,4,2,22,72,0,0
84200,322.58064516129,4,2,22,72,1,0
84200,-95.2380952380952,4,2,22,72,0,0
85167,338.983050847458,4,2,22,72,1,0
85167,-95.2380952380952,4,2,22,72,0,0
85505,329.67032967033,3,2,22,72,1,1
85505,-95.2380952380951,4,2,22,72,0,1
87484,-100,4,2,22,82,0,1
87812,-100,4,2,22,82,0,0

[Colours]
Combo1 : 73,175,224
Combo2 : 255,189,89
Combo3 : 255,241,72
Combo4 : 176,94,232

[HitObjects]
161,306,1590,6,0,P|151:246|134:188,1,99.0000030212403,6|0,0:2|0:2,0:0:0:0:
197,51,2081,1,2,0:2:0:0:
69,129,2245,1,2,0:2:0:0:
69,129,2409,2,0,P|58:162|52:190,1,49.5000015106202,2|0,0:2|0:2,0:0:0:0:
37,23,2737,1,2,0:2:0:0:
169,132,2901,2,0,P|210:155|277:134,1,99.0000030212403,2|2,0:2|0:2,0:0:0:0:
370,49,3393,2,0,P|360:82|353:110,1,49.5000015106202,2|0,0:2|0:2,0:0:0:0:
353,234,3721,2,0,P|346:210|339:186,1,49.5000015106202,2|0,0:2|0:2,0:0:0:0:
244,105,4049,1,2,0:2:0:0:
296,284,4212,6,0,P|339:309|397:295,1,99.0000030212403,2|2,0:2|0:2,0:0:0:0:
462,230,4704,2,0,P|467:177|476:117,2,99.0000030212403,2|2|2,0:2|0:2|0:2,0:0:0:0:
364,66,5524,1,2,0:2:0:0:
364,66,5688,1,0,0:2:0:0:
283,173,5852,2,0,B|171:148|199:226|70:194,1,198.000006042481,2|0,0:2|0:2,0:0:0:0:
59,45,6817,6,0,P|64:117|75:187,1,135.000005149842,6|2,1:2|0:2,0:0:0:0:
209,276,7308,1,0,1:2:0:0:
209,276,7390,1,0,1:2:0:0:
209,276,7472,2,0,P|205:322|201:359,1,67.5000025749208,10|0,0:2|1:2,0:0:0:0:
355,164,7800,2,0,P|359:210|363:247,1,67.5000025749208,8|4,0:3|0:3,0:0:0:0:
208,93,8128,1,8,0:2:0:0:
214,99,9439,6,0,L|252:91,3,24.7500007553101,8|8|4|4,1:2|0:3|0:3|0:3,0:0:0:0:
131,165,9761,2,0,L|89:159,3,24.7500007553101,8|4|4|4,0:3|0:3|0:3|0:3,0:0:0:0:
238,226,10084,6,0,B|137:227|191:293|69:293,1,173.250005287171,10|0,0:2|0:2,0:0:0:0:
52,271,10765,6,0,P|37:230|47:159,1,94.499997116089,6|0,1:2|0:2,0:0:0:0:
214,46,11091,1,10,0:2:0:0:
134,213,11254,1,0,1:2:0:0:
90,67,11417,1,8,0:2:0:0:
216,251,11580,1,2,1:2:0:0:
301,86,11743,2,0,P|350:65|407:64,1,94.499997116089,8|0,0:2|1:2,0:0:0:0:
337,283,12069,6,0,P|343:220|351:170,1,94.499997116089,10|0,0:2|1:2,0:0:0:0:
253,90,12393,1,8,0:2:0:0:
431,192,12555,1,2,1:2:0:0:
431,192,12636,1,0,1:0:0:0:
431,192,12717,1,8,0:2:0:0:
376,13,12879,1,0,1:2:0:0:
261,185,13041,2,0,P|220:217|175:221,1,94.499997116089,10|0,0:2|1:2,0:0:0:0:
31,53,13366,6,0,P|43:114|49:159,1,94.499997116089,10|0,0:2|0:2,0:0:0:0:
150,338,13697,2,0,P|156:291|166:240,1,94.499997116089,10|0,0:2|1:2,0:0:0:0:
286,75,14028,1,4,0:3:0:0:
325,262,14194,1,4,0:3:0:0:
205,118,14360,1,8,0:2:0:0:
149,285,14526,6,0,P|93:315|-2:245,1,188.999994232178,6|0,1:2|1:2,0:0:0:0:
205,118,15017,1,10,0:2:0:0:
89,35,15177,1,0,1:2:0:0:
89,35,15258,1,0,1:2:0:0:
89,35,15338,2,0,P|97:103|102:151,1,94.499997116089,10|4,0:2|0:3,0:0:0:0:
276,228,15660,2,0,P|281:181|286:134,1,94.499997116089,4|4,0:3|0:3,0:0:0:0:
169,263,16002,6,0,P|138:291|65:293,1,99.0000030212403,6|2,1:2|0:2,0:0:0:0:
18,229,16493,2,0,P|14:198|10:170,1,49.5000015106202,2|0,0:2|0:2,0:0:0:0:
112,81,16821,2,0,P|108:105|105:130,1,49.5000015106202,2|0,0:2|0:2,0:0:0:0:
206,204,17149,2,0,P|240:202|270:187,1,49.5000015106202,2|0,0:2|0:2,0:0:0:0:
326,115,17477,2,0,P|360:117|390:132,1,49.5000015106202,2|0,0:2|0:2,0:0:0:0:
441,207,17805,2,0,P|447:250|453:322,2,99.0000030212403,2|2|2,0:2|0:2|0:2,0:0:0:0:
356,112,18624,6,0,P|362:67|366:44,1,49.5000015106202,2|0,0:2|0:2,0:0:0:0:
242,19,18952,1,2,0:2:0:0:
242,19,19116,2,0,P|206:27|176:31,1,49.5000015106202,2|0,0:2|0:2,0:0:0:0:
89,115,19444,2,0,P|137:117|182:165,1,99.0000030212403,2|2,0:2|0:2,0:0:0:0:
200,241,19936,1,2,0:3:0:0:
164,307,20100,1,2,0:3:0:0:
92,325,20264,1,2,0:3:0:0:
33,280,20428,1,2,0:3:0:0:
29,208,20592,2,0,L|35:162,7,24.7500007553101,0|0|0|0|0|0|2|0,0:2|0:2|0:2|0:2|0:2|0:2|0:2|0:2,0:0:0:0:
60,149,21247,6,0,P|57:106|55:80,1,49.5000015106202,2|0,0:2|0:2,0:0:0:0:
166,27,21575,2,0,P|164:51|162:76,1,49.5000015106202,2|0,0:2|0:2,0:0:0:0:
242,155,21903,1,2,0:2:0:0:
242,155,22067,2,0,P|293:137|348:155,1,99.0000030212403,2|2,0:2|0:2,0:0:0:0:
427,232,22559,6,0,P|420:270|418:296,1,49.5000015106202,2|0,0:2|0:2,0:0:0:0:
281,342,22887,2,0,P|277:317|272:293,1,49.5000015106202,2|0,0:2|0:2,0:0:0:0:
167,214,23215,2,0,L|128:207,7,24.7500007553101,2|0|2|0|0|0|2|0,0:2|0:0|0:2|0:0|0:0|0:0|0:2|0:0,0:0:0:0:
112,180,23870,6,0,P|70:171|46:166,1,49.5000015106202,2|0,0:2|0:0,0:0:0:0:
162,78,24198,1,0,0:2:0:0:
162,78,24362,2,0,P|204:69|228:64,1,49.5000015106202,2|0,0:2|0:0,0:0:0:0:
307,151,24690,2,0,P|318:186|320:216,1,49.5000015106202,2|0,0:2|0:0,0:0:0:0:
230,303,25018,2,0,P|181:308|131:277,1,99.0000030212403,2|2,0:2|0:3,0:0:0:0:
91,214,25510,1,2,0:3:0:0:
105,137,25674,1,2,0:3:0:0:
182,118,25838,2,0,L|227:125,7,24.7500007553101,0|0|0|0|0|0|0|0,0:2|0:2|0:2|0:2|0:2|0:2|0:2|0:2,0:0:0:0:
246,148,26493,6,0,P|300:141|336:137,1,67.5000025749208,6|0,1:2|0:2,0:0:0:0:
443,247,26830,2,0,P|389:240|353:236,1,67.5000025749208,2|0,1:2|0:2,0:0:0:0:
268,303,27167,2,0,P|260:342|254:381,1,67.5000025749208,2|0,1:2|0:0,0:0:0:0:
127,233,27491,1,2,1:2:0:0:
127,233,27653,2,0,P|135:272|141:311,1,67.5000025749208,2|0,0:2|1:2,0:0:0:0:
242,186,27977,2,0,P|281:167|326:163,1,67.5000025749208,2|0,0:2|1:2,0:0:0:0:
456,261,28301,2,0,P|423:253|394:238,1,67.5000025749208,2|0,0:2|1:2,0:0:0:0:
446,79,28625,2,0,P|440:141|437:176,1,67.5000025749208,2|0,0:2|1:2,0:0:0:0:
348,46,28950,1,2,0:2:0:0:
256,157,29112,6,0,P|266:226|273:297,1,135.000005149842,2|2,1:2|1:2,0:0:0:0:
192,361,29606,2,0,P|150:363|120:350,1,67.5000025749208,2|0,0:2|1:2,0:0:0:0:
307,314,29936,2,0,P|349:316|379:303,1,67.5000025749208,2|0,0:2|1:2,0:0:0:0:
209,220,30265,1,2,0:2:0:0:
307,136,30430,5,2,1:3:0:0:
374,171,30595,1,2,0:3:0:0:
402,240,30760,1,2,1:3:0:0:
372,307,30925,1,2,0:3:0:0:
306,339,31090,2,0,L|273:331,7,33.7500012874604,0|0|0|0|0|0|2|0,1:2|0:0|0:2|0:0|1:2|0:0|0:2|0:0,0:0:0:0:
228,309,31749,6,0,P|186:318|156:323,1,67.5000025749208,2|0,1:2|0:2,0:0:0:0:
22,233,32076,2,0,P|64:242|94:247,1,67.5000025749208,2|0,1:2|0:2,0:0:0:0:
226,185,32404,1,2,1:2:0:0:
111,85,32568,2,0,P|102:132|101:164,1,67.5000025749208,2|0,0:2|1:2,0:0:0:0:
214,31,32896,1,2,0:2:0:0:
312,132,33060,6,0,P|348:149|391:155,1,67.5000025749208,2|0,1:2|0:2,0:0:0:0:
258,236,33388,2,0,P|225:243|195:258,1,67.5000025749208,2|0,1:2|0:2,0:0:0:0:
306,346,33716,1,2,1:2:0:0:
406,263,33880,2,0,P|414:220|417:183,1,67.5000025749208,2|0,0:2|1:2,0:0:0:0:
475,349,34208,1,2,0:2:0:0:
287,197,34371,6,0,P|251:178|207:173,1,67.5000025749208,2|0,1:2|0:2,0:0:0:0:
74,299,34699,2,0,P|106:291|136:274,1,67.5000025749208,2|0,1:2|0:2,0:0:0:0:
88,125,35027,2,0,P|95:178|100:222,1,67.5000025749208,2|0,1:2|0:2,0:0:0:0:
223,327,35355,2,0,P|227:293|231:260,1,67.5000025749208,2|0,1:2|0:2,0:0:0:0:
365,116,35683,5,2,1:3:0:0:
365,116,36185,5,2,1:2:0:0:
307,295,36343,1,10,0:2:0:0:
458,139,36502,1,2,1:2:0:0:
230,215,36666,1,2,1:2:0:0:
455,308,36831,1,2,1:2:0:0:
269,125,37000,6,0,P|209:116|144:174,1,135.000005149842,4|0,1:2|0:0,0:0:0:0:
102,304,37485,1,0,1:2:0:0:
102,304,37646,2,0,P|99:254|92:219,1,67.5000025749208,2|0,0:2|1:2,0:0:0:0:
17,80,37970,2,0,P|20:130|27:165,1,67.5000025749208,10|0,0:2|0:2,0:0:0:0:
115,226,38293,6,0,P|175:235|240:177,1,135.000005149842,2|0,1:2|0:2,0:0:0:0:
310,62,38787,1,0,1:2:0:0:
217,110,38952,2,0,P|178:105|148:91,1,67.5000025749208,2|0,0:2|1:2,0:0:0:0:
331,169,39282,2,0,P|362:156|395:152,1,67.5000025749208,10|0,0:2|0:2,0:0:0:0:
242,281,39611,6,0,P|234:220|220:130,1,135.000005149842,2|0,1:2|0:2,0:0:0:0:
156,254,40100,2,0,P|124:294|25:300,1,135.000005149842,2|2,1:2|1:2,0:0:0:0:
0,232,40589,2,0,P|3:198|9:165,1,67.5000025749208,10|0,0:2|0:2,0:0:0:0:
118,52,40915,5,2,1:2:0:0:
182,140,41078,2,0,P|222:161|264:160,1,67.5000025749208,8|0,0:3|0:2,0:0:0:0:
406,70,41404,2,0,P|366:107|340:203,1,135.000005149842,0|0,1:2|1:2,0:0:0:0:
249,330,41893,2,0,P|242:271|234:239,1,67.5000025749208,8|0,0:2|0:0,0:0:0:0:
83,126,42224,6,0,P|70:177|62:227,1,94.499997116089,4|2,1:2|3:2,0:0:0:0:
222,101,42553,1,10,0:2:0:0:
149,290,42718,1,2,3:2:0:0:
335,110,42883,1,2,1:2:0:0:
107,90,43048,1,2,3:2:0:0:
296,248,43213,1,10,0:2:0:0:
295,20,43377,1,2,3:2:0:0:
173,248,43542,6,0,P|183:305|315:363,1,188.999994232178,2|8,1:2|0:0,0:0:0:0:
456,175,44032,1,0,3:2:0:0:
272,72,44195,2,0,P|280:143|289:223,1,141.749995674133,2|2,1:2|0:2,0:0:0:0:
307,249,44522,2,0,P|302:322|297:382,1,94.499997116089,8|2,0:2|3:2,0:0:0:0:
197,128,44849,6,0,P|151:107|95:119,1,94.499997116089,2|0,1:2|3:0,0:0:0:0:
10,274,45176,1,8,0:0:0:0:
219,240,45340,1,0,3:2:0:0:
14,52,45503,2,0,P|0:114|26:190,1,141.749995674133,2|2,1:2|0:2,0:0:0:0:
47,218,45830,2,0,P|98:234|145:221,1,94.499997116089,8|2,0:2|3:2,0:0:0:0:
316,102,46162,6,0,L|323:43,3,47.2499985580445,10|8|8|8,1:2|0:2|0:2|0:2,0:0:0:0:
372,222,46491,2,0,L|377:268,3,47.2499985580445,8|8|8|8,1:2|0:2|0:2|0:2,0:0:0:0:
263,169,46821,1,8,1:2:0:0:
263,169,46903,1,8,0:2:0:0:
263,169,46986,2,0,L|197:159,1,47.2499985580445,8|8,0:2|0:2,0:0:0:0:
400,102,47151,1,2,1:2:0:0:
400,102,47233,1,0,1:2:0:0:
400,102,47315,2,0,L|466:94,1,47.2499985580445,2|0,1:2|1:2,0:0:0:0:
203,37,47480,5,10,0:2:0:0:
252,285,47645,1,10,0:2:0:0:
8,345,47975,5,2,0:2:0:0:
8,345,48140,2,0,P|2:293|10:257,1,74.2500022659302,2|0,0:2|0:2,0:0:0:0:
89,229,48469,2,0,P|93:266|87:303,1,74.2500022659302,2|0,0:2|0:2,0:0:0:0:
50,143,48799,6,0,B|180:119|123:206|266:184,1,207.000003948212,6|8,1:2|0:2,0:0:0:0:
406,103,49288,1,2,3:2:0:0:
280,279,49452,1,2,1:2:0:0:
300,109,49615,2,0,P|292:43|284:-22,1,103.500001974106,2|8,3:2|0:2,0:0:0:0:
418,258,49941,1,2,3:2:0:0:
198,162,50105,6,0,P|137:139|72:144,1,103.500001974106,2|0,1:2|3:2,0:0:0:0:
335,107,50431,1,10,0:2:0:0:
192,275,50594,2,0,P|131:298|66:293,1,103.500001974106,2|0,3:2|1:2,0:0:0:0:
323,339,50921,2,0,P|384:362|449:357,1,103.500001974106,2|8,3:2|0:2,0:0:0:0:
503,212,51247,1,2,3:2:0:0:
300,132,51411,6,0,P|309:200|313:248,1,103.500001974106,2|0,1:2|3:2,0:0:0:0:
428,71,51738,1,10,0:2:0:0:
490,314,51902,2,0,P|495:262|502:209,1,103.500001974106,2|0,3:2|1:2,0:0:0:0:
370,301,52230,2,0,P|311:322|249:308,1,103.500001974106,2|8,3:2|0:2,0:0:0:0:
147,193,52558,1,2,3:2:0:0:
283,63,52722,5,2,1:2:0:0:
240,283,52886,1,2,3:2:0:0:
385,120,53050,1,8,0:2:0:0:
161,205,53214,2,0,P|90:213|45:218,1,103.500001974106,2|0,3:2|1:2,0:0:0:0:
345,307,53542,2,0,P|416:315|464:320,1,103.500001974106,2|8,3:2|0:2,0:0:0:0:
220,157,53870,1,2,3:2:0:0:
267,331,54033,5,6,1:2:0:0:
321,120,54201,1,2,3:2:0:0:
197,287,54370,1,10,0:2:0:0:
148,93,54538,1,2,3:2:0:0:
314,212,54707,1,2,1:2:0:0:
116,350,54868,2,0,P|99:281|107:238,1,94.499997116089,2|8,3:2|0:2,0:0:0:0:
227,138,55190,1,2,3:2:0:0:
310,304,55352,5,2,1:2:0:0:
117,223,55515,1,2,3:2:0:0:
347,164,55679,1,10,0:2:0:0:
141,91,55843,1,2,3:2:0:0:
203,278,56007,1,2,1:2:0:0:
333,138,56171,2,0,P|345:81|333:26,1,103.500001974106,2|8,3:2|0:2,0:0:0:0:
418,264,56499,1,2,3:2:0:0:
226,78,56663,6,0,P|166:61|113:56,1,103.500001974106,2|0,1:2|3:2,0:0:0:0:
304,259,56991,2,0,P|355:252|405:233,1,103.500001974106,8|0,0:2|3:2,0:0:0:0:
154,189,57319,1,10,1:2:0:0:
154,189,57401,1,8,0:2:0:0:
154,189,57483,2,0,P|160:241|160:260,1,51.7500009870529,8|8,0:2|0:2,0:0:0:0:
336,143,57647,1,10,1:2:0:0:
336,143,57726,1,8,0:2:0:0:
336,143,57805,2,0,P|338:117|341:90,1,51.7500009870529,8|8,0:2|0:2,0:0:0:0:
212,18,57964,6,0,P|222:90|225:127,1,103.500001974106,6|0,1:2|0:2,0:0:0:0:
267,190,58212,2,0,P|257:262|251:305,1,103.500001974106,10|0,0:2|0:2,0:0:0:0:
192,349,58461,2,0,P|113:340|86:200,1,207.000003948212,6|0,1:2|1:2,0:0:0:0:
328,343,58958,1,8,0:2:0:0:
328,343,59285,6,0,B|298:215|381:270|336:117,1,207.000003948212,6|8,1:2|0:2,0:0:0:0:
420,305,59776,1,2,3:2:0:0:
251,194,59940,1,2,1:2:0:0:
447,90,60104,2,0,P|436:166|430:218,1,103.500001974106,2|8,3:2|0:2,0:0:0:0:
311,41,60432,1,2,3:2:0:0:
169,172,60596,6,0,P|111:193|61:183,1,103.500001974106,2|0,1:2|3:2,0:0:0:0:
264,238,60924,1,10,0:2:0:0:
112,106,61088,2,0,P|105:39|101:3,1,103.500001974106,2|0,3:2|1:2,0:0:0:0:
27,207,61416,2,0,P|20:258|14:316,1,103.500001974106,2|8,3:2|0:2,0:0:0:0:
195,141,61744,1,2,3:2:0:0:
207,316,61907,5,2,1:2:0:0:
100,143,62071,1,2,3:2:0:0:
338,281,62235,1,10,0:2:0:0:
84,363,62399,1,2,3:2:0:0:
269,198,62563,2,0,P|320:172|386:185,1,103.500001974106,2|0,1:2|3:2,0:0:0:0:
169,90,62891,2,0,P|118:64|46:77,1,103.500001974106,10|0,0:2|3:2,0:0:0:0:
112,275,63219,6,0,P|107:210|96:154,1,103.500001974106,2|0,1:2|3:2,0:0:0:0:
219,343,63547,1,8,0:2:0:0:
301,215,63711,2,0,P|306:150|316:95,1,103.500001974106,2|0,3:2|1:2,0:0:0:0:
434,279,64039,2,0,P|441:333|444:384,1,103.500001974106,0|8,3:2|0:2,0:0:0:0:
512,148,64366,1,2,3:2:0:0:
323,279,64530,5,6,1:2:0:0:
393,91,64694,1,2,3:2:0:0:
429,340,64858,1,10,0:2:0:0:
259,128,65022,1,2,3:2:0:0:
220,343,65186,1,2,1:2:0:0:
370,182,65350,2,0,P|426:161|488:170,1,103.500001974106,2|8,3:2|0:2,0:0:0:0:
219,83,65678,1,2,3:2:0:0:
386,281,65842,5,2,1:2:0:0:
328,65,66006,1,2,3:2:0:0:
159,326,66170,1,10,0:2:0:0:
202,114,66334,1,2,3:2:0:0:
299,369,66498,1,2,1:2:0:0:
136,189,66662,2,0,P|84:165|22:165,1,103.500001974106,2|8,3:2|0:2,0:0:0:0:
276,88,66989,1,2,3:2:0:0:
69,249,67153,6,0,P|58:306|51:379,1,103.500001974106,2|0,1:2|3:2,0:0:0:0:
311,203,67477,2,0,P|305:151|295:101,1,103.500001974106,10|0,0:2|3:2,0:0:0:0:
183,320,67801,2,0,P|239:347|296:342,1,103.500001974106,2|0,1:2|3:2,0:0:0:0:
188,123,68130,2,0,P|136:127|91:151,1,103.500001974106,10|0,0:2|3:2,0:0:0:0:
395,294,68460,6,0,P|404:207|422:82,1,207.000003948212,2|8,1:2|0:2,0:0:0:0:
294,255,68949,1,0,3:2:0:0:
198,109,69112,2,0,P|142:82|96:81,1,103.500001974106,2|8,1:2|0:2,0:0:0:0:
67,98,69355,1,8,0:2:0:0:
67,98,69436,2,0,L|74:172,1,51.7500009870529,8|8,1:2|0:2,0:0:0:0:
160,337,69598,1,8,0:2:0:0:
160,337,69679,1,8,0:2:0:0:
160,337,69760,6,0,B|134:196|207:281|176:116,1,207.000003948212,6|8,1:2|0:2,0:0:0:0:
357,25,70257,2,0,P|350:102|332:261,1,207.000003948212,0|0,1:2|1:2,0:0:0:0:
244,61,70754,2,0,P|202:41|147:47,1,103.500001974106,10|0,0:2|0:2,0:0:0:0:
63,290,71085,6,0,P|57:231|44:172,1,103.500001974106,2|0,1:2|1:2,0:0:0:0:
4,52,71417,1,8,0:2:0:0:
154,212,71583,2,0,B|280:236|232:147|368:178,1,206,0|0,1:2|1:2,0:0:0:0:
430,345,72074,2,0,P|413:282|417:226,1,103.500001974106,8|0,0:2|0:2,0:0:0:0:
467,32,72400,6,0,P|465:115|446:243,1,207.000003948212,2|8,1:2|0:2,0:0:0:0:
350,128,72889,2,0,P|290:76|162:119,1,207.000003948212,0|0,1:2|1:2,0:0:0:0:
90,248,73378,2,0,P|100:315|103:362,1,103.500001974106,10|2,0:2|1:2,0:0:0:0:
299,114,73704,5,0,1:2:0:0:
177,317,73865,1,2,1:2:0:0:
158,69,74026,5,10,0:0:0:0:
307,264,74187,1,0,1:2:0:0:
256,15,74349,5,8,0:2:0:0:
106,218,74510,1,0,1:2:0:0:
369,167,74671,5,8,0:2:0:0:
136,29,74833,1,0,1:2:0:0:
307,250,74994,6,0,P|368:278|431:269,1,103.500001974106,14|0,0:2|1:2,0:0:0:0:
223,323,75327,1,2,1:2:0:0:
378,173,75494,2,0,P|389:108|399:48,1,103.500001974106,10|2,0:2|1:2,0:0:0:0:
430,307,75827,1,0,1:2:0:0:
275,87,75994,1,4,0:3:0:0:
488,189,76160,1,4,0:3:0:0:
183,228,76327,6,0,B|339:211|261:297|414:287,1,242.4,6|0,1:2|1:2,0:0:0:0:
449,267,77225,1,0,1:2:0:0:
449,267,77306,2,0,P|451:203|451:179,1,67.5000025749208,8|2,0:2|0:2,0:0:0:0:
181,53,77630,6,0,P|173:108|181:172,1,94.499997116089,6|0,1:2|1:2,0:0:0:0:
302,59,77959,1,8,0:2:0:0:
174,227,78124,2,0,P|118:255|70:250,1,94.499997116089,2|0,0:2|1:2,0:0:0:0:
311,298,78454,1,0,1:2:0:0:
196,138,78619,1,8,0:2:0:0:
165,346,78783,6,0,P|158:281|152:233,1,94.499997116089,2|0,0:2|1:2,0:0:0:0:
347,75,79113,2,0,P|342:121|335:170,1,94.499997116089,2|8,1:2|0:2,0:0:0:0:
377,364,79443,1,0,0:2:0:0:
242,140,79608,1,2,1:2:0:0:
198,368,79767,1,0,1:2:0:0:
345,207,79927,2,0,P|401:185|447:192,1,94.499997116089,10|0,0:2|0:2,0:0:0:0:
179,344,80246,6,0,P|132:344|89:324,1,94.499997116089,2|0,1:2|1:2,0:0:0:0:
295,207,80565,1,8,0:2:0:0:
145,105,80728,2,0,P|151:165|157:237,1,94.499997116089,2|0,0:2|1:2,0:0:0:0:
311,332,81056,2,0,P|315:284|320:231,1,94.499997116089,2|8,1:2|0:2,0:0:0:0:
250,81,81384,1,2,0:2:0:0:
264,290,81548,5,0,1:2:0:0:
352,99,81714,1,0,1:2:0:0:
416,337,81881,1,8,0:2:0:0:
244,108,82048,1,0,1:0:0:0:
193,358,82214,1,8,0:2:0:0:
392,235,82381,1,8,0:2:0:0:
363,203,82464,1,8,0:2:0:0:
324,184,82548,1,8,1:2:0:0:
281,179,82631,1,8,0:2:0:0:
240,190,82714,1,8,0:2:0:0:
208,217,82798,1,8,0:2:0:0:
191,256,82881,6,0,P|181:188|166:123,1,94.499997116089,6|0,1:2|3:2,0:0:0:0:
262,45,83218,1,8,0:2:0:0:
409,295,83386,2,0,P|419:227|431:171,1,94.499997116089,2|0,3:2|1:0,0:0:0:0:
358,83,83716,1,0,3:0:0:0:
222,275,83877,6,0,P|170:298|111:290,1,94.499997116089,10|0,0:0|3:0,0:0:0:0:
203,134,84200,1,0,1:2:0:0:
349,340,84361,2,0,P|401:363|455:358,1,94.499997116089,2|8,3:2|0:2,0:0:0:0:
343,182,84683,1,0,3:2:0:0:
210,363,84845,2,0,P|201:287|196:233,1,94.499997116089,2|0,1:2|3:0,0:0:0:0:
336,77,85167,2,0,P|330:123|325:176,1,94.499997116089,10|0,0:0|3:0,0:0:0:0:
123,125,85505,5,14,0:2:0:0:
326,253,85669,1,0,1:2:0:0:
326,253,85752,1,0,1:2:0:0:
326,253,85834,1,0,1:2:0:0:
79,223,85999,5,10,0:2:0:0:
361,116,86164,1,0,1:0:0:0:
361,116,86246,1,0,1:0:0:0:
361,116,86329,1,0,1:2:0:0:
129,39,86494,5,10,0:0:0:0:
192,303,86658,1,0,1:0:0:0:
192,303,86741,1,0,1:0:0:0:
192,303,86823,1,0,1:2:0:0:
391,75,86988,5,10,0:2:0:0:
327,353,87153,1,0,1:2:0:0:
327,353,87235,1,0,1:0:0:0:
327,353,87318,1,0,1:2:0:0:
126,107,87483,5,10,0:2:0:0:
446,207,87647,1,10,0:2:0:0:
65,339,87812,1,10,0:2:0:0:
