osu file format v14

[General]
AudioFilename: audio.mp3
AudioLeadIn: 0
PreviewTime: 47892
Countdown: 0
SampleSet: Soft
StackLeniency: 0.7
Mode: 0
LetterboxInBreaks: 0
WidescreenStoryboard: 0

[Editor]
DistanceSpacing: 1
BeatDivisor: 4
GridSize: 32
TimelineZoom: 1.700006

[Metadata]
Title:RESISTER (TV Size)
TitleUnicode:RESISTER (TV Size)
Artist:ASCA
ArtistUnicode:ASCA
Creator:Sotarks
Version:Akitoshi's NORMAL
Source:ソードアート・オンライン アリシゼーション
Tags:sword art online sao alicization season three 3 kirito asuna eugeo alice opening op 2 jrock j-rock rock japanese female vocals vocal vocalist reform kujinn smokelind snownino_ akitoshi corinn -laura- SACRA MUSIC Sony Entertainment 大倉明日香 Asuka Ōkura okura oukura SAO-A Project
BeatmapID:1898517
BeatmapSetID:909759

[Difficulty]
HPDrainRate:4
CircleSize:3.2
OverallDifficulty:4
ApproachRate:5
SliderMultiplier:0.999999999999999
SliderTickRate:1

[Events]
//Background and Video events
0,0,"bg.jpg",0,0
Video,-40,"video.avi"
//Break Periods
//Storyboard Layer 0 (Background)
//Storyboard Layer 1 (Fail)
//Storyboard Layer 2 (Pass)
//Storyboard Layer 3 (Foreground)
//Storyboard Sound Samples

[TimingPoints]
1590,327.868852459016,4,2,22,42,1,0
1590,-125,4,2,22,42,0,0
6508,309.278350515464,4,2,22,42,1,0
6817,327.868852459016,4,2,22,42,1,0
6817,-111.111111111111,4,2,22,42,0,0
9439,322.58064516129,4,2,22,42,1,0
9439,-111.111111111111,4,2,22,42,0,0
10084,340.909090909091,4,2,22,42,1,0
10084,-111.111111111111,4,2,22,42,0,0
10765,326.086956521739,4,2,22,62,1,0
10765,-100,4,2,22,62,0,0
12069,324.324324324324,4,2,22,62,1,0
13366,331.491712707182,4,2,22,62,1,0
14857,321.71581769437,4,2,22,62,1,0
15017,321.71581769437,4,2,22,62,1,0
15821,363.636363636364,4,2,22,62,1,0
16002,327.868852459016,4,2,22,42,1,0
16002,-125,4,2,22,42,0,0
26493,337.078651685393,4,2,22,52,1,0
27167,324.324324324324,4,2,22,52,1,0
27815,324.324324324324,4,2,22,52,1,0
29112,329.67032967033,4,2,22,52,1,0
31749,327.868852459016,4,2,22,52,1,0
35683,335.195530726257,4,2,22,52,1,0
36185,317.460317460317,4,2,22,52,1,0
36502,329.67032967033,4,2,22,52,1,0
36831,338.983050847458,4,2,22,52,1,0
37000,323.450134770889,4,2,22,52,1,0
38293,329.67032967033,4,2,22,52,1,0
39611,326.086956521739,4,2,22,62,1,0
41893,331.491712707182,4,2,22,62,1,0
42224,329.67032967033,4,2,22,62,1,0
43542,326.975476839237,4,2,22,62,1,0
45830,332.409972299169,4,2,22,62,1,0
46162,329.67032967033,4,2,22,72,1,0
48799,326.530612244898,4,2,22,82,1,1
48799,-95.2380952380952,4,2,22,82,0,1
51411,327.868852459016,4,2,22,82,1,1
51411,-95.2380952380952,4,2,22,82,0,1
54033,337.078651685393,4,2,22,82,1,1
54707,322.58064516129,4,2,22,82,1,1
54707,-95.2380952380952,4,2,22,82,0,1
55352,327.868852459016,4,2,22,82,1,1
55352,-95.2380952380952,4,2,22,82,0,1
57647,317.460317460317,4,2,22,82,1,1
57647,-95.2380952380952,4,2,22,82,0,1
57964,331.491712707182,4,2,22,82,1,1
57964,-95.2380952380952,4,2,22,82,0,1
58958,327.868852459016,4,2,22,82,1,1
59285,327.868852459016,4,2,22,82,1,1
59285,-95.2380952380952,4,2,22,82,0,1
67153,324.324324324324,4,2,22,82,1,1
67801,329.67032967033,4,2,22,82,1,1
68460,326.086956521739,4,2,22,82,1,1
68460,-95.2380952380952,4,2,22,82,0,1
69112,324.324324324324,4,2,22,82,1,1
69112,-95.2380952380952,4,2,22,82,0,1
69760,331.491712707182,4,2,22,72,1,0
69760,-95.2380952380952,4,2,22,72,0,0
71748,326.086956521739,4,2,22,72,1,0
71748,-95.2380952380952,4,2,22,72,0,0
72400,326.086956521739,4,2,22,72,1,0
72400,-95.2380952380952,4,2,22,72,0,0
73704,322.58064516129,4,2,22,72,1,0
73704,-95.2380952380952,4,2,22,72,0,0
74994,333.333333333333,4,2,22,72,1,0
74994,-95.2380952380952,4,2,22,72,0,0
76994,300,4,2,22,72,1,0
77144,324.324324324324,4,2,22,72,1,0
77630,329.67032967033,4,2,22,72,1,0
79608,319.148936170213,4,2,22,72,1,0
80246,319.148936170213,4,2,22,72,1,0
80565,327.868852459016,4,2,22,72,1,0
81548,333.333333333333,4,2,22,72,1,0
82881,337.078651685393,4,2,22,72,1,0
83555,322.58064516129,4,2,22,72,1,0
84200,322.58064516129,4,2,22,72,1,0
85167,338.983050847458,4,2,22,72,1,0
85505,329.67032967033,3,2,22,72,1,0
87483,-100,4,2,22,92,0,0

[Colours]
Combo1 : 73,175,224
Combo2 : 255,189,89
Combo3 : 255,241,72
Combo4 : 176,94,232

[HitObjects]
130,84,1590,6,0,P|180:47|286:50,2,160,6|2|2,0:2|0:2|0:2,0:0:0:0:
15,217,3557,5,2,0:2:0:0:
143,337,4212,2,0,L|304:315,2,160,2|2|2,0:2|0:0|0:2,0:0:0:0:
143,337,6817,6,0,P|122:274|150:204,1,134.999995880127,6|0,1:2|1:2,0:0:0:0:
176,174,7472,1,10,0:2:0:0:
266,212,7800,2,0,L|368:196,1,89.999997253418,8|8,0:3|0:2,0:0:0:0:
354,198,9439,6,0,B|370:155|370:155|351:95,1,89.999997253418,0|8,0:2|0:3,0:0:0:0:
288,41,10084,2,0,B|243:48|243:48|206:73|206:73|149:83,1,134.999995880127,10|0,0:2|0:0,0:0:0:0:
112,90,10765,6,0,P|98:137|111:191,1,99.9999999999999,6|10,1:2|0:2,0:0:0:0:
173,269,11417,1,8,0:2:0:0:
173,269,11580,2,0,P|225:260|279:254,1,99.9999999999999,2|0,1:2|1:2,0:0:0:0:
322,251,12069,1,10,0:2:0:0:
401,190,12393,1,8,0:2:0:0:
401,190,12555,2,0,P|405:137|389:87,1,99.9999999999999,2|0,1:2|1:2,0:0:0:0:
358,55,13041,1,10,0:2:0:0:
259,37,13366,6,0,P|255:88|251:141,1,99.9999999999999,10|10,0:2|0:2,0:0:0:0:
181,208,14028,2,0,L|187:260,2,50,4|4|8,0:3|0:3|0:2,0:0:0:0:
148,169,14526,2,0,P|95:157|39:175,1,99.9999999999999,6|0,1:2|1:2,0:0:0:0:
15,202,15017,1,10,0:2:0:0:
22,301,15338,2,0,B|102:291|87:344|184:328,1,150,10|4,0:2|0:3,0:0:0:0:
207,315,16002,6,0,L|193:180,2,120,6|2|2,1:2|0:2|0:2,0:0:0:0:
281,362,17313,2,0,P|332:364|395:328,2,120,2|2|2,0:2|0:2|0:0,0:0:0:0:
207,315,18624,6,0,L|72:329,2,120,2|2|2,0:2|0:2|0:0,0:0:0:0:
266,250,19936,2,0,B|344:262|344:262|387:241,2,120,2|2|0,0:3|0:3|0:2,0:0:0:0:
191,202,21247,6,0,P|146:218|68:204,1,120,2|2,0:2|0:2,0:0:0:0:
11,147,22067,1,2,0:2:0:0:
104,53,22559,2,0,L|233:60,1,120,2|2,0:2|0:2,0:0:0:0:
311,68,23379,1,2,0:2:0:0:
406,159,23870,6,0,P|423:213|402:284,2,120,2|2|2,0:2|0:2|0:0,0:0:0:0:
317,159,25182,2,0,P|300:213|321:284,2,120,2|2|0,0:3|0:3|0:2,0:0:0:0:
355,66,26493,6,0,L|241:55,1,99.9999999999999,6|0,1:2|1:2,0:2:0:0:
155,51,27167,1,0,1:2:0:0:
95,131,27491,1,0,1:2:0:0:
138,220,27815,2,0,P|195:228|239:216,1,99.9999999999999,0|0,1:2|1:2,0:2:0:0:
322,167,28463,1,0,1:2:0:0:
398,231,28787,1,0,1:2:0:0:
368,326,29112,6,0,L|259:337,2,99.9999999999999,2|0|0,1:2|1:2|1:2,0:2:0:0:
466,305,30101,1,0,1:2:0:0:
501,211,30430,2,0,P|505:158|483:100,2,99.9999999999999,2|0|0,1:2|1:2|1:2,0:2:0:0:
466,305,31419,1,0,1:2:0:0:
368,326,31749,6,0,L|259:315,1,99.9999999999999,2|0,1:2|1:2,0:2:0:0:
169,300,32404,1,0,1:2:0:0:
122,211,32732,1,0,1:2:0:0:
157,117,33060,2,0,P|202:98|265:101,1,99.9999999999999,2|0,1:2|1:2,0:2:0:0:
348,125,33716,1,0,1:2:0:0:
392,214,34044,1,0,1:2:0:0:
355,307,34371,6,0,P|300:310|251:314,1,99.9999999999999,2|0,1:2|1:2,0:2:0:0:
163,355,35027,2,0,P|108:352|59:348,1,99.9999999999999,0|0,1:2|1:2,0:2:0:0:
12,262,35683,2,0,P|5:204|23:157,1,99.9999999999999,2|0,1:3|0:0,0:0:0:0:
51,127,36185,1,2,1:2:0:0:
51,127,36343,2,0,L|105:131,1,50,10|2,0:2|1:2,0:0:0:0:
150,137,36666,1,2,1:2:0:0:
236,187,37000,6,0,P|232:246|230:291,1,99.9999999999999,4|0,1:2|0:0,0:0:0:0:
227,340,37485,1,0,1:2:0:0:
227,340,37646,2,0,L|169:334,2,50,2|0|10,0:2|1:2|0:2,0:0:0:0:
325,356,38293,2,0,P|371:367|432:348,1,99.9999999999999,2|0,1:2|0:2,0:0:0:0:
458,321,38787,1,0,1:2:0:0:
458,321,38952,2,0,L|507:324,2,50,2|0|10,0:2|1:2|0:2,0:0:0:0:
403,236,39611,6,0,P|356:241|302:247,1,99.9999999999999,2|0,1:2|0:2,0:0:0:0:
262,275,40100,2,0,P|215:270|161:264,1,99.9999999999999,2|2,1:2|1:2,0:0:0:0:
113,256,40589,1,10,0:2:0:0:
51,183,40915,1,2,1:2:0:0:
51,183,41078,2,0,P|40:135|59:80,1,99.9999999999999,8|0,0:3|1:2,0:0:0:0:
81,45,41567,2,0,P|130:40|184:35,1,99.9999999999999,2|8,0:2|0:2,0:0:0:0:
280,29,42224,6,0,P|275:78|270:132,1,99.9999999999999,4|10,1:2|0:2,0:0:0:0:
206,205,42883,2,0,P|210:254|215:304,1,99.9999999999999,2|10,1:2|0:2,0:0:0:0:
225,358,43377,1,2,3:2:0:0:
225,358,43542,2,0,P|275:371|337:353,1,99.9999999999999,2|8,1:2|0:0,0:0:0:0:
399,297,44195,2,0,L|487:306,2,74.9999999999999,2|2|2,1:2|0:2|3:2,0:0:0:0:
360,264,44849,6,0,P|348:213|364:164,1,99.9999999999999,2|8,1:2|0:0,0:0:0:0:
412,82,45503,2,0,L|496:89,2,75.4,2|2|2,1:2|0:2|3:2,0:0:0:0:
371,52,46162,2,0,B|264:52|294:123|174:124,1,200,10|8,1:2|1:2,0:0:0:0:
90,110,47151,1,2,1:2:0:0:
21,182,47480,5,10,0:2:0:0:
21,182,47645,1,10,0:2:0:0:
21,182,48799,6,0,L|35:299,1,104.999996795654,6|8,1:2|0:2,0:0:0:0:
122,352,49452,1,2,1:2:0:0:
122,352,49615,2,0,P|168:333|228:335,1,104.999996795654,2|2,3:2|3:2,0:0:0:0:
273,349,50105,2,0,L|285:244,1,104.999996795654,2|10,1:2|0:2,0:0:0:0:
299,193,50594,1,2,3:2:0:0:
389,140,50921,1,2,3:2:0:0:
489,187,51247,1,2,3:2:0:0:
489,187,51411,6,0,P|504:236|493:287,1,104.999996795654,2|10,1:2|0:2,0:0:0:0:
470,335,51902,1,2,3:2:0:0:
367,357,52230,1,2,3:2:0:0:
268,319,52558,2,0,P|188:328|158:333,1,104.999996795654,2|2,3:2|3:2,0:0:0:0:
126,368,53050,2,0,L|53:379,1,52.4999983978271,8|0,0:0|3:0,0:0:0:0:
30,282,53542,2,0,P|18:225|32:169,1,104.999996795654,2|2,3:2|3:2,0:0:0:0:
47,131,54033,5,6,1:2:0:0:
135,74,54370,1,10,0:2:0:0:
240,108,54707,1,2,1:2:0:0:
240,108,54868,2,0,P|235:160|228:213,1,104.999996795654,2|2,3:2|3:2,0:0:0:0:
219,264,55352,2,0,P|270:280|328:271,1,104.999996795654,2|10,1:2|0:2,0:0:0:0:
421,238,56007,1,2,1:2:0:0:
421,238,56171,2,0,P|414:185|409:133,1,104.999996795654,2|2,3:2|3:2,0:0:0:0:
402,81,56663,5,2,1:2:0:0:
311,27,56991,1,8,0:2:0:0:
218,76,57319,2,0,L|154:71,1,52.4999983978271,2|8,1:2|0:2,0:0:0:0:
115,54,57647,2,0,L|51:59,1,52.4999983978271,2|8,1:2|0:2,0:0:0:0:
21,91,57964,2,0,B|12:143|12:143|30:193|30:193|16:251,2,157.499995193481,6|6|8,1:2|1:2|0:2,0:0:0:0:
114,140,59285,6,0,B|131:191|131:191|121:246,1,104.999996795654,6|8,1:2|0:2,0:0:0:0:
176,337,59940,1,2,1:2:0:0:
176,337,60104,2,0,P|230:329|293:322,1,104.999996795654,2|2,3:2|3:2,0:0:0:0:
331,314,60596,2,0,P|345:262|331:199,1,104.999996795654,2|10,1:2|0:2,0:0:0:0:
310,166,61088,1,2,3:2:0:0:
210,131,61416,1,2,3:2:0:0:
129,198,61744,1,2,3:2:0:0:
129,198,61907,6,0,L|138:275,2,52.4999983978271,2|2|10,1:2|3:2|0:2,0:0:0:0:
116,93,62563,1,2,1:2:0:0:
204,37,62891,1,10,0:2:0:0:
303,70,63219,2,0,P|360:64|411:56,1,104.999996795654,2|8,1:2|0:2,0:0:0:0:
459,47,63711,2,0,P|483:104|480:160,1,104.999996795654,2|0,3:2|3:2,0:0:0:0:
466,196,64203,1,8,0:2:0:0:
414,287,64530,6,0,P|358:283|298:278,1,104.999996795654,6|10,1:2|0:2,0:0:0:0:
233,215,65186,1,2,1:2:0:0:
233,215,65350,2,0,P|177:219|117:224,1,104.999996795654,2|2,3:2|3:2,0:0:0:0:
75,226,65842,2,0,P|60:169|74:117,1,104.999996795654,2|10,1:2|0:2,0:0:0:0:
121,32,66498,1,2,1:2:0:0:
121,32,66662,2,0,P|177:36|237:41,1,104.999996795654,2|2,3:2|3:2,0:0:0:0:
277,50,67153,5,2,1:2:0:0:
326,142,67477,1,10,0:2:0:0:
316,246,67801,1,2,1:2:0:0:
220,288,68130,1,10,0:2:0:0:
119,257,68460,2,0,P|99:214|105:155,1,104.999996795654,2|8,1:2|0:2,0:0:0:0:
146,61,69112,2,0,L|215:55,1,52.4999983978271,2|8,1:2|0:2,0:0:0:0:
246,34,69436,2,0,L|315:40,1,52.4999983978271,0|8,1:2|0:2,0:0:0:0:
344,64,69760,6,0,P|336:120|328:182,1,104.999996795654,6|8,1:2|0:2,0:0:0:0:
313,217,70257,2,0,P|259:205|197:228,1,104.999996795654,0|0,1:2|1:2,0:0:0:0:
170,250,70754,1,10,0:2:0:0:
212,351,71085,1,2,1:2:0:0:
212,351,71251,2,0,L|277:344,2,52.4999983978271,0|8|0,1:2|0:2|1:2,0:0:0:0:
162,370,71748,2,0,P|96:349|51:349,1,104.999996795654,2|8,0:2|0:2,0:0:0:0:
5,258,72400,6,0,P|10:207|17:136,1,104.999996795654,2|8,1:2|0:2,0:0:0:0:
27,102,72889,2,0,P|81:112|138:97,1,104.999996795654,0|0,1:2|1:2,0:0:0:0:
175,76,73378,1,10,0:2:0:0:
265,128,73704,2,0,P|271:189|277:255,1,104.999996795654,0|10,1:2|0:0,0:0:0:0:
286,337,74349,2,0,L|344:342,1,52.4999983978271,8|0,0:2|1:2,0:0:0:0:
386,363,74671,2,0,L|444:358,1,52.4999983978271,8|0,0:2|1:2,0:0:0:0:
490,353,74994,6,0,P|501:299|485:245,1,104.999996795654,14|2,0:2|1:2,0:0:0:0:
453,212,75494,2,0,P|442:158|458:104,1,104.999996795654,10|0,0:2|1:2,0:0:0:0:
485,67,75994,1,4,0:3:0:0:
401,11,76327,1,6,1:2:0:0:
149,6,77144,2,0,L|82:14,1,50,0|8,1:2|0:2,0:0:0:0:
51,98,77630,6,0,B|39:146|39:146|55:203,1,99.9999999999999,6|8,1:2|0:2,0:0:0:0:
80,235,78124,2,0,P|134:226|192:220,1,99.9999999999999,2|0,0:2|1:2,0:0:0:0:
233,216,78619,1,8,0:2:0:0:
233,216,78783,1,2,0:2:0:0:
333,217,79113,2,0,P|347:273|338:326,1,99.9999999999999,2|0,1:2|0:2,0:0:0:0:
314,356,79608,1,2,1:2:0:0:
215,370,79927,1,10,0:2:0:0:
120,337,80246,6,0,P|117:290|113:222,1,99.9999999999999,2|8,1:2|0:0,0:0:0:0:
113,186,80728,1,2,0:2:0:0:
179,111,81056,1,2,1:2:0:0:
278,108,81384,1,2,0:2:0:0:
369,148,81714,2,0,P|388:195|383:255,1,99.9999999999999,0|0,1:2|1:0,0:0:0:0:
370,291,82214,1,8,0:2:0:0:
287,347,82548,2,0,L|231:341,1,50,8|8,1:2|0:2,0:0:0:0:
188,329,82881,6,0,P|184:253|181:220,1,99.9999999999999,6|8,1:2|0:2,0:0:0:0:
156,192,83386,1,2,3:2:0:0:
156,192,83555,2,0,P|160:116|163:83,1,99.9999999999999,0|10,1:0|0:0,0:0:0:0:
241,30,84200,1,0,1:2:0:0:
241,30,84361,2,0,P|295:22|354:39,1,99.9999999999999,2|0,3:2|3:2,0:0:0:0:
380,59,84845,1,2,1:2:0:0:
411,154,85167,1,10,0:0:0:0:
346,230,85505,6,0,P|287:224|231:219,1,99.9999999999999,14|0,0:2|1:2,0:0:0:0:
197,210,85999,1,10,0:2:0:0:
111,169,86329,1,0,1:2:0:0:
111,169,86494,2,0,P|98:126|118:57,1,99.9999999999999,10|0,0:0|1:2,0:0:0:0:
142,36,86988,1,10,0:2:0:0:
241,72,87318,1,0,1:2:0:0:
241,72,87483,2,0,L|304:64,1,50,10|10,0:2|0:2,0:0:0:0:
340,58,87812,1,10,0:2:0:0:
