osu file format v14

[General]
AudioFilename: optc.mp3
AudioLeadIn: 0
PreviewTime: 47986
Countdown: 0
SampleSet: Soft
StackLeniency: 0.7
Mode: 0
LetterboxInBreaks: 0
WidescreenStoryboard: 1

[Editor]
DistanceSpacing: 1
BeatDivisor: 4
GridSize: 8
TimelineZoom: 1.6

[Metadata]
Title:RESISTER (TV Size)
TitleUnicode:RESISTER (TV Size)
Artist:ASCA
ArtistUnicode:ASCA
Creator:Rizen
Version:Normal
Source:ソードアート・オンライン アリシゼーション
Tags:Sword Art Online Alicization Season 3 SAO Opening 2 OP2 Shad0w1and japanese anime
BeatmapID:1898488
BeatmapSetID:909740

[Difficulty]
HPDrainRate:4
CircleSize:3
OverallDifficulty:4
ApproachRate:5
SliderMultiplier:1
SliderTickRate:1

[Events]
//Background and Video events
Video,0,"optc.flv"
0,0,"BG0.jpg",0,0
//Break Periods
2,16384,25476
//Storyboard Layer 0 (Background)
//Storyboard Layer 1 (Fail)
//Storyboard Layer 2 (Pass)
//Storyboard Layer 3 (Foreground)
//Storyboard Layer 4 (Overlay)
//Storyboard Sound Samples

[TimingPoints]
938,342.857142857143,4,2,1,50,1,0
1452,306.122448979592,4,2,1,50,1,0
1758,327.868852459016,4,2,1,70,1,0
4380,333.333333333333,4,2,1,70,1,0
5713,324.324324324324,4,2,1,70,1,0
6685,319.148936170213,4,2,1,70,1,0
7004,327.868852459016,4,2,1,80,1,0
7004,-100,4,2,1,80,0,0
9463,309.278350515464,4,2,1,80,1,0
9617,322.58064516129,4,2,1,80,1,0
10262,338.983050847458,4,2,1,80,1,0
10939,327.868852459016,4,2,1,80,1,0
10939,-100,4,2,1,80,0,0
16184,-100,4,2,1,30,0,0
26676,-100,4,2,1,60,0,0
35856,337.078651685393,4,2,1,70,1,0
36361,285.714285714286,4,2,1,70,1,0
36503,342.857142857143,4,2,1,70,1,0
36845,327.868852459016,4,2,1,70,1,0
37172,326.086956521739,4,2,1,70,1,0
37172,-100,4,2,1,70,0,0
37987,312.5,4,2,1,70,1,0
38143,333.333333333333,4,2,1,70,1,0
38476,327.868852459016,4,2,1,70,1,0
40607,303.030303030303,4,2,1,70,1,0
40758,337.078651685393,4,2,1,70,1,0
41095,324.324324324324,4,2,1,70,1,0
41257,320.855614973262,4,2,1,70,1,0
41257,-101.010101010101,4,2,1,70,0,0
41577,337.078651685393,4,2,1,70,1,0
41914,319.148936170213,4,2,1,70,1,0
42073,340.909090909091,4,2,1,70,1,0
42413,327.868852459016,4,2,1,80,1,0
42413,-100,4,2,1,80,0,0
48970,327.868852459016,4,2,1,90,1,1
48970,-100,4,2,1,90,0,1
69954,-100,4,2,1,90,0,1
70281,317.460317460317,4,2,1,90,1,1
70439,340.909090909091,4,2,1,90,1,1
70779,312.5,4,2,1,90,1,1
70935,331.491712707182,4,2,1,90,1,1
71266,329.67032967033,4,2,1,90,1,1
73079,322.58064516129,4,2,1,90,1,1
73562,333.333333333333,4,2,1,90,1,1
73728,-99.009900990099,4,2,1,90,0,1
73895,324.324324324324,4,2,1,90,1,1
76489,327.868852459016,4,2,1,90,1,0
76489,-100,4,2,1,90,0,0
77472,342.857142857143,4,2,1,90,1,0
77472,-100,4,2,1,90,0,0
77814,327.868852459016,4,2,1,90,1,1
77814,-100,4,2,1,90,0,1
78305,342.857142857143,4,2,1,90,1,1
78305,-96.8992248062015,4,2,1,90,0,1
78476,322.58064516129,4,2,1,90,1,1
78959,327.868852459016,4,2,1,90,1,1
79122,327.868852459016,4,2,1,90,1,1
87974,-100,4,2,1,90,0,0

[Colours]
Combo1 : 241,117,75
Combo2 : 245,242,118
Combo3 : 122,147,245
Combo4 : 245,112,112

[HitObjects]
364,347,1758,6,0,P|350:299|357:250,1,100,2|0,0:0|0:0,0:0:0:0:
427,179,2413,2,0,P|434:129|420:82,1,100,2|2,0:0|0:0,0:0:0:0:
337,139,3069,2,0,L|188:120,1,150,2|2,0:0|0:0,0:0:0:0:
101,69,3889,1,2,0:0:0:0:
30,139,4217,1,2,0:0:0:0:
30,139,4380,6,0,B|40:243|40:243|29:288,1,150,2|2,0:0|0:0,0:0:0:0:
86,370,5213,1,2,0:0:0:0:
180,337,5546,1,2,0:0:0:0:
180,337,5713,2,0,P|229:343|272:368,1,100,2|0,0:0|0:0,0:0:0:0:
350,305,6361,2,0,P|389:335|414:378,1,100,2|0,0:0|0:0,0:0:0:0:
494,318,7004,6,0,L|482:218,1,100,4|0,1:2|0:0,0:0:0:0:
433,130,7659,1,8,0:0:0:0:
348,183,7987,1,8,3:0:0:0:
288,102,8315,1,8,0:0:0:0:
287,102,9617,6,0,P|237:102|191:83,1,100,8|4,3:2|3:0,0:0:0:0:
134,0,10262,2,0,P|139:73|100:136,1,150,10|0,0:0|0:0,0:0:0:0:
80,182,10939,6,0,L|86:281,1,100,6|10,0:0|0:0,0:0:0:0:
177,324,11594,2,0,L|183:224,1,100,8|8,0:0|0:0,0:0:0:0:
275,262,12250,1,10,0:0:0:0:
373,245,12578,1,8,0:0:0:0:
437,167,12906,2,0,P|432:118|413:72,1,100,8|10,0:0|0:0,0:0:0:0:
312,64,13561,6,0,L|301:163,1,100,10|10,0:0|0:0,0:0:0:0:
204,137,14217,2,0,L|193:37,1,100,8|8,3:0|3:2,0:0:0:0:
148,16,14709,2,0,P|98:16|53:37,1,100,6|2,0:0|1:2,0:0:0:0:
27,80,15201,1,10,0:0:0:0:
77,166,15529,2,0,L|87:265,1,100,10|8,0:0|3:2,0:0:0:0:
49,358,16184,5,4,3:2:0:0:
50,313,26676,6,0,P|98:323|146:311,1,100,4|0,1:2|1:0,0:0:0:0:
230,256,27332,2,0,P|245:303|280:338,1,100,0|2,1:0|1:2,0:0:0:0:
367,289,27988,2,0,L|380:189,1,100,2|2,1:2|1:2,0:0:0:0:
461,131,28643,2,0,L|447:31,1,100,0|0,1:0|1:0,0:0:0:0:
360,81,29299,6,0,P|286:88|225:48,1,150,0|2,1:0|0:0,0:0:0:0:
132,86,30119,1,2,0:0:0:0:
169,178,30447,1,0,0:0:0:0:
169,178,30611,2,0,P|169:227|152:274,1,100,2|2,1:2|1:2,0:0:0:0:
57,307,31266,2,0,P|57:257|40:210,1,100,2|0,1:2|1:0,0:0:0:0:
15,113,31922,6,0,L|114:100,1,100,0|0,1:0|1:0,0:0:0:0:
153,68,32414,1,2,0:0:0:0:
153,68,32578,2,0,L|252:80,1,100,2|0,1:2|1:0,0:0:0:0:
335,24,33234,2,0,P|349:71|345:120,1,100,2|2,1:2|1:2,0:0:0:0:
401,203,33889,2,0,P|353:217|304:213,1,100,2|0,1:2|1:0,0:0:0:0:
213,171,34545,5,2,1:2:0:0:
118,202,34873,1,0,1:0:0:0:
52,277,35201,2,0,P|96:300|145:296,1,100,0|2,1:0|1:2,0:0:0:0:
239,333,35857,1,0,1:0:0:0:
383,293,36361,1,2,1:2:0:0:
383,293,36503,2,0,L|375:193,1,100,10|8,0:0|3:0,0:0:0:0:
369,88,37172,6,0,P|355:180|262:195,1,200,4|2,0:0|0:0,0:0:0:0:
213,112,38143,1,10,0:0:0:0:
119,147,38476,2,0,P|101:193|111:242,1,100,2|0,1:2|0:0,0:0:0:0:
206,276,39131,1,2,0:0:0:0:
262,195,39459,1,10,0:0:0:0:
354,159,39787,6,0,P|404:164|450:184,1,100,2|0,1:2|0:0,0:0:0:0:
494,159,40279,2,0,L|485:258,1,100,2|2,1:2|1:2,0:0:0:0:
481,308,40758,1,14,0:0:0:0:
393,358,41095,1,2,1:2:0:0:
393,358,41257,2,0,P|382:286|321:246,1,151,8|2,3:0|0:0,0:0:0:0:
229,286,42073,1,8,0:0:0:0:
129,280,42413,6,0,L|117:180,1,100,4|8,0:0|1:2,0:0:0:0:
33,126,43068,2,0,L|44:26,1,100,0|0,1:0|1:0,0:0:0:0:
132,74,43724,2,0,P|181:70|223:44,1,100,0|0,1:0|1:0,0:0:0:0:
310,95,44380,2,0,L|384:104,2,75,2|2|2,1:2|0:0|0:0,0:0:0:0:
275,132,45035,6,0,P|270:181|286:227,1,100,2|0,1:2|1:0,0:0:0:0:
222,305,45691,2,0,L|212:379,2,75,2|2|2,1:2|0:0|0:0,0:0:0:0:
264,328,46347,2,0,P|313:325|356:300,1,100,2|2,1:2|1:2,0:0:0:0:
453,324,47003,2,0,P|475:279|475:230,1,100,2|2,1:2|1:2,0:0:0:0:
435,138,47658,1,2,1:2:0:0:
435,138,47822,1,2,1:2:0:0:
435,138,48970,6,0,L|335:127,1,100,4|8,0:0|0:0,0:0:0:0:
296,156,49461,1,2,0:0:0:0:
296,156,49625,2,0,P|247:165|200:149,1,100,0|8,1:0|0:0,0:0:0:0:
115,96,50281,2,0,L|110:195,1,100,0|8,1:0|0:0,0:0:0:0:
66,221,50773,2,0,L|61:320,1,100,2|2,0:0|0:0,0:0:0:0:
153,280,51429,1,2,0:0:0:0:
153,280,51592,6,0,P|202:271|249:287,1,100,0|8,1:0|0:0,0:0:0:0:
286,319,52084,1,2,0:0:0:0:
384,304,52412,1,2,0:0:0:0:
456,234,52740,1,2,0:0:0:0:
456,234,52904,2,0,L|445:133,1,100,0|8,1:0|0:0,0:0:0:0:
438,84,53396,1,2,0:0:0:0:
344,119,53724,2,0,P|294:121|249:100,1,100,2|2,0:0|0:0,0:0:0:0:
208,71,54215,6,0,L|200:170,1,100,4|8,1:2|0:0,0:0:0:0:
165,206,54707,1,2,0:0:0:0:
165,206,54871,2,0,L|172:305,1,100,0|8,1:0|0:0,0:0:0:0:
79,344,55527,2,0,P|42:310|28:263,1,100,0|8,1:0|0:0,0:0:0:0:
54,220,56019,1,2,0:0:0:0:
54,220,56183,2,0,L|46:120,1,100,0|8,1:0|0:0,0:0:0:0:
123,55,56838,5,0,1:0:0:0:
222,63,57166,1,8,0:0:0:0:
295,130,57494,2,0,L|297:179,1,50,0|8,1:0|0:0,0:0:0:0:
322,223,57822,2,0,L|324:272,1,50,10|10,1:2|0:0,0:0:0:0:
347,316,58150,2,0,P|311:324|284:349,2,75,4|4|4,0:0|0:0|0:0,0:0:0:0:
488,371,59133,1,8,0:0:0:0:
456,276,59461,6,0,L|463:176,1,100,4|8,0:0|0:0,0:0:0:0:
424,145,59953,1,2,0:0:0:0:
424,145,60117,2,0,L|431:45,1,100,0|8,1:0|0:0,0:0:0:0:
338,83,60773,2,0,P|290:97|241:91,1,100,0|8,1:0|0:0,0:0:0:0:
201,121,61265,2,0,P|152:110|113:79,1,100,2|2,0:0|0:0,0:0:0:0:
16,103,61920,1,2,0:0:0:0:
16,103,62084,6,0,L|15:53,2,50,0|0|8,1:0|0:0|0:0,0:0:0:0:
36,149,62576,1,2,0:0:0:0:
36,149,62740,2,0,P|28:198|43:245,1,100,0|8,1:0|0:0,0:0:0:0:
122,307,63396,2,0,L|221:293,1,100,2|8,1:2|0:0,0:0:0:0:
261,263,63888,2,0,L|360:276,1,100,2|2,0:0|0:0,0:0:0:0:
407,193,64543,1,0,0:0:0:0:
407,193,64707,6,0,P|404:143|428:100,1,100,4|8,1:2|0:0,0:0:0:0:
353,33,65363,2,0,L|253:38,1,100,0|8,1:0|0:0,0:0:0:0:
221,77,65855,1,2,0:0:0:0:
221,77,66019,2,0,P|244:120|242:169,1,100,0|8,1:0|0:0,0:0:0:0:
162,231,66674,1,0,1:0:0:0:
162,231,66838,1,0,0:0:0:0:
200,323,67166,1,2,0:0:0:0:
200,323,67330,6,0,L|299:313,1,100,0|8,1:0|0:0,0:0:0:0:
381,371,67986,2,0,P|397:324|392:275,1,100,0|8,1:0|0:0,0:0:0:0:
312,214,68642,2,0,P|295:167|300:118,1,100,0|8,1:0|0:0,0:0:0:0:
368,44,69297,2,0,L|417:46,2,50,0|10|10,1:0|0:0|0:0,0:0:0:0:
271,16,69953,5,4,0:0:0:0:
180,59,70281,1,8,0:0:0:0:
180,59,70439,2,0,P|185:108|168:154,1,100,2|0,1:2|1:0,0:0:0:0:
127,184,70935,1,8,0:0:0:0:
40,234,71266,2,0,L|52:333,1,100,2|8,1:2|0:0,0:0:0:0:
140,382,71925,2,0,L|152:282,1,100,0|8,0:0|0:0,0:0:0:0:
237,228,72584,6,0,P|286:224|331:246,1,100,2|8,1:2|0:0,0:0:0:0:
363,284,73079,1,2,1:2:0:0:
452,240,73401,2,0,L|446:190,1,50,0|8,1:0|0:0,0:0:0:0:
415,151,73728,2,0,L|315:143,1,100,0|0,0:0|1:0,0:0:0:0:
275,112,74219,1,10,0:0:0:0:
178,86,74543,1,10,0:0:0:0:
83,118,74867,1,10,0:0:0:0:
24,199,75192,6,0,L|31:298,1,100,2|0,1:2|1:0,0:0:0:0:
114,355,75840,2,0,P|138:352|162:345,1,50,0|0,1:0|1:0,0:0:0:0:
207,322,76165,2,0,L|256:324,1,50,8|4,3:0|3:0,0:0:0:0:
306,329,76489,1,4,0:0:0:0:
380,90,77308,1,0,1:0:0:0:
380,90,77472,1,8,0:0:0:0:
443,167,77814,6,0,P|396:184|346:186,1,100,6|8,0:0|0:0,0:0:0:0:
301,163,78305,2,0,L|305:262,1,100,2|0,0:0|1:0,0:0:0:0:
309,313,78798,1,10,0:0:0:0:
214,345,79122,1,2,1:2:0:0:
214,345,79285,2,0,L|209:245,1,100,2|0,1:2|0:0,0:0:0:0:
206,194,79777,1,2,1:2:0:0:
112,229,80105,1,10,0:0:0:0:
37,162,80433,6,0,L|41:62,1,100,2|8,1:2|0:0,0:0:0:0:
73,21,80925,2,0,P|122:15|169:31,1,100,2|2,1:2|1:2,0:0:0:0:
244,97,81581,2,0,P|293:103|340:87,1,100,2|2,1:2|1:2,0:0:0:0:
381,59,82072,1,8,0:0:0:0:
457,123,82400,1,10,0:0:0:0:
430,219,82728,1,2,1:2:0:0:
331,235,83056,6,0,L|232:217,1,100,6|8,0:0|0:0,0:0:0:0:
200,255,83548,2,0,P|154:275|105:273,1,100,2|0,0:0|0:0,0:0:0:0:
65,243,84040,1,10,0:0:0:0:
103,151,84367,1,0,1:0:0:0:
103,151,84531,2,0,L|91:51,1,100,2|0,0:0|0:0,0:0:0:0:
134,26,85023,1,2,1:2:0:0:
226,62,85351,1,10,0:0:0:0:
319,27,85679,6,0,P|326:75|308:121,1,100,14|0,0:0|1:0,0:0:0:0:
276,160,86171,2,0,P|268:208|286:254,1,100,10|8,0:0|3:0,0:0:0:0:
316,294,86662,2,0,L|415:281,1,100,10|8,0:0|3:0,0:0:0:0:
464,274,87154,1,10,0:0:0:0:
405,192,87482,1,4,3:0:0:0:
405,192,87646,2,0,L|355:196,2,50,12|12|12,0:0|0:0|0:0,0:0:0:0:
