osu file format v14

[General]
AudioFilename: optc.mp3
AudioLeadIn: 0
PreviewTime: 47986
Countdown: 0
SampleSet: Soft
StackLeniency: 0.5
Mode: 0
LetterboxInBreaks: 0
WidescreenStoryboard: 1

[Editor]
DistanceSpacing: 1.4
BeatDivisor: 4
GridSize: 16
TimelineZoom: 2.899999

[Metadata]
Title:RESISTER (TV Size)
TitleUnicode:RESISTER (TV Size)
Artist:ASCA
ArtistUnicode:ASCA
Creator:Rizen
Version:Insane
Source:ソードアート・オンライン アリシゼーション
Tags:Sword Art Online Alicization Season 3 SAO Opening 2 OP2 Shad0w1and japanese anime
BeatmapID:1898568
BeatmapSetID:909740

[Difficulty]
HPDrainRate:6
CircleSize:4
OverallDifficulty:8
ApproachRate:9
SliderMultiplier:1.4
SliderTickRate:1

[Events]
//Background and Video events
Video,0,"optc.flv"
0,0,"BG0.jpg",0,0
//Break Periods
2,16384,26076
//Storyboard Layer 0 (Background)
//Storyboard Layer 1 (Fail)
//Storyboard Layer 2 (Pass)
//Storyboard Layer 3 (Foreground)
//Storyboard Layer 4 (Overlay)
//Storyboard Sound Samples

[TimingPoints]
938,342.857142857143,4,2,1,50,1,0
1452,306.122448979592,4,2,1,50,1,0
1758,327.868852459016,4,2,1,70,1,0
1758,-133.333333333333,4,2,1,70,0,0
4380,333.333333333333,4,2,1,70,1,0
4380,-133.333333333333,4,2,1,70,0,0
5713,324.324324324324,4,2,1,70,1,0
5713,-133.333333333333,4,2,1,70,0,0
6685,319.148936170213,4,2,1,70,1,0
7004,327.868852459016,4,2,1,80,1,0
7004,-100,4,2,1,80,0,0
9463,309.278350515464,4,2,1,60,1,0
9617,322.58064516129,4,2,1,80,1,0
10262,338.983050847458,4,2,1,80,1,0
10262,-200,4,2,1,80,0,0
10939,327.868852459016,4,2,1,80,1,0
10939,-100,4,2,1,80,0,0
16184,-100,4,2,1,30,0,0
26676,-100,4,2,1,60,0,0
35856,337.078651685393,4,2,1,70,1,0
36361,285.714285714286,4,2,1,70,1,0
36503,342.857142857143,4,2,1,70,1,0
36845,327.868852459016,4,2,1,70,1,0
37172,326.086956521739,4,2,1,70,1,0
37172,-133.333333333333,4,2,1,70,0,0
37987,312.5,4,2,1,70,1,0
38143,333.333333333333,4,2,1,70,1,0
38143,-133.333333333333,4,2,1,70,0,0
38476,327.868852459016,4,2,1,70,1,0
38476,-133.333333333333,4,2,1,70,0,0
40607,303.030303030303,4,2,1,70,1,0
40758,337.078651685393,4,2,1,70,1,0
41095,324.324324324324,4,2,1,70,1,0
41257,320.855614973262,4,2,1,70,1,0
41257,-133.333333333333,4,2,1,70,0,0
41577,337.078651685393,4,2,1,70,1,0
41914,319.148936170213,4,2,1,70,1,0
42073,340.909090909091,4,2,1,70,1,0
42073,-133.333333333333,4,2,1,70,0,0
42413,327.868852459016,4,2,1,80,1,0
42413,-100,4,2,1,80,0,0
48970,327.868852459016,4,2,1,90,1,1
48970,-83.3333333333333,4,2,1,90,0,1
69953,-100,4,2,1,90,0,1
70281,317.460317460317,4,2,1,90,1,1
70439,340.909090909091,4,2,1,90,1,1
70779,312.5,4,2,1,90,1,1
70935,331.491712707182,4,2,1,90,1,1
71266,329.67032967033,4,2,1,90,1,1
73079,322.58064516129,4,2,1,90,1,1
73562,333.333333333333,4,2,1,90,1,1
73895,324.324324324324,4,2,1,90,1,1
76489,327.868852459016,4,2,1,90,1,0
76489,-200,4,2,1,90,0,0
77472,342.857142857143,4,2,1,90,1,0
77472,-100,4,2,1,90,0,0
77814,327.868852459016,4,2,1,90,1,1
77814,-100,4,2,1,90,0,1
78305,342.857142857143,4,2,1,90,1,1
78305,-97.0873786407767,4,2,1,90,0,1
78476,322.58064516129,4,2,1,90,1,1
78959,327.868852459016,4,2,1,90,1,1
79122,327.868852459016,4,2,1,90,1,1
87974,-100,4,2,1,90,0,0

[Colours]
Combo1 : 241,117,75
Combo2 : 245,242,118
Combo3 : 122,147,245
Combo4 : 245,112,112

[HitObjects]
80,127,1758,6,0,P|131:135|180:119,1,105.000004005432,2|0,0:0|0:0,0:0:0:0:
271,45,2249,1,0,0:0:0:0:
271,45,2413,2,0,L|261:149,1,105.000004005432,2|2,0:0|0:0,0:0:0:0:
363,189,2905,1,0,0:0:0:0:
363,189,3069,6,0,L|353:84,1,105.000004005432,2|0,0:0|0:0,0:0:0:0:
261,149,3561,1,2,0:0:0:0:
454,161,3889,1,2,0:0:0:0:
292,277,4217,1,2,0:0:0:0:
292,277,4380,6,0,P|281:253|278:227,1,52.5000020027161,2|0,0:0|0:0,0:0:0:0:
185,185,4713,1,0,0:0:0:0:
185,185,4879,2,0,P|182:211|171:234,1,52.5000020027161,2|0,0:0|0:0,0:0:0:0:
70,289,5213,2,0,P|59:265|56:239,1,52.5000020027161,2|0,0:0|0:0,0:0:0:0:
122,83,5546,1,2,0:0:0:0:
122,83,5713,6,0,L|112:188,1,105,2|0,0:0|0:0,0:0:0:0:
242,39,6361,2,0,L|252:143,1,105,2|0,0:0|0:0,0:0:0:0:
464,97,7004,6,0,P|401:66|332:73,1,140,4|0,1:2|0:0,0:0:0:0:
252,143,7495,1,0,1:0:0:0:
252,143,7577,1,0,1:0:0:0:
252,142,7659,2,0,P|237:174|236:209,1,70,8|0,0:0|1:0,0:0:0:0:
397,295,7987,1,8,3:0:0:0:
318,190,8151,1,4,3:0:0:0:
206,336,8315,5,8,0:0:0:0:
206,336,9617,5,8,3:2:0:0:
199,301,9697,1,8,3:0:0:0:
179,271,9778,1,8,3:0:0:0:
151,249,9858,1,8,3:0:0:0:
119,234,9939,1,4,3:0:0:0:
83,234,10020,1,4,3:0:0:0:
50,246,10100,1,4,3:0:0:0:
24,270,10181,1,4,3:0:0:0:
9,301,10262,6,0,P|29:244|27:183,1,105,10|0,0:0|0:0,0:0:0:0:
80,127,10939,6,0,L|75:57,1,70,6|0,0:0|0:0,0:0:0:0:
198,20,11266,1,10,0:0:0:0:
236,95,11430,2,0,P|202:102|167:99,1,70,0|8,0:0|0:0,0:0:0:0:
222,215,11758,1,2,1:2:0:0:
148,255,11922,2,0,P|140:221|143:186,1,70,8|0,0:0|1:0,0:0:0:0:
286,159,12250,5,10,0:0:0:0:
361,204,12414,2,0,L|430:197,1,70,0|8,0:0|0:0,0:0:0:0:
483,291,12742,1,2,1:2:0:0:
483,291,12824,1,0,1:0:0:0:
483,291,12906,2,0,L|413:284,1,70,8|0,0:0|1:0,0:0:0:0:
388,122,13234,1,10,0:0:0:0:
430,196,13398,1,0,1:0:0:0:
291,313,13561,5,10,0:0:0:0:
317,232,13725,1,0,0:0:0:0:
212,139,13889,2,0,L|216:208,1,70,10|0,0:0|1:0,0:0:0:0:
233,384,14217,1,8,3:0:0:0:
200,296,14381,1,4,3:0:0:0:
291,313,14545,1,8,3:2:0:0:
429,186,14709,6,0,L|425:256,1,70,6|0,0:0|0:0,0:0:0:0:
320,288,15037,1,2,1:2:0:0:
298,107,15201,2,0,P|332:110|365:98,1,70,10|0,0:0|1:0,0:0:0:0:
398,76,15447,1,0,1:0:0:0:
398,76,15529,1,10,0:0:0:0:
261,21,15693,1,8,3:0:0:0:
244,23,15775,1,8,3:0:0:0:
229,25,15857,1,8,3:2:0:0:
214,27,15938,1,8,3:0:0:0:
201,29,16020,1,4,3:0:0:0:
187,31,16102,1,4,3:0:0:0:
172,32,16184,1,4,3:2:0:0:
312,335,26676,5,4,1:2:0:0:
349,246,27004,1,0,1:0:0:0:
331,150,27332,1,0,1:0:0:0:
312,335,27660,1,2,1:2:0:0:
349,246,27824,1,2,0:0:0:0:
331,150,27988,6,0,P|323:117|306:86,1,70,2|0,1:2|0:0,0:0:0:0:
212,88,28316,2,0,P|220:54|237:23,1,70,2|0,1:2|0:0,0:0:0:0:
338,5,28643,1,0,1:0:0:0:
410,72,28971,1,0,1:0:0:0:
349,246,29299,5,0,1:0:0:0:
250,264,29627,2,0,P|215:257|184:241,1,70,2|2,1:2|0:0,0:0:0:0:
124,304,29955,2,0,L|55:298,1,70,0|2,1:0|0:0,0:0:0:0:
206,354,30283,2,0,L|275:360,1,70,2|0,1:2|0:0,0:0:0:0:
260,197,30611,6,0,P|247:229|250:264,1,70,2|0,1:2|0:0,0:0:0:0:
348,245,30938,2,0,P|361:278|358:313,1,70,2|0,1:2|0:0,0:0:0:0:
422,181,31266,1,2,1:2:0:0:
496,236,31594,1,0,1:0:0:0:
249,263,31922,6,0,P|250:228|263:195,1,70,0|0,1:0|0:0,0:0:0:0:
299,120,32250,2,0,P|298:85|285:52,1,70,0|2,1:0|0:0,0:0:0:0:
210,0,32578,2,0,P|197:32|196:67,1,70,2|0,1:2|0:0,0:0:0:0:
321,129,32906,1,2,1:2:0:0:
285,52,33070,1,0,0:0:0:0:
182,149,33234,6,0,L|112:143,1,70,2|0,1:2|0:0,0:0:0:0:
65,229,33561,2,0,L|134:223,1,70,2|0,1:2|0:0,0:0:0:0:
147,315,33889,2,0,P|159:251|223:251,1,140,2|0,1:2|1:0,0:0:0:0:
296,302,34381,1,2,0:0:0:0:
379,266,34545,6,0,L|373:196,1,70,2|0,1:2|0:0,0:0:0:0:
302,138,34873,2,0,L|307:68,1,70,0|2,1:0|0:0,0:0:0:0:
389,26,35201,5,0,1:0:0:0:
457,84,35529,1,2,1:2:0:0:
374,195,35856,1,0,1:0:0:0:
374,195,36361,5,2,1:2:0:0:
322,323,36503,2,0,P|309:292|311:257,1,70,10|0,0:0|1:0,0:0:0:0:
444,238,36845,2,0,P|458:271|454:305,1,70,8|0,3:0|0:0,0:0:0:0:
311,257,37172,1,4,0:0:0:0:
311,257,37661,5,0,1:0:0:0:
233,311,37824,2,0,L|180:315,1,52.5000020027161,2|0,0:0|0:0,0:0:0:0:
61,253,38143,2,0,L|113:257,1,52.5000020027161,10|0,0:0|0:0,0:0:0:0:
178,158,38476,6,0,P|177:208|220:233,1,105.000004005432,2|0,1:2|0:0,0:0:0:0:
289,173,38967,1,0,1:0:0:0:
369,203,39131,2,0,L|421:199,1,52.5000020027161,2|0,0:0|0:0,0:0:0:0:
512,287,39459,2,0,L|459:283,1,52.5000020027161,10|0,0:0|0:0,0:0:0:0:
454,120,39787,6,0,P|493:153|504:204,1,105.000004005432,2|0,1:2|0:0,0:0:0:0:
459,283,40279,2,0,L|512:286,1,52.5000020027161,2|0,1:2|0:0,0:0:0:0:
504,203,40607,1,2,1:2:0:0:
368,318,40758,1,14,0:0:0:0:
273,303,40926,1,0,0:0:0:0:
109,239,41095,5,2,1:2:0:0:
205,219,41257,2,0,P|198:270|169:313,1,105,8|0,3:0|1:0,0:0:0:0:
109,239,41745,1,2,0:0:0:0:
205,219,41914,1,0,1:0:0:0:
89,145,42073,2,0,L|36:139,1,52.5000020027161,8|0,0:0|0:0,0:0:0:0:
188,121,42413,6,0,L|257:127,1,70,4|0,0:0|0:0,0:0:0:0:
417,89,42740,2,0,L|486:95,1,70,8|2,1:2|0:0,0:0:0:0:
504,199,43068,2,0,L|435:193,1,70,0|2,1:0|0:0,0:0:0:0:
280,225,43396,2,0,L|211:219,1,70,0|2,1:0|0:0,0:0:0:0:
329,297,43724,6,0,P|363:237|345:171,1,140,0|0,1:0|1:0,0:0:0:0:
280,225,44216,1,0,0:0:0:0:
161,154,44380,2,0,P|155:120|157:85,1,70,2|0,1:2|0:0,0:0:0:0:
114,62,44626,2,0,P|87:85|56:100,1,70,2|0,0:0|0:0,0:0:0:0:
13,125,44872,2,0,L|9:91,1,35,2|0,0:0|0:0,0:0:0:0:
78,176,45035,6,0,L|69:245,1,70,2|0,1:2|0:0,0:0:0:0:
0,376,45363,1,0,1:0:0:0:
109,332,45527,1,0,0:0:0:0:
232,328,45691,2,0,P|266:333|299:346,1,70,2|0,1:2|0:0,0:0:0:0:
343,324,45937,2,0,P|369:346|392:373,1,70,2|0,0:0|0:0,0:0:0:0:
440,359,46183,2,0,L|443:324,1,35,2|0,0:0|0:0,0:0:0:0:
419,236,46347,5,2,1:2:0:0:
416,217,46429,1,8,0:0:0:0:
413,198,46511,1,8,0:0:0:0:
411,180,46593,1,10,0:0:0:0:
383,152,46675,6,0,L|386:117,3,35,2|8|8|8,1:2|0:0|0:0|0:0,0:0:0:0:
306,125,47003,2,0,L|307:90,1,35,2|8,1:2|0:0,0:0:0:0:
228,161,47167,2,0,L|229:126,1,35,8|10,0:0|0:0,0:0:0:0:
181,289,47331,6,0,L|215:284,1,35,2|0,1:2|0:0,0:0:0:0:
319,237,47494,2,0,L|284:232,1,35,2|0,0:0|0:0,0:0:0:0:
382,299,47658,1,2,1:2:0:0:
306,125,47822,1,2,1:2:0:0:
381,291,48970,6,0,P|427:225|406:146,1,167.999994873047,4|8,0:0|0:0,0:0:0:0:
306,125,49461,1,2,0:0:0:0:
174,181,49625,2,0,P|132:177|93:160,1,83.9999974365235,0|2,1:0|0:0,0:0:0:0:
0,283,49953,1,8,0:0:0:0:
97,258,50117,1,2,0:0:0:0:
200,356,50281,6,0,L|364:322,1,167.999994873047,0|8,1:0|0:0,0:0:0:0:
443,381,50773,2,0,P|458:342|457:300,1,83.9999974365235,2|0,0:0|1:0,0:0:0:0:
377,149,51101,2,0,P|376:190|391:229,1,83.9999974365235,2|8,0:0|0:0,0:0:0:0:
462,173,51429,1,2,0:0:0:0:
322,80,51592,6,0,L|238:87,1,83.9999974365235,0|0,1:0|0:0,0:0:0:0:
145,55,51920,1,8,0:0:0:0:
142,233,52084,2,0,P|160:195|161:153,1,83.9999974365235,2|0,0:0|1:0,0:0:0:0:
46,217,52412,2,0,P|47:258|65:296,1,83.9999974365235,2|8,0:0|0:0,0:0:0:0:
167,330,52740,1,2,0:0:0:0:
314,283,52904,5,0,1:0:0:0:
345,368,53068,2,0,P|303:373|263:361,1,83.9999974365235,2|8,0:0|0:0,0:0:0:0:
395,277,53396,2,0,P|353:271|313:283,1,83.9999974365235,2|0,0:0|1:0,0:0:0:0:
449,360,53724,2,0,B|430:274|430:274|442:195,1,167.999994873047,2|2,0:0|0:0,0:0:0:0:
483,36,54215,6,0,P|498:74|495:116,1,83.9999974365235,4|2,1:2|0:0,0:0:0:0:
385,92,54543,2,0,P|379:133|356:167,1,83.9999974365235,8|2,0:0|0:0,0:0:0:0:
279,97,54871,1,0,1:0:0:0:
123,158,55035,2,0,L|206:151,1,83.9999974365235,0|8,0:0|0:0,0:0:0:0:
161,72,55363,1,2,0:0:0:0:
83,239,55527,6,0,L|0:246,1,83.9999974365235,0|2,1:0|0:0,0:0:0:0:
232,320,55855,2,0,L|148:313,1,83.9999974365235,8|2,0:0|0:0,0:0:0:0:
293,240,56183,1,0,1:0:0:0:
394,369,56347,2,0,P|398:327|381:289,1,83.9999974365235,0|8,0:0|0:0,0:0:0:0:
293,240,56674,1,2,0:0:0:0:
402,56,56838,6,0,P|361:59|320:48,1,83.9999974365235,0|2,1:0|0:0,0:0:0:0:
204,146,57166,2,0,P|245:149|286:138,1,83.9999974365235,8|2,0:0|0:0,0:0:0:0:
152,65,57494,1,0,1:0:0:0:
124,90,57576,1,8,0:0:0:0:
111,130,57658,1,8,0:0:0:0:
114,171,57740,1,10,0:0:0:0:
133,208,57822,1,10,1:2:0:0:
145,248,57904,1,8,0:0:0:0:
141,289,57986,1,10,0:0:0:0:
124,327,58068,1,8,0:0:0:0:
89,351,58150,5,4,0:0:0:0:
204,146,58396,1,4,0:0:0:0:
280,383,58642,2,0,P|229:317|234:235,1,167.999994873047,4|0,0:0|1:0,0:0:0:0:
369,327,59133,2,0,P|367:265|395:210,1,125.999996154785,8|0,0:0|0:0,0:0:0:0:
459,245,59461,6,0,P|387:212|389:132,1,167.999994873047,4|8,0:0|0:0,0:0:0:0:
497,145,59953,1,2,0:0:0:0:
335,42,60117,2,0,P|374:30|416:33,1,83.9999974365235,0|2,1:0|0:0,0:0:0:0:
284,151,60445,1,8,0:0:0:0:
389,132,60609,1,2,0:0:0:0:
259,254,60773,6,0,L|92:228,1,167.999994873047,0|8,1:0|0:0,0:0:0:0:
40,93,61265,2,0,P|81:96|121:83,1,83.9999974365235,2|0,0:0|1:0,0:0:0:0:
284,151,61592,2,0,P|242:154|202:141,1,83.9999974365235,2|8,0:0|0:0,0:0:0:0:
254,61,61920,1,2,0:0:0:0:
375,211,62084,6,0,L|383:127,1,83.9999974365235,0|2,1:0|0:0,0:0:0:0:
476,256,62412,2,0,L|468:172,1,83.9999974365235,8|2,0:0|0:0,0:0:0:0:
280,220,62740,2,0,P|358:232|381:308,1,167.999994873047,0|8,1:0|0:0,0:0:0:0:
295,364,63232,1,0,0:0:0:0:
141,315,63396,5,2,1:2:0:0:
52,360,63560,2,0,P|42:319|48:277,1,83.9999974365235,2|8,0:0|0:0,0:0:0:0:
210,272,63888,2,0,P|179:300|140:315,1,83.9999974365235,2|0,0:0|0:0,0:0:0:0:
55,172,64215,2,0,P|94:184|127:210,1,83.9999974365235,2|8,0:0|0:0,0:0:0:0:
48,277,64543,1,0,0:0:0:0:
4,81,64707,6,0,L|87:72,1,83.9999974365235,4|2,1:2|0:0,0:0:0:0:
247,141,65035,2,0,L|163:132,1,83.9999974365235,8|2,0:0|0:0,0:0:0:0:
314,72,65363,1,0,1:0:0:0:
392,195,65527,2,0,P|402:154|395:113,1,83.9999974365235,0|8,0:0|0:0,0:0:0:0:
293,216,65855,1,2,0:0:0:0:
444,282,66019,6,0,P|473:252|487:213,1,83.9999974365235,0|2,1:0|0:0,0:0:0:0:
347,298,66347,2,0,P|361:337|390:366,1,83.9999974365235,8|2,0:0|0:0,0:0:0:0:
392,195,66674,1,0,1:0:0:0:
246,303,66838,2,0,P|239:344|249:384,1,83.9999974365235,0|8,0:0|0:0,0:0:0:0:
347,298,67166,1,2,0:0:0:0:
185,226,67330,6,0,L|101:232,1,83.9999974365235,0|2,1:0|0:0,0:0:0:0:
37,75,67658,2,0,L|120:68,1,83.9999974365235,8|2,0:0|0:0,0:0:0:0:
203,20,67986,2,0,L|286:13,1,83.9999974365235,0|2,1:0|0:0,0:0:0:0:
348,165,68314,2,0,L|264:171,1,83.9999974365235,8|2,0:0|0:0,0:0:0:0:
440,242,68642,5,0,1:0:0:0:
460,151,68806,1,2,0:0:0:0:
328,74,68969,1,8,0:0:0:0:
348,165,69133,1,10,0:0:0:0:
185,226,69297,1,0,1:0:0:0:
207,131,69461,1,10,0:0:0:0:
245,148,69543,1,8,0:0:0:0:
269,182,69625,1,10,0:0:0:0:
280,222,69707,1,8,0:0:0:0:
274,263,69789,1,10,0:0:0:0:
289,302,69871,1,2,1:2:0:0:
320,317,69953,6,0,P|251:307|190:339,1,140,4|8,0:0|0:0,0:0:0:0:
184,225,70439,2,0,P|123:193|55:203,1,140,2|0,1:2|1:0,0:0:0:0:
84,352,70935,2,0,P|101:321|106:287,1,70,8|0,0:0|0:0,0:0:0:0:
49,93,71266,5,2,1:2:0:0:
152,120,71430,1,0,1:0:0:0:
251,93,71595,2,0,P|284:80|311:58,1,70,8|2,0:0|1:2,0:0:0:0:
460,109,71925,1,0,0:0:0:0:
354,137,72090,1,0,1:0:0:0:
428,254,72255,2,0,L|420:184,1,70,8|0,0:0|0:0,0:0:0:0:
265,269,72584,6,0,L|272:199,1,70,2|0,1:2|0:0,0:0:0:0:
335,328,72914,1,8,0:0:0:0:
212,350,73079,2,0,P|218:282|170:233,1,140,2|0,1:2|1:0,0:0:0:0:
11,252,73562,1,8,0:0:0:0:
95,295,73728,1,0,0:0:0:0:
119,154,73895,6,0,L|49:160,1,70,2|0,1:2|1:0,0:0:0:0:
263,109,74219,1,10,0:0:0:0:
169,60,74381,1,0,1:0:0:0:
302,203,74543,1,10,0:0:0:0:
291,91,74705,1,0,1:0:0:0:
231,279,74867,1,10,0:0:0:0:
324,216,75030,1,2,1:2:0:0:
479,260,75192,6,0,P|445:270|410:271,1,70,2|0,1:2|1:0,0:0:0:0:
430,180,75516,1,0,1:0:0:0:
300,284,75678,2,0,L|230:278,1,70,10|0,0:0|1:0,0:0:0:0:
137,326,76003,1,0,1:0:0:0:
20,172,76165,1,8,3:0:0:0:
205,140,76327,1,4,3:0:0:0:
137,326,76489,6,0,B|103:259|149:250|122:189,1,140,4|0,0:0|0:0,0:0:0:0:
212,278,77308,1,0,1:0:0:0:
212,278,77390,1,0,1:0:0:0:
212,277,77472,2,0,P|233:251|244:217,1,70,8|0,0:0|0:0,0:0:0:0:
387,286,77814,6,0,P|352:286|319:275,1,70,6|0,0:0|1:0,0:0:0:0:
367,195,78141,1,8,0:0:0:0:
241,119,78305,2,0,P|307:113|337:53,1,140,2|0,0:0|1:0,0:0:0:0:
160,94,78798,1,10,0:0:0:0:
186,0,78959,1,0,1:0:0:0:
66,143,79122,5,2,1:2:0:0:
9,53,79285,2,0,P|39:36|74:35,1,70,2|8,1:2|0:0,0:0:0:0:
160,94,79613,1,0,0:0:0:0:
92,244,79777,2,0,L|22:236,1,70,2|0,1:2|1:0,0:0:0:0:
174,313,80105,2,0,L|243:305,1,70,10|0,0:0|1:0,0:0:0:0:
409,342,80433,6,0,P|406:307|417:274,1,70,2|0,1:2|1:0,0:0:0:0:
486,208,80761,1,8,0:0:0:0:
383,107,80925,2,0,L|391:176,1,70,2|0,1:2|1:0,0:0:0:0:
403,7,81253,2,0,L|333:15,1,70,2|8,1:2|0:0,0:0:0:0:
196,1,81581,1,2,1:2:0:0:
175,102,81744,6,0,L|244:93,1,70,0|2,1:0|1:2,0:0:0:0:
330,254,82072,1,8,0:0:0:0:
243,305,82236,2,0,P|233:271|235:236,1,70,0|10,1:0|0:0,0:0:0:0:
156,319,82564,1,8,0:0:0:0:
125,335,82646,1,8,0:0:0:0:
90,337,82728,1,2,1:2:0:0:
57,324,82810,1,8,0:0:0:0:
41,292,82892,1,8,0:0:0:0:
40,256,82974,1,8,0:0:0:0:
56,225,83056,6,0,L|125:229,1,70,6|0,0:0|0:0,0:0:0:0:
227,198,83384,1,8,0:0:0:0:
264,364,83548,2,0,P|256:329|257:294,1,70,2|0,0:0|1:0,0:0:0:0:
354,321,83876,1,0,0:0:0:0:
398,162,84040,2,0,L|328:166,1,70,10|0,0:0|0:0,0:0:0:0:
227,198,84367,5,0,1:0:0:0:
131,67,84531,2,0,P|164:78|192:98,1,70,2|8,0:0|0:0,0:0:0:0:
120,172,84859,1,0,0:0:0:0:
283,55,85023,2,0,L|287:124,1,70,2|0,1:2|0:0,0:0:0:0:
483,203,85351,2,0,L|487:133,1,70,10|0,0:0|0:0,0:0:0:0:
283,55,85679,5,14,0:0:0:0:
249,177,85843,1,0,1:0:0:0:
323,290,86007,1,0,1:0:0:0:
192,99,86171,5,10,0:0:0:0:
97,187,86335,1,0,1:0:0:0:
87,333,86499,1,8,3:0:0:0:
87,333,86581,1,8,3:0:0:0:
87,333,86662,1,10,0:0:0:0:
323,290,86826,5,8,3:0:0:0:
294,269,86908,1,4,3:0:0:0:
260,257,86990,1,8,3:0:0:0:
225,255,87072,1,4,3:0:0:0:
190,261,87154,2,0,L|155:258,1,35,10|0,0:0|0:0,0:0:0:0:
97,187,87318,2,0,L|131:181,1,35,8|0,3:0|0:0,0:0:0:0:
249,176,87482,2,0,L|214:173,1,35,4|0,3:0|0:0,0:0:0:0:
48,118,87646,5,12,0:0:0:0:
161,29,87810,1,12,0:0:0:0:
293,97,87974,1,12,0:0:0:0:
