osu file format v14

[General]
AudioFilename: optc.mp3
AudioLeadIn: 0
PreviewTime: 47986
Countdown: 0
SampleSet: Soft
StackLeniency: 0.5
Mode: 0
LetterboxInBreaks: 0
WidescreenStoryboard: 1

[Editor]
DistanceSpacing: 1.4
BeatDivisor: 4
GridSize: 8
TimelineZoom: 2.4

[Metadata]
Title:RESISTER (TV Size)
TitleUnicode:RESISTER (TV Size)
Artist:ASCA
ArtistUnicode:ASCA
Creator:Rizen
Version:Hard
Source:ソードアート・オンライン アリシゼーション
Tags:Sword Art Online Alicization Season 3 SAO Opening 2 OP2 Shad0w1and japanese anime
BeatmapID:1898486
BeatmapSetID:909740

[Difficulty]
HPDrainRate:5
CircleSize:4
OverallDifficulty:7
ApproachRate:8
SliderMultiplier:1.2
SliderTickRate:1

[Events]
//Background and Video events
Video,0,"optc.flv"
0,0,"BG0.jpg",0,0
//Break Periods
2,16383,25776
//Storyboard Layer 0 (Background)
//Storyboard Layer 1 (Fail)
//Storyboard Layer 2 (Pass)
//Storyboard Layer 3 (Foreground)
//Storyboard Layer 4 (Overlay)
//Storyboard Sound Samples

[TimingPoints]
938,342.857142857143,4,2,1,50,1,0
1452,306.122448979592,4,2,1,50,1,0
1758,327.868852459016,4,2,1,70,1,0
4380,333.333333333333,4,2,1,70,1,0
5713,324.324324324324,4,2,1,70,1,0
6685,319.148936170213,4,2,1,70,1,0
7003,-100,4,2,1,70,0,0
7004,327.868852459016,4,2,1,80,1,0
9463,309.278350515464,4,2,1,60,1,0
9617,322.58064516129,4,2,1,80,1,0
10262,338.983050847458,4,2,1,80,1,0
10262,-100,4,2,1,80,0,0
10938,-100,4,2,1,80,0,0
10939,327.868852459016,4,2,1,80,1,0
16184,-100,4,2,1,30,0,0
26676,-100,4,2,1,60,0,0
35856,337.078651685393,4,2,1,70,1,0
36361,285.714285714286,4,2,1,70,1,0
36503,342.857142857143,4,2,1,70,1,0
36845,327.868852459016,4,2,1,70,1,0
37172,326.086956521739,4,2,1,70,1,0
37172,-100,4,2,1,70,0,0
37824,-98.0392156862745,4,2,1,70,0,0
37987,312.5,4,2,1,70,1,0
38143,333.333333333333,4,2,1,70,1,0
38476,327.868852459016,4,2,1,70,1,0
40607,303.030303030303,4,2,1,70,1,0
40758,337.078651685393,4,2,1,70,1,0
41095,324.324324324324,4,2,1,70,1,0
41257,320.855614973262,4,2,1,70,1,0
41577,337.078651685393,4,2,1,70,1,0
41914,319.148936170213,4,2,1,70,1,0
42073,340.909090909091,4,2,1,70,1,0
42413,327.868852459016,4,2,1,80,1,0
42413,-100,4,2,1,80,0,0
48970,327.868852459016,4,2,1,90,1,1
48970,-100,4,2,1,90,0,1
69953,-100,4,2,1,90,0,1
70281,317.460317460317,4,2,1,90,1,1
70439,340.909090909091,4,2,1,90,1,1
70779,312.5,4,2,1,90,1,1
70935,331.491712707182,4,2,1,90,1,1
71266,329.67032967033,4,2,1,90,1,1
73079,322.58064516129,4,2,1,90,1,1
73562,333.333333333333,4,2,1,90,1,1
73895,324.324324324324,4,2,1,90,1,1
76489,327.868852459016,4,2,1,90,1,0
76489,-100,4,2,1,90,0,0
77472,342.857142857143,4,2,1,90,1,0
77472,-100,4,2,1,90,0,0
77814,327.868852459016,4,2,1,90,1,1
77814,-100,4,2,1,90,0,1
78305,342.857142857143,4,2,1,90,1,1
78305,-97.0873786407767,4,2,1,90,0,1
78476,322.58064516129,4,2,1,90,1,1
78959,327.868852459016,4,2,1,90,1,1
79122,327.868852459016,4,2,1,90,1,1
87974,-97.0873786407767,4,2,1,90,0,0

[Colours]
Combo1 : 241,117,75
Combo2 : 245,242,118
Combo3 : 122,147,245
Combo4 : 245,112,112

[HitObjects]
389,361,1758,6,0,L|400:241,1,120,2|0,0:0|0:0,0:0:0:0:
308,296,2249,1,2,0:0:0:0:
308,296,2413,2,0,L|296:176,1,120,2|2,0:0|0:0,0:0:0:0:
322,96,2905,1,0,0:0:0:0:
322,96,3069,2,0,P|280:137|221:145,1,120,2|0,0:0|0:0,0:0:0:0:
145,107,3561,1,2,0:0:0:0:
120,273,3889,1,2,0:0:0:0:
59,116,4217,1,2,0:0:0:0:
59,116,4380,6,0,L|44:235,1,120,2|0,0:0|0:0,0:0:0:0:
120,273,4879,1,2,0:0:0:0:
279,219,5213,1,2,0:0:0:0:
427,297,5546,1,2,0:0:0:0:
427,297,5713,2,0,P|408:241|414:182,1,120,2|0,0:0|0:0,0:0:0:0:
271,90,6361,2,0,P|310:45|364:20,1,120,2|0,0:0|0:0,0:0:0:0:
312,180,7004,6,0,P|225:177|169:110,1,180,4|0,1:2|1:0,0:0:0:0:
138,138,7577,1,0,1:0:0:0:
138,138,7659,2,0,P|130:109|131:79,1,60,8|0,0:0|1:0,0:0:0:0:
46,74,7987,2,0,P|53:45|69:19,1,60,8|4,3:0|3:0,0:0:0:0:
151,0,8315,1,8,0:0:0:0:
147,177,9617,6,0,L|149:147,3,30,8|8|8|8,3:2|3:2|3:0|3:0,0:0:0:0:
187,163,9939,2,0,L|190:134,3,30,4|4|4|8,3:0|3:0|3:0|3:0,0:0:0:0:
218,190,10262,2,0,P|283:244|260:326,1,180,10|0,0:0|0:0,0:0:0:0:
176,323,10939,6,0,L|180:263,1,60,6|0,0:0|0:0,0:0:0:0:
218,190,11266,2,0,P|224:132|267:91,1,120,10|8,0:0|0:0,0:0:0:0:
349,98,11758,2,0,P|378:96|407:87,1,60,2|8,1:2|0:0,0:0:0:0:
451,15,12086,1,0,1:0:0:0:
429,96,12250,6,0,L|441:215,1,120,10|8,0:0|0:0,0:0:0:0:
510,265,12742,2,0,P|452:259|416:304,1,120,2|0,1:2|1:0,0:0:0:0:
351,358,13234,1,10,0:0:0:0:
268,342,13398,1,0,1:0:0:0:
234,264,13561,6,0,P|262:257|292:262,1,60,10|0,0:0|0:0,0:0:0:0:
342,193,13889,2,0,L|335:133,1,60,10|0,0:0|1:0,0:0:0:0:
276,73,14217,1,8,3:0:0:0:
194,89,14381,1,4,3:0:0:0:
148,159,14545,1,8,3:2:0:0:
169,238,14709,6,0,P|133:192|76:176,1,120,6|2,0:0|1:2,0:0:0:0:
4,221,15201,2,0,L|7:280,1,60,10|0,0:0|1:0,0:0:0:0:
82,318,15529,1,10,0:0:0:0:
155,277,15693,2,0,L|184:281,2,30,8|8|8,3:0|3:0|3:2,0:0:0:0:
226,274,15938,2,0,L|255:278,3,30,4|4|4|4,3:0|3:0|3:0|3:2,0:0:0:0:
85,48,26676,5,4,1:2:0:0:
178,29,27004,1,0,1:0:0:0:
270,55,27332,1,0,1:0:0:0:
328,131,27660,1,2,1:2:0:0:
366,102,27824,1,2,0:0:0:0:
413,103,27988,6,0,L|405:222,1,120,2|2,1:2|1:2,0:0:0:0:
309,212,28643,2,0,L|316:331,1,120,0|0,1:0|1:0,0:0:0:0:
223,305,29299,5,0,1:0:0:0:
131,334,29627,1,2,1:2:0:0:
42,297,29955,1,0,1:0:0:0:
10,206,30283,1,2,1:2:0:0:
42,114,30611,6,0,P|52:86|68:61,1,60,2|0,1:2|0:0,0:0:0:0:
143,70,30938,2,0,P|153:98|169:123,1,60,2|0,1:2|0:0,0:0:0:0:
244,132,31266,2,0,P|187:146|153:194,1,120,2|0,1:2|1:0,0:0:0:0:
195,280,31922,6,0,L|315:271,1,120,0|0,1:0|1:0,0:0:0:0:
365,330,32414,1,2,0:0:0:0:
365,330,32578,2,0,L|356:210,1,120,2|0,1:2|1:0,0:0:0:0:
407,128,33234,6,0,P|379:115|350:111,1,60,2|0,1:2|0:0,0:0:0:0:
321,44,33561,2,0,P|296:61|278:84,1,60,2|0,1:2|0:0,0:0:0:0:
205,73,33889,2,0,P|207:102|219:130,1,60,2|0,1:2|0:0,0:0:0:0:
230,207,34217,1,0,1:0:0:0:
302,245,34381,1,2,0:0:0:0:
302,245,34545,6,0,P|253:211|194:211,1,120,2|0,1:2|1:0,0:0:0:0:
102,299,35201,1,0,1:0:0:0:
217,339,35529,1,2,1:2:0:0:
194,211,35857,5,0,1:0:0:0:
194,211,36361,1,2,1:2:0:0:
194,211,36503,2,0,P|222:220|251:218,1,60,10|0,0:0|1:0,0:0:0:0:
322,173,36845,2,0,P|341:195|368:208,1,60,8|0,3:0|0:0,0:0:0:0:
411,280,37172,6,0,P|405:221|441:174,1,120,4|0,0:0|0:0,0:0:0:0:
439,90,37661,1,0,1:0:0:0:
375,35,37824,2,0,L|255:25,1,120,2|10,0:0|0:0,0:0:0:0:
93,72,38476,6,0,P|133:114|137:173,1,120,2|0,1:2|0:0,0:0:0:0:
75,231,38967,1,0,1:0:0:0:
51,150,39131,1,2,0:0:0:0:
213,108,39459,1,10,0:0:0:0:
359,192,39787,6,0,P|334:245|338:305,1,120,2|0,1:2|0:0,0:0:0:0:
281,367,40279,2,0,P|284:307|259:253,1,120,2|2,1:2|1:2,0:0:0:0:
178,230,40758,1,14,0:0:0:0:
18,283,41095,5,2,1:2:0:0:
101,293,41257,2,0,L|92:173,1,120,8|0,3:0|1:0,0:0:0:0:
143,107,41745,2,0,L|139:47,1,60,2|0,0:0|1:0,0:0:0:0:
61,13,42073,1,8,0:0:0:0:
92,172,42413,6,0,P|135:132|193:127,1,120,4|8,0:0|1:2,0:0:0:0:
261,177,42904,1,2,0:0:0:0:
343,194,43068,2,0,P|369:179|389:157,1,60,0|2,1:0|0:0,0:0:0:0:
472,175,43396,2,0,P|472:145|464:116,1,60,0|2,1:0|0:0,0:0:0:0:
389,157,43724,6,0,L|380:276,1,120,0|0,1:0|1:0,0:0:0:0:
236,364,44380,1,2,1:2:0:0:
271,243,44626,1,2,0:0:0:0:
322,358,44872,1,2,0:0:0:0:
236,364,45035,6,0,P|186:334|126:332,1,120,2|0,1:2|1:0,0:0:0:0:
102,166,45691,1,2,1:2:0:0:
164,56,45937,1,2,0:0:0:0:
187,179,46183,1,2,0:0:0:0:
255,129,46347,6,0,P|284:132|312:142,1,60,2|8,1:2|0:0,0:0:0:0:
346,116,46593,1,10,0:0:0:0:
346,116,46675,2,0,P|352:145|351:175,1,60,2|8,1:2|0:0,0:0:0:0:
408,236,47003,2,0,P|382:251|353:259,1,60,2|8,1:2|0:0,0:0:0:0:
321,287,47249,1,10,0:0:0:0:
321,287,47331,1,2,1:2:0:0:
264,217,47494,1,2,0:0:0:0:
346,116,47658,5,2,1:2:0:0:
460,175,47822,1,2,1:2:0:0:
317,281,48970,6,0,P|265:254|206:261,1,120,4|8,0:0|0:0,0:0:0:0:
135,305,49461,1,2,0:0:0:0:
69,252,49625,2,0,L|74:192,1,60,0|2,1:0|0:0,0:0:0:0:
146,148,49953,1,8,0:0:0:0:
228,165,50117,1,2,0:0:0:0:
299,120,50281,6,0,P|310:62|292:6,1,120,0|8,1:0|0:0,0:0:0:0:
217,46,50773,2,0,L|157:41,1,60,2|0,0:0|1:0,0:0:0:0:
82,1,51101,2,0,L|77:61,1,60,2|8,0:0|0:0,0:0:0:0:
32,132,51429,1,2,0:0:0:0:
49,214,51592,6,0,P|107:204|147:161,1,120,0|8,1:0|0:0,0:0:0:0:
224,195,52084,2,0,L|230:254,1,60,2|0,0:0|1:0,0:0:0:0:
311,229,52412,2,0,L|317:169,1,60,2|8,0:0|0:0,0:0:0:0:
401,177,52740,1,2,0:0:0:0:
454,242,52904,6,0,P|450:271|441:300,1,60,0|2,1:0|0:0,0:0:0:0:
428,383,53232,1,8,0:0:0:0:
347,360,53396,2,0,L|287:367,1,60,2|0,0:0|1:0,0:0:0:0:
208,337,53724,2,0,P|149:328|97:355,1,120,2|2,0:0|0:0,0:0:0:0:
34,299,54215,6,0,L|28:239,1,60,4|2,1:2|0:0,0:0:0:0:
73,168,54543,2,0,L|78:108,1,60,8|2,0:0|0:0,0:0:0:0:
156,142,54871,2,0,P|215:142|264:109,1,120,0|8,1:0|0:0,0:0:0:0:
310,38,55363,1,2,0:0:0:0:
389,65,55527,6,0,L|395:124,1,60,0|2,1:0|0:0,0:0:0:0:
434,199,55855,2,0,L|374:205,1,60,8|2,0:0|0:0,0:0:0:0:
302,249,56183,2,0,P|360:245|410:277,1,120,0|8,1:0|0:0,0:0:0:0:
419,358,56674,1,2,0:0:0:0:
336,383,56838,6,0,P|333:354|340:325,1,60,0|2,1:0|0:0,0:0:0:0:
302,249,57166,2,0,P|283:225|275:196,1,60,8|2,0:0|0:0,0:0:0:0:
194,172,57494,2,0,P|185:200|167:224,1,60,0|8,1:0|0:0,0:0:0:0:
128,242,57740,1,10,0:0:0:0:
128,242,57822,1,10,1:2:0:0:
57,195,57986,1,10,0:0:0:0:
63,111,58150,5,4,0:0:0:0:
182,69,58396,1,4,0:0:0:0:
269,157,58642,2,0,L|284:275,1,120,4|0,0:0|1:0,0:0:0:0:
213,320,59133,1,8,0:0:0:0:
373,272,59461,6,0,P|412:315|413:374,1,120,4|8,0:0|0:0,0:0:0:0:
334,344,59953,1,2,0:0:0:0:
283,274,60117,2,0,P|286:245|299:218,1,60,0|2,1:0|0:0,0:0:0:0:
373,272,60445,1,8,0:0:0:0:
451,239,60609,1,2,0:0:0:0:
467,156,60773,6,0,L|348:139,1,120,0|8,1:0|0:0,0:0:0:0:
283,85,61265,2,0,P|253:84|223:88,1,60,2|0,0:0|1:0,0:0:0:0:
163,30,61592,2,0,P|147:55|136:83,1,60,2|8,0:0|0:0,0:0:0:0:
140,167,61920,1,2,0:0:0:0:
82,228,62084,6,0,L|90:287,1,60,0|2,1:0|0:0,0:0:0:0:
171,311,62412,2,0,L|179:251,1,60,8|2,0:0|0:0,0:0:0:0:
236,189,62740,2,0,P|293:200|332:244,1,120,0|8,1:0|0:0,0:0:0:0:
469,343,63396,6,0,L|462:223,1,120,2|8,1:2|0:0,0:0:0:0:
398,168,63888,2,0,L|404:48,1,120,2|2,0:0|0:0,0:0:0:0:
479,10,64379,1,8,0:0:0:0:
320,68,64707,6,0,P|291:64|264:51,1,60,4|2,1:2|0:0,0:0:0:0:
193,98,65035,2,0,P|182:70|179:40,1,60,8|2,0:0|0:0,0:0:0:0:
98,66,65363,2,0,L|89:185,1,120,0|8,1:0|0:0,0:0:0:0:
52,261,65855,1,2,0:0:0:0:
105,325,66019,6,0,P|134:322|162:311,1,60,0|2,1:0|0:0,0:0:0:0:
228,364,66347,2,0,P|241:337|244:307,1,60,8|2,0:0|0:0,0:0:0:0:
328,320,66674,2,0,P|282:282|269:224,1,120,0|8,1:0|0:0,0:0:0:0:
279,141,67166,1,2,0:0:0:0:
353,101,67330,6,0,L|412:96,1,60,0|2,1:0|0:0,0:0:0:0:
451,171,67658,2,0,L|391:175,1,60,8|2,0:0|0:0,0:0:0:0:
391,259,67986,2,0,P|406:284|413:313,1,60,0|2,1:0|0:0,0:0:0:0:
350,374,68314,2,0,P|334:348|327:319,1,60,8|2,0:0|0:0,0:0:0:0:
249,283,68642,6,0,P|200:314|141:309,1,120,0|8,1:0|0:0,0:0:0:0:
78,252,69133,1,10,0:0:0:0:
110,174,69297,2,0,L|102:114,1,60,0|10,1:0|0:0,0:0:0:0:
183,91,69625,1,10,0:0:0:0:
268,131,69789,1,10,0:0:0:0:
268,131,69871,1,8,0:0:0:0:
268,131,69953,6,0,L|253:250,1,120,4|8,0:0|0:0,0:0:0:0:
174,281,70439,2,0,P|231:290|265:337,1,120,2|0,1:2|1:0,0:0:0:0:
346,311,70935,1,8,0:0:0:0:
508,355,71266,6,0,L|501:295,1,60,2|0,1:2|1:0,0:0:0:0:
436,240,71595,1,8,0:0:0:0:
373,184,71760,2,0,P|407:139|459:161,1,120,2|0,1:2|1:0,0:0:0:0:
436,240,72255,1,8,0:0:0:0:
306,132,72584,6,0,L|186:140,1,120,2|8,1:2|0:0,0:0:0:0:
134,207,73079,2,0,L|125:87,1,120,2|0,1:2|1:0,0:0:0:0:
195,39,73562,1,8,0:0:0:0:
276,59,73728,1,0,0:0:0:0:
306,132,73895,6,0,P|306:162|301:191,1,60,2|0,1:2|1:0,0:0:0:0:
361,251,74219,2,0,P|335:266|307:276,1,60,10|0,0:0|1:0,0:0:0:0:
259,345,74543,2,0,P|233:329|205:319,1,60,10|0,0:0|1:0,0:0:0:0:
120,325,74867,1,10,0:0:0:0:
48,280,75030,1,2,1:2:0:0:
90,207,75192,6,0,L|88:147,1,60,2|0,1:2|1:0,0:0:0:0:
169,170,75516,2,0,L|167:110,1,60,0|10,1:0|0:0,0:0:0:0:
242,71,75840,1,0,1:0:0:0:
323,90,76003,1,0,1:0:0:0:
391,139,76165,1,8,3:0:0:0:
471,114,76327,1,4,3:0:0:0:
508,37,76489,6,0,P|451:105|451:194,1,180,4|0,0:0|0:0,0:0:0:0:
350,328,77308,1,0,1:0:0:0:
418,279,77472,2,0,P|429:306|432:336,1,60,8|0,0:0|0:0,0:0:0:0:
350,328,77814,6,0,L|290:322,1,60,6|0,0:0|1:0,0:0:0:0:
215,362,78141,1,8,0:0:0:0:
131,342,78305,2,0,P|163:294|220:277,1,120,2|0,0:0|1:0,0:0:0:0:
296,235,78798,2,0,L|292:175,1,60,10|0,0:0|1:0,0:0:0:0:
302,92,79122,5,2,1:2:0:0:
239,37,79285,2,0,P|198:79|139:87,1,120,2|0,1:2|0:0,0:0:0:0:
84,151,79777,2,0,L|88:210,1,60,2|0,1:2|1:0,0:0:0:0:
166,244,80105,2,0,L|170:184,1,60,10|0,0:0|1:0,0:0:0:0:
244,145,80433,6,0,P|273:152|302:148,1,60,2|0,1:2|1:0,0:0:0:0:
378,112,80761,1,8,0:0:0:0:
437,171,80925,2,0,L|439:230,1,60,2|0,1:2|1:0,0:0:0:0:
362,267,81253,2,0,L|359:207,1,60,2|8,1:2|0:0,0:0:0:0:
301,147,81581,6,0,P|246:166|215:216,1,120,2|2,1:2|1:2,0:0:0:0:
130,216,82072,2,0,P|136:245|150:271,1,60,8|0,0:0|1:0,0:0:0:0:
215,216,82400,2,0,L|221:156,1,60,10|8,0:0|0:0,0:0:0:0:
170,92,82728,1,2,1:2:0:0:
248,51,82892,1,8,0:0:0:0:
248,51,82974,1,8,0:0:0:0:
248,51,83056,6,0,P|307:51|358:21,1,120,6|8,0:0|0:0,0:0:0:0:
413,85,83548,2,0,L|401:204,1,120,2|0,0:0|0:0,0:0:0:0:
330,249,84040,2,0,L|318:129,1,120,10|0,0:0|1:0,0:0:0:0:
245,170,84531,6,0,P|185:170|134:140,1,120,2|0,0:0|0:0,0:0:0:0:
53,165,85023,2,0,P|49:135|55:105,1,60,2|0,1:2|0:0,0:0:0:0:
134,140,85351,2,0,P|137:169|131:199,1,60,10|0,0:0|0:0,0:0:0:0:
87,271,85679,6,0,L|79:330,2,60,14|0|0,0:0|1:0|1:0,0:0:0:0:
163,307,86171,2,0,L|222:314,2,60,10|0|8,0:0|1:0|3:0,0:0:0:0:
207,235,86662,2,0,L|266:242,2,60,10|8|8,0:0|3:0|3:0,0:0:0:0:
178,155,87154,5,10,0:0:0:0:
222,83,87318,1,8,3:0:0:0:
305,94,87482,1,4,3:0:0:0:
321,176,87646,5,12,0:0:0:0:
405,163,87810,1,12,0:0:0:0:
488,156,87974,1,12,0:0:0:0:
