osu file format v14

[General]
AudioFilename: optc.mp3
AudioLeadIn: 0
PreviewTime: 47986
Countdown: 0
SampleSet: Soft
StackLeniency: 0.5
Mode: 0
LetterboxInBreaks: 0
WidescreenStoryboard: 1

[Editor]
DistanceSpacing: 1
BeatDivisor: 4
GridSize: 16
TimelineZoom: 2.4

[Metadata]
Title:RESISTER (TV Size)
TitleUnicode:RESISTER (TV Size)
Artist:ASCA
ArtistUnicode:ASCA
Creator:Rizen
Version:Extra
Source:ソードアート・オンライン アリシゼーション
Tags:Sword Art Online Alicization Season 3 SAO Opening 2 OP2 Shad0w1and japanese anime
BeatmapID:1898677
BeatmapSetID:909740

[Difficulty]
HPDrainRate:7
CircleSize:4.3
OverallDifficulty:8
ApproachRate:9.2
SliderMultiplier:1.8
SliderTickRate:1

[Events]
//Background and Video events
Video,0,"optc.flv"
0,0,"BG0.jpg",0,0
//Break Periods
2,16384,26020
//Storyboard Layer 0 (Background)
//Storyboard Layer 1 (Fail)
//Storyboard Layer 2 (Pass)
//Storyboard Layer 3 (Foreground)
//Storyboard Layer 4 (Overlay)
//Storyboard Sound Samples

[TimingPoints]
938,342.857142857143,4,2,1,50,1,0
1452,306.122448979592,4,2,1,50,1,0
1758,327.868852459016,4,2,1,70,1,0
1758,-133.333333333333,4,2,1,70,0,0
4380,333.333333333333,4,2,1,70,1,0
4380,-133.333333333333,4,2,1,70,0,0
5713,324.324324324324,4,2,1,70,1,0
5713,-133.333333333333,4,2,1,70,0,0
6685,319.148936170213,4,2,1,70,1,0
7004,327.868852459016,4,2,1,80,1,0
7004,-100,4,2,1,80,0,0
9463,309.278350515464,4,2,1,60,1,0
9617,322.58064516129,4,2,1,80,1,0
10262,338.983050847458,4,2,1,80,1,0
10262,-200,4,2,1,80,0,0
10857,-200,4,2,1,5,0,0
10939,327.868852459016,4,2,1,80,1,0
10939,-100,4,2,1,80,0,0
16184,-100,4,2,1,30,0,0
26676,-133.333333333333,4,2,1,60,0,0
35856,337.078651685393,4,2,1,70,1,0
36361,285.714285714286,4,2,1,70,1,0
36503,342.857142857143,4,2,1,70,1,0
36503,-133.333333333333,4,2,1,70,0,0
36845,327.868852459016,4,2,1,70,1,0
36845,-133.333333333333,4,2,1,70,0,0
37172,326.086956521739,4,2,1,70,1,0
37172,-133.333333333333,4,2,1,70,0,0
37987,312.5,4,2,1,70,1,0
38143,333.333333333333,4,2,1,70,1,0
38476,327.868852459016,4,2,1,70,1,0
38476,-133.333333333333,4,2,1,70,0,0
40607,303.030303030303,4,2,1,70,1,0
40758,337.078651685393,4,2,1,70,1,0
41095,324.324324324324,4,2,1,70,1,0
41257,320.855614973262,4,2,1,70,1,0
41417,-133.333333333333,4,2,1,70,0,0
41577,337.078651685393,4,2,1,70,1,0
41914,319.148936170213,4,2,1,70,1,0
42073,340.909090909091,4,2,1,70,1,0
42073,-133.333333333333,4,2,1,70,0,0
42413,327.868852459016,4,2,1,80,1,0
42413,-100,4,2,1,80,0,0
48970,327.868852459016,4,2,1,90,1,1
48970,-83.3333333333333,4,2,1,90,0,1
69953,-100,4,2,1,90,0,1
70281,317.460317460317,4,2,1,90,1,1
70439,340.909090909091,4,2,1,90,1,1
70779,312.5,4,2,1,90,1,1
70935,331.491712707182,4,2,1,90,1,1
71266,329.67032967033,4,2,1,90,1,1
73079,322.58064516129,4,2,1,90,1,1
73562,333.333333333333,4,2,1,90,1,1
73895,324.324324324324,4,2,1,90,1,1
76489,327.868852459016,4,2,1,90,1,0
76489,-200,4,2,1,90,0,0
77472,342.857142857143,4,2,1,90,1,0
77472,-100,4,2,1,90,0,0
77814,327.868852459016,4,2,1,90,1,1
77814,-100,4,2,1,90,0,1
78305,342.857142857143,4,2,1,90,1,1
78305,-97.0873786407767,4,2,1,90,0,1
78476,322.58064516129,4,2,1,90,1,1
78959,327.868852459016,4,2,1,90,1,1
79122,327.868852459016,4,2,1,90,1,1
87974,-133.333333333333,4,2,1,90,0,0

[Colours]
Combo1 : 241,117,75
Combo2 : 245,242,118
Combo3 : 122,147,245
Combo4 : 245,112,112

[HitObjects]
120,384,1758,6,0,L|130:249,1,135.000005149842,2|0,0:0|0:0,0:0:0:0:
182,178,2249,1,0,0:0:0:0:
265,337,2413,1,2,0:0:0:0:
305,267,2577,2,0,L|297:199,1,67.5000025749208,0|2,0:0|0:0,0:0:0:0:
342,123,2905,1,0,0:0:0:0:
287,13,3069,6,0,P|319:4|353:4,1,67.5000025749208,2|0,0:0|0:0,0:0:0:0:
434,40,3397,1,0,0:0:0:0:
342,123,3561,2,0,P|309:114|275:114,1,67.5000025749208,2|0,0:0|0:0,0:0:0:0:
130,58,3889,2,0,L|196:48,1,67.5000025749208,2|0,0:0|0:0,0:0:0:0:
275,113,4217,1,2,0:0:0:0:
161,241,4380,6,0,P|136:218|123:187,1,67.5000025749208,2|0,0:0|0:0,0:0:0:0:
205,167,4713,1,0,0:0:0:0:
317,261,4879,2,0,L|313:328,1,67.5000025749208,2|0,0:0|0:0,0:0:0:0:
409,300,5213,2,0,L|405:232,1,67.5000025749208,2|0,0:0|0:0,0:0:0:0:
292,180,5546,1,2,0:0:0:0:
283,314,5713,6,0,L|291:179,1,135.000005149842,2|0,0:0|0:0,0:0:0:0:
163,283,6361,2,0,L|154:148,1,135.000005149842,2|0,0:0|0:0,0:0:0:0:
374,114,7004,6,0,P|301:149|266:76,1,180,4|0,1:2|0:0,0:0:0:0:
465,69,7495,1,0,1:0:0:0:
465,69,7577,1,0,1:0:0:0:
465,69,7659,2,0,P|474:112|462:155,1,90,8|0,0:0|1:0,0:0:0:0:
189,257,7987,1,8,3:0:0:0:
374,114,8151,1,4,3:0:0:0:
475,384,8315,5,8,0:0:0:0:
366,238,9617,5,8,3:2:0:0:
327,214,9697,1,8,3:0:0:0:
282,205,9778,1,8,3:0:0:0:
241,224,9858,1,8,3:0:0:0:
211,257,9939,1,4,3:0:0:0:
169,273,10020,1,4,3:0:0:0:
124,263,10100,1,4,3:0:0:0:
94,229,10181,1,4,3:0:0:0:
79,240,10262,6,0,L|94:83,1,157.5,10|0,0:0|0:0,0:0:0:0:
127,3,10939,5,6,0:0:0:0:
7,116,11102,1,0,0:0:0:0:
168,159,11266,2,0,L|176:69,1,90,10|0,0:0|0:0,0:0:0:0:
359,26,11594,1,8,0:0:0:0:
316,200,11758,2,0,P|292:161|288:117,1,90,2|8,1:2|0:0,0:0:0:0:
422,199,12086,1,0,1:0:0:0:
272,279,12250,6,0,L|182:273,1,90,10|0,0:0|0:0,0:0:0:0:
316,200,12578,1,8,0:0:0:0:
100,304,12742,1,2,1:2:0:0:
100,304,12824,1,0,1:0:0:0:
100,304,12906,2,0,P|95:259|112:218,1,90,8|0,0:0|1:0,0:0:0:0:
207,106,13234,1,10,0:0:0:0:
225,195,13398,1,0,1:0:0:0:
63,95,13561,5,10,0:0:0:0:
217,69,13725,1,0,0:0:0:0:
303,242,13889,2,0,L|213:231,1,90,10|0,0:0|1:0,0:0:0:0:
343,85,14217,1,8,3:0:0:0:
249,328,14381,1,4,3:0:0:0:
217,69,14545,1,8,3:2:0:0:
472,159,14709,6,0,P|473:203|459:246,1,90,6|0,0:0|0:0,0:0:0:0:
249,328,15037,1,2,1:2:0:0:
378,188,15201,1,10,0:0:0:0:
410,371,15365,1,0,1:0:0:0:
410,371,15447,1,0,1:0:0:0:
410,371,15529,1,10,0:0:0:0:
274,186,15693,1,8,3:0:0:0:
285,142,15775,1,8,3:0:0:0:
315,108,15857,1,8,3:2:0:0:
357,92,15938,1,8,3:0:0:0:
401,94,16020,1,4,3:0:0:0:
440,115,16102,1,4,3:0:0:0:
464,152,16184,1,4,3:2:0:0:
90,82,26676,5,4,1:2:0:0:
100,184,27004,1,0,1:0:0:0:
182,237,27332,1,0,1:0:0:0:
258,106,27660,1,2,1:2:0:0:
354,144,27824,1,2,0:0:0:0:
448,108,27988,6,0,L|439:41,1,67.5000025749208,2|0,1:2|0:0,0:0:0:0:
354,144,28316,2,0,L|362:76,1,67.5000025749208,2|0,1:2|0:0,0:0:0:0:
258,106,28643,1,0,1:0:0:0:
354,144,28971,1,0,1:0:0:0:
393,234,29299,5,0,1:0:0:0:
292,360,29627,2,0,P|270:334|261:301,1,67.5000025749208,2|2,1:2|0:0,0:0:0:0:
234,210,29955,2,0,P|267:203|300:212,1,67.5000025749208,0|2,1:0|0:0,0:0:0:0:
393,233,30283,2,0,P|380:265|356:288,1,67.5000025749208,2|0,1:2|0:0,0:0:0:0:
261,301,30611,6,0,L|193:294,1,67.5000025749208,2|0,1:2|0:0,0:0:0:0:
56,354,30938,2,0,L|123:347,1,67.5000025749208,2|0,1:2|0:0,0:0:0:0:
20,220,31266,1,2,1:2:0:0:
123,195,31594,1,0,1:0:0:0:
261,301,31922,5,0,1:0:0:0:
343,245,32250,2,0,P|343:212|331:181,1,67.5000025749208,0|2,1:0|0:0,0:0:0:0:
249,133,32578,2,0,P|236:164|237:197,1,67.5000025749208,2|0,1:2|0:0,0:0:0:0:
331,181,32906,1,0,1:0:0:0:
473,300,33234,6,0,L|403:294,1,67.5000025749208,2|0,1:2|0:0,0:0:0:0:
322,348,33561,2,0,L|252:354,1,67.5000025749208,2|0,1:2|0:0,0:0:0:0:
164,264,33889,2,0,P|173:202|236:197,1,135.000005149842,2|0,1:2|1:0,0:0:0:0:
242,322,34381,1,2,0:0:0:0:
63,310,34545,6,0,P|52:278|52:244,1,67.5000025749208,2|0,1:2|0:0,0:0:0:0:
159,156,34873,2,0,P|181:130|210:114,1,67.5000025749208,0|2,1:0|0:0,0:0:0:0:
423,160,35201,2,0,L|355:156,1,67.5000025749208,0|0,1:0|0:0,0:0:0:0:
248,34,35529,2,0,L|180:30,1,67.5000025749208,2|0,1:2|0:0,0:0:0:0:
44,95,35857,1,0,1:0:0:0:
44,95,36361,5,2,1:2:0:0:
209,114,36503,2,0,P|211:147|203:180,1,67.5000025749208,10|0,0:0|1:0,0:0:0:0:
38,161,36845,2,0,P|35:127|43:94,1,67.5000025749208,8|0,3:0|0:0,0:0:0:0:
114,243,37172,5,4,0:0:0:0:
114,243,37661,1,0,1:0:0:0:
210,296,37824,2,0,P|243:293|271:275,1,67.5000025749208,2|0,0:0|0:0,0:0:0:0:
342,141,38143,1,10,0:0:0:0:
376,234,38309,1,0,0:0:0:0:
476,267,38476,6,0,P|409:267|360:311,1,135.000005149842,2|0,1:2|0:0,0:0:0:0:
450,357,38967,1,0,1:0:0:0:
270,273,39131,2,0,P|262:306|265:339,1,67.5000025749208,2|0,0:0|0:0,0:0:0:0:
233,110,39459,2,0,P|237:143|229:176,1,67.5000025749208,10|0,0:0|0:0,0:0:0:0:
78,237,39787,6,0,P|95:173|150:137,1,135.000005149842,2|0,1:2|0:0,0:0:0:0:
359,38,40279,2,0,L|291:32,1,67.5000025749208,2|0,1:2|0:0,0:0:0:0:
89,51,40607,1,2,1:2:0:0:
150,136,40758,1,14,0:0:0:0:
246,125,40926,1,0,0:0:0:0:
209,265,41095,5,2,1:2:0:0:
312,254,41257,1,8,3:0:0:0:
372,178,41417,2,0,P|387:148|391:114,1,67.5000025749208,0|0,0:0|1:0,0:0:0:0:
480,315,41745,1,2,0:0:0:0:
471,205,41914,1,0,1:0:0:0:
374,350,42073,2,0,L|306:344,1,67.5000025749208,8|0,0:0|0:0,0:0:0:0:
94,359,42413,6,0,L|103:269,1,90,4|0,0:0|0:0,0:0:0:0:
72,97,42740,1,8,1:2:0:0:
25,225,42904,1,2,0:0:0:0:
193,108,43068,1,0,1:0:0:0:
223,249,43232,1,2,0:0:0:0:
300,47,43396,1,0,1:0:0:0:
397,157,43560,1,2,0:0:0:0:
223,248,43724,6,0,P|263:229|307:226,1,90,0|0,1:0|0:0,0:0:0:0:
431,368,44052,1,0,1:0:0:0:
289,312,44216,1,0,0:0:0:0:
136,356,44380,2,0,P|91:353|51:333,1,90,2|0,1:2|0:0,0:0:0:0:
23,261,44626,2,0,L|30:171,1,90,2|0,0:0|0:0,0:0:0:0:
74,105,44872,2,0,L|69:60,1,45,2|0,0:0|0:0,0:0:0:0:
150,124,45035,6,0,P|194:121|234:101,1,90,2|0,1:2|0:0,0:0:0:0:
446,0,45363,1,0,1:0:0:0:
332,103,45527,1,0,0:0:0:0:
343,257,45691,2,0,P|354:300|378:337,1,90,2|0,1:2|0:0,0:0:0:0:
430,266,45937,2,0,P|386:254|342:256,1,90,2|0,0:0|0:0,0:0:0:0:
263,283,46183,2,0,L|218:279,1,45,2|0,0:0|0:0,0:0:0:0:
136,300,46347,5,2,1:2:0:0:
135,254,46429,1,8,0:0:0:0:
157,214,46511,1,8,0:0:0:0:
198,196,46593,1,10,0:0:0:0:
241,185,46675,1,2,1:2:0:0:
277,159,46757,1,8,0:0:0:0:
294,117,46839,1,8,0:0:0:0:
291,72,46921,1,8,0:0:0:0:
272,31,47003,5,2,1:2:0:0:
270,76,47085,1,8,0:0:0:0:
292,115,47167,1,8,0:0:0:0:
329,140,47249,1,10,0:0:0:0:
367,151,47331,2,0,P|389:149|410:142,1,45,2|0,1:2|0:0,0:0:0:0:
488,191,47494,2,0,P|497:170|502:148,1,45,2|0,0:0|0:0,0:0:0:0:
366,54,47658,1,2,1:2:0:0:
431,337,47822,1,2,1:2:0:0:
431,337,48970,6,0,B|314:381|333:288|222:337,1,215.999993408203,4|8,0:0|0:0,0:0:0:0:
376,257,49461,1,2,0:0:0:0:
209,149,49625,2,0,P|185:197|181:250,1,107.999996704102,0|2,1:0|0:0,0:0:0:0:
338,147,49953,1,8,0:0:0:0:
165,75,50117,1,2,0:0:0:0:
22,205,50281,6,0,P|126:214|209:149,1,215.999993408203,0|8,1:0|0:0,0:0:0:0:
258,338,50773,2,0,P|275:287|277:233,1,107.999996704102,2|0,0:0|1:0,0:0:0:0:
419,320,51101,2,0,P|408:267|383:219,1,107.999996704102,2|8,0:0|0:0,0:0:0:0:
354,27,51429,1,2,0:0:0:0:
277,233,51592,6,0,L|384:220,1,107.999996704102,0|0,1:0|0:0,0:0:0:0:
428,118,51920,1,8,0:0:0:0:
252,48,52084,2,0,P|220:92|216:145,1,107.999996704102,2|0,0:0|1:0,0:0:0:0:
36,31,52412,2,0,L|143:18,1,107.999996704102,2|8,0:0|0:0,0:0:0:0:
299,119,52740,1,2,0:0:0:0:
466,44,52904,5,0,1:0:0:0:
423,220,53068,2,0,P|410:168|427:117,1,107.999996704102,2|8,0:0|0:0,0:0:0:0:
335,276,53396,2,0,P|289:248|265:200,1,107.999996704102,2|0,0:0|1:0,0:0:0:0:
308,383,53724,2,0,P|340:294|422:342,1,215.999993408203,2|2,0:0|0:0,0:0:0:0:
209,290,54215,5,4,1:2:0:0:
86,313,54379,1,2,0:0:0:0:
27,167,54543,1,8,0:0:0:0:
175,187,54707,1,2,0:0:0:0:
237,68,54871,1,0,1:0:0:0:
10,29,55035,2,0,P|57:4|111:5,1,107.999996704102,0|8,0:0|0:0,0:0:0:0:
237,68,55363,1,2,0:0:0:0:
387,38,55527,5,0,1:0:0:0:
364,172,55691,1,2,0:0:0:0:
186,197,55855,1,8,0:0:0:0:
333,163,56019,1,2,0:0:0:0:
432,315,56183,1,0,1:0:0:0:
268,290,56347,2,0,L|262:182,1,107.999996704102,0|8,0:0|0:0,0:0:0:0:
237,68,56674,1,2,0:0:0:0:
56,99,56838,6,0,P|99:131|151:144,1,107.999996704102,0|2,1:0|0:0,0:0:0:0:
354,230,57166,2,0,P|317:268|268:290,1,107.999996704102,8|2,0:0|0:0,0:0:0:0:
347,96,57494,1,0,1:0:0:0:
400,105,57576,1,8,0:0:0:0:
443,137,57658,1,8,0:0:0:0:
466,185,57740,1,10,0:0:0:0:
473,238,57822,1,10,1:2:0:0:
457,289,57904,1,8,0:0:0:0:
425,333,57986,1,10,0:0:0:0:
368,352,58068,1,8,0:0:0:0:
314,349,58150,6,0,L|319:295,1,53.9999983520508,4|0,0:0|0:0,0:0:0:0:
175,195,58396,2,0,L|180:248,1,53.9999983520508,4|0,0:0|0:0,0:0:0:0:
347,96,58642,2,0,P|278:160|235:77,1,215.999993408203,4|0,0:0|1:0,0:0:0:0:
443,136,59133,2,0,P|447:83|428:33,1,107.999996704102,8|0,0:0|0:0,0:0:0:0:
286,260,59461,6,0,P|386:226|442:136,1,215.999993408203,4|8,0:0|0:0,0:0:0:0:
346,24,59953,1,2,0:0:0:0:
127,63,60117,2,0,L|235:77,1,107.999996704102,0|2,1:0|0:0,0:0:0:0:
80,205,60445,1,8,0:0:0:0:
110,77,60609,1,2,0:0:0:0:
262,280,60773,6,0,L|247:64,1,215.999993408203,0|8,1:0|0:0,0:0:0:0:
479,135,61265,2,0,P|427:151|374:147,1,107.999996704102,2|0,0:0|1:0,0:0:0:0:
262,280,61592,2,0,P|222:243|198:195,1,107.999996704102,2|8,0:0|0:0,0:0:0:0:
261,51,61920,1,2,0:0:0:0:
362,243,62084,5,0,1:0:0:0:
479,135,62248,1,2,0:0:0:0:
198,195,62412,1,8,0:0:0:0:
369,265,62576,1,2,0:0:0:0:
238,80,62740,2,0,P|186:72|134:87,1,107.999996704102,0|0,1:0|0:0,0:0:0:0:
381,285,63068,2,0,P|433:293|485:278,1,107.999996704102,8|0,0:0|0:0,0:0:0:0:
401,48,63396,5,2,1:2:0:0:
250,207,63560,2,0,L|259:99,1,107.999996704102,2|8,0:0|0:0,0:0:0:0:
417,70,63888,2,0,L|426:177,1,107.999996704102,2|0,0:0|0:0,0:0:0:0:
388,308,64215,1,2,0:0:0:0:
153,167,64379,1,8,0:0:0:0:
331,153,64543,1,0,0:0:0:0:
112,333,64707,5,4,1:2:0:0:
38,179,64871,1,2,0:0:0:0:
99,363,65035,1,8,0:0:0:0:
138,200,65199,1,2,0:0:0:0:
0,384,65363,1,0,1:0:0:0:
213,280,65527,2,0,L|320:293,1,107.999996704102,0|8,0:0|0:0,0:0:0:0:
440,243,65855,1,2,0:0:0:0:
257,165,66019,5,0,1:0:0:0:
410,357,66183,1,2,0:0:0:0:
365,144,66347,1,8,0:0:0:0:
288,382,66510,1,2,0:0:0:0:
440,243,66674,1,0,1:0:0:0:
213,280,66838,2,0,L|105:266,1,107.999996704102,0|8,0:0|0:0,0:0:0:0:
0,384,67166,1,2,0:0:0:0:
146,169,67330,6,0,P|93:163|42:180,1,107.999996704102,0|2,1:0|0:0,0:0:0:0:
171,367,67658,2,0,P|224:373|275:356,1,107.999996704102,8|2,0:0|0:0,0:0:0:0:
328,74,67986,2,0,P|274:67|223:84,1,107.999996704102,0|2,1:0|0:0,0:0:0:0:
352,271,68314,2,0,P|405:277|456:260,1,107.999996704102,8|2,0:0|0:0,0:0:0:0:
328,74,68642,5,0,1:0:0:0:
395,184,68806,1,2,0:0:0:0:
452,64,68969,5,8,0:0:0:0:
285,169,69133,1,10,0:0:0:0:
95,125,69297,1,0,1:0:0:0:
140,26,69461,1,10,0:0:0:0:
182,59,69543,1,8,0:0:0:0:
202,109,69625,1,10,0:0:0:0:
193,162,69707,1,8,0:0:0:0:
199,215,69789,1,10,0:0:0:0:
238,251,69871,1,2,1:2:0:0:
282,259,69953,6,0,P|325:249|360:221,1,90,4|0,0:0|0:0,0:0:0:0:
373,74,70281,1,8,0:0:0:0:
494,245,70439,2,0,P|496:200|484:157,1,90,2|0,1:2|0:0,0:0:0:0:
373,74,70779,1,0,1:0:0:0:
193,162,70935,2,0,L|103:152,1,90,8|0,0:0|0:0,0:0:0:0:
27,11,71266,5,2,1:2:0:0:
110,116,71430,1,0,1:0:0:0:
107,250,71595,2,0,P|97:293|76:333,1,90,8|2,0:0|1:2,0:0:0:0:
79,124,71925,1,0,0:0:0:0:
207,287,72090,1,0,1:0:0:0:
278,84,72255,2,0,L|188:72,1,90,8|0,0:0|0:0,0:0:0:0:
415,179,72584,6,0,L|505:167,1,90,2|0,1:2|0:0,0:0:0:0:
395,65,72914,1,8,0:0:0:0:
337,275,73079,2,0,P|307:241|288:201,1,90,2|0,1:2|0:0,0:0:0:0:
235,333,73401,1,0,1:0:0:0:
415,179,73562,1,8,0:0:0:0:
454,363,73728,1,0,0:0:0:0:
287,200,73895,5,2,1:2:0:0:
325,384,74057,1,0,1:0:0:0:
451,84,74219,1,10,0:0:0:0:
434,271,74381,1,0,1:0:0:0:
203,174,74543,1,10,0:0:0:0:
353,132,74705,1,0,1:0:0:0:
196,327,74867,1,10,0:0:0:0:
179,33,75030,1,2,1:2:0:0:
106,280,75192,6,0,L|113:190,1,90,2|0,1:2|1:0,0:0:0:0:
179,33,75516,1,0,1:0:0:0:
322,343,75678,2,0,L|314:253,1,90,10|0,0:0|1:0,0:0:0:0:
173,121,76003,1,0,1:0:0:0:
165,370,76165,1,8,3:0:0:0:
415,226,76327,1,4,3:0:0:0:
112,190,76489,6,0,B|144:217|194:210|194:210|230:245|280:236,1,180,4|0,0:0|0:0,0:0:0:0:
175,122,77308,1,0,1:0:0:0:
175,122,77390,1,0,1:0:0:0:
175,122,77472,2,0,P|160:79|166:35,1,90,8|0,0:0|0:0,0:0:0:0:
402,0,77814,6,0,L|392:89,1,90,6|0,0:0|1:0,0:0:0:0:
450,178,78141,1,8,0:0:0:0:
279,236,78305,2,0,P|364:225|414:295,1,180,2|0,0:0|1:0,0:0:0:0:
241,347,78798,1,10,0:0:0:0:
279,236,78959,1,0,1:0:0:0:
74,188,79122,5,2,1:2:0:0:
93,305,79285,2,0,L|182:294,1,90,2|8,1:2|0:0,0:0:0:0:
279,236,79613,1,0,0:0:0:0:
125,95,79777,2,0,P|82:80|38:86,1,90,2|0,1:2|1:0,0:0:0:0:
304,30,80105,2,0,P|286:71|252:100,1,90,10|0,0:0|1:0,0:0:0:0:
454,182,80433,6,0,L|441:92,1,90,2|0,1:2|1:0,0:0:0:0:
304,30,80761,1,8,0:0:0:0:
279,236,80925,2,0,P|320:252|365:250,1,90,2|0,1:2|1:0,0:0:0:0:
149,376,81253,2,0,L|161:286,1,90,2|8,1:2|0:0,0:0:0:0:
38,86,81581,1,2,1:2:0:0:
150,131,81744,6,0,L|239:118,1,90,0|2,1:0|1:2,0:0:0:0:
438,203,82072,1,8,0:0:0:0:
279,236,82236,1,0,1:0:0:0:
338,64,82400,1,10,0:0:0:0:
365,249,82564,1,8,0:0:0:0:
346,289,82646,1,8,0:0:0:0:
311,318,82728,1,2,1:2:0:0:
266,322,82810,1,8,0:0:0:0:
224,305,82892,1,8,0:0:0:0:
198,268,82974,1,8,0:0:0:0:
195,221,83056,6,0,L|209:132,1,90,6|0,0:0|0:0,0:0:0:0:
129,48,83384,1,8,0:0:0:0:
14,267,83548,2,0,L|0:178,1,90,2|0,0:0|1:0,0:0:0:0:
100,332,83876,1,0,0:0:0:0:
279,236,84040,2,0,L|293:147,1,90,10|0,0:0|0:0,0:0:0:0:
358,304,84367,5,0,1:0:0:0:
477,109,84531,2,0,P|435:92|390:93,1,90,2|8,0:0|0:0,0:0:0:0:
293,147,84859,1,0,0:0:0:0:
101,24,85023,2,0,L|111:113,1,90,2|0,1:2|0:0,0:0:0:0:
181,250,85351,2,0,L|170:339,1,90,10|0,0:0|0:0,0:0:0:0:
14,174,85679,5,14,0:0:0:0:
208,113,85843,1,0,1:0:0:0:
358,240,86007,1,0,1:0:0:0:
66,40,86171,5,10,0:0:0:0:
240,88,86335,1,0,1:0:0:0:
358,240,86499,1,8,3:0:0:0:
358,240,86581,1,8,3:0:0:0:
358,240,86662,1,10,0:0:0:0:
151,294,86826,1,8,3:0:0:0:
184,264,86908,1,4,3:0:0:0:
226,250,86990,1,8,3:0:0:0:
268,265,87072,1,4,3:0:0:0:
297,298,87154,2,0,L|290:342,1,45,10|0,0:0|0:0,0:0:0:0:
434,199,87318,2,0,L|440:243,1,45,8|0,3:0|0:0,0:0:0:0:
240,88,87482,2,0,L|233:132,1,45,4|0,3:0|0:0,0:0:0:0:
433,54,87646,5,12,0:0:0:0:
202,370,87810,1,12,0:0:0:0:
49,19,87974,1,12,0:0:0:0:
