osu file format v14

[General]
AudioFilename: audio.mp3
AudioLeadIn: 0
PreviewTime: 47981
Countdown: 0
SampleSet: Soft
StackLeniency: 0.7
Mode: 0
LetterboxInBreaks: 0
WidescreenStoryboard: 0

[Editor]
DistanceSpacing: 3
BeatDivisor: 4
GridSize: 4
TimelineZoom: 1.9

[Metadata]
Title:RESISTER (TV Size)
TitleUnicode:RESISTER (TV Size)
Artist:ASCA
ArtistUnicode:ASCA
Creator:Karnageee
Version:Alicization
Source:ソードアート・オンライン アリシゼーション
Tags:sword art online alicization opening asca resister
BeatmapID:2003087
BeatmapSetID:956799

[Difficulty]
HPDrainRate:6
CircleSize:4
OverallDifficulty:9
ApproachRate:9.2
SliderMultiplier:1.7
SliderTickRate:1

[Events]
//Background and Video events
0,0,"733061.png",0,0
Video,0,"sao-a op.avi"
//Break Periods
//Storyboard Layer 0 (Background)
//Storyboard Layer 1 (Fail)
//Storyboard Layer 2 (Pass)
//Storyboard Layer 3 (Foreground)
//Storyboard Sound Samples

[TimingPoints]
1588,327.868852459016,4,2,1,70,1,0
10112,-153.846153846153,4,2,1,70,0,0
10768,-100,4,2,1,70,0,0
15358,-153.846153846153,4,2,1,70,0,0
15932,-153.846153846153,4,2,1,5,0,0
16014,-133.333333333333,4,2,1,40,0,0
17981,-133.333333333333,4,2,1,10,0,0
18145,-133.333333333333,4,2,1,20,0,0
18309,-133.333333333333,4,2,1,30,0,0
18473,-133.333333333333,4,2,1,40,0,0
20604,-133.333333333333,4,2,1,10,0,0
20768,-133.333333333333,4,2,1,20,0,0
20932,-133.333333333333,4,2,1,30,0,0
21096,-133.333333333333,4,2,1,40,0,0
23227,-133.333333333333,4,2,1,10,0,0
23391,-133.333333333333,4,2,1,20,0,0
23555,-133.333333333333,4,2,1,30,0,0
23719,-133.333333333333,4,2,1,40,0,0
25850,-133.333333333333,4,2,1,10,0,0
26014,-133.333333333333,4,2,1,20,0,0
26178,-133.333333333333,4,2,1,30,0,0
26342,-133.333333333333,4,2,1,40,0,0
26506,-133.333333333333,4,2,1,55,0,0
36178,-100,4,2,1,60,0,0
48801,-100,4,2,1,80,0,1
69784,-100,4,2,1,70,0,0
76342,-153.846153846153,4,2,1,70,0,0
76997,-153.846153846153,4,2,1,5,0,0
77079,-100,4,2,1,70,0,0
82243,-100,4,2,1,70,0,0
87817,-181.818181818181,4,2,1,70,0,0

[HitObjects]
80,122,1588,6,0,P|176:75|250:80,1,170,6|0,0:0|3:0,0:0:0:0:
183,170,2079,1,2,0:0:0:0:
237,76,2243,1,2,0:0:0:0:
297,168,2407,2,0,L|366:253,1,85,0|0,0:0|3:0,0:0:0:0:
402,135,2735,1,2,0:0:0:0:
323,213,2899,6,0,L|230:283,1,85,2|0,0:0|0:0,0:0:0:0:
195,170,3227,1,0,3:0:0:0:
97,303,3391,2,0,P|139:277|164:251,1,85,2|0,0:0|0:0,0:0:0:0:
237,298,3719,1,2,0:0:0:0:
129,171,3883,2,0,P|92:193|64:224,1,85,0|2,0:0|0:0,0:0:0:0:
16,91,4210,6,0,B|85:49|85:49|175:49,1,170,2|0,0:0|3:0,0:0:0:0:
199,145,4702,1,2,0:0:0:0:
275,71,4866,2,0,P|307:123|267:227,1,170,0|0,0:0|0:0,0:0:0:0:
299,316,5358,1,2,0:0:0:0:
430,332,5522,2,0,L|454:251,1,85,2|0,0:0|3:0,0:0:0:0:
349,144,5850,2,0,L|374:232,1,85,2|0,0:0|3:0,0:0:0:0:
252,188,6178,2,0,L|227:100,1,85,2|0,0:0|3:0,0:0:0:0:
170,0,6506,2,0,L|147:81,1,85,2|0,0:0|0:0,0:0:0:0:
38,58,6833,6,0,B|-7:148|-7:148|13:231,1,170,12|2,2:0|0:0,0:0:0:0:
177,237,7325,1,2,0:0:0:0:
177,237,7407,1,2,0:0:0:0:
177,237,7489,2,0,P|148:189|111:160,1,85,10|0,0:0|1:0,0:0:0:0:
139,79,7817,1,2,0:0:0:0:
181,58,7899,1,0,0:0:0:0:
226,45,7981,1,2,0:0:0:0:
272,37,8063,1,2,0:0:0:0:
318,33,8145,1,10,0:0:0:0:
282,75,9456,5,8,0:0:0:0:
247,49,9538,1,8,0:3:0:0:
206,35,9620,1,8,0:3:0:0:
164,43,9702,1,0,1:0:0:0:
127,64,9784,2,0,P|109:95|103:133,1,42.5,8|8,0:0|0:3,0:0:0:0:
178,180,9948,2,0,P|175:201|164:225,1,42.5,8|0,0:3|1:0,0:0:0:0:
255,212,10112,2,0,B|217:279|291:341|291:341|236:328,1,193.374991147995,6|0,0:0|0:0,0:0:0:0:
144,350,10768,5,4,0:2:0:0:
340,257,10932,1,0,0:0:0:0:
178,180,11096,2,0,L|120:117,1,85,8|2,0:0|0:0,0:0:0:0:
260,25,11424,1,0,1:0:0:0:
271,180,11587,2,0,L|328:242,1,85,2|8,0:0|0:0,0:0:0:0:
396,85,11915,1,2,0:0:0:0:
426,252,12079,2,0,P|402:215|368:189,1,85,2|0,1:2|0:0,0:0:0:0:
282,337,12407,5,10,0:0:0:0:
124,279,12571,2,0,P|82:309|38:354,1,85,2|0,0:0|1:2,0:0:0:0:
85,159,12899,1,2,0:0:0:0:
260,162,13063,2,0,L|338:236,1,85,10|2,0:0|0:0,0:0:0:0:
457,285,13391,5,2,1:2:0:0:
381,132,13555,1,2,0:0:0:0:
295,278,13719,1,10,0:0:0:0:
443,195,13883,1,0,0:0:0:0:
260,162,14047,2,0,P|225:132|166:106,1,85,8|2,0:3|0:0,0:0:0:0:
29,169,14374,5,8,0:0:0:0:
121,311,14538,2,0,B|197:261|192:223,1,85,10|0,0:3|0:0,0:0:0:0:
53,123,14866,1,2,0:0:0:0:
168,204,15030,1,10,0:0:0:0:
182,59,15194,1,2,0:0:0:0:
297,136,15358,2,0,B|314:95|293:85|270:86|231:114|271:244,1,193.374991147995,8|0,1:3|0:0,0:0:0:0:
370,232,16014,6,0,P|402:178|398:116,1,127.500004863739,6|0,0:0|0:0,0:0:0:0:
324,32,16506,2,0,P|291:86|297:149,1,127.500004863739,2|0,0:0|0:0,0:0:0:0:
428,47,16997,2,0,L|463:111,1,63.7500024318696,2|0,0:0|0:0,0:0:0:0:
396,184,17325,1,2,0:0:0:0:
301,161,17489,1,0,0:0:0:0:
353,87,17653,1,0,0:0:0:0:
396,184,17817,1,2,0:0:0:0:
324,257,17981,2,0,L|305:298,7,31.8750012159348,0|0|0|0|0|0|0|0,0:0|0:0|0:0|0:0|0:0|0:0|0:0|0:0,0:0:0:0:
235,297,18637,5,2,0:0:0:0:
157,230,18801,1,0,0:0:0:0:
113,322,18965,1,0,0:0:0:0:
51,241,19128,2,0,L|0:204,1,63.7500024318696,2|0,0:0|0:0,0:0:0:0:
27,115,19456,1,0,0:0:0:0:
104,193,19620,2,0,L|157:230,1,63.7500024318696,2|0,0:0|0:0,0:0:0:0:
145,99,19948,1,2,0:0:0:0:
224,35,20112,1,0,0:0:0:0:
326,35,20276,1,2,0:0:0:0:
405,99,20440,1,2,0:0:0:0:
479,169,20604,2,0,L|508:208,7,31.8750012159348,0|0|0|0|0|0|0|0,0:0|0:0|0:0|0:0|0:0|0:0|0:0|0:0,0:0:0:0:
388,194,21260,5,2,0:0:0:0:
338,321,21424,1,2,0:0:0:0:
427,273,21587,1,2,0:0:0:0:
299,241,21751,1,2,0:0:0:0:
393,180,21915,1,2,0:0:0:0:
333,331,22079,1,2,0:0:0:0:
281,240,22243,2,0,L|218:231,1,63.7500024318696
93,156,22571,5,2,0:0:0:0:
148,298,22735,1,2,0:0:0:0:
49,244,22899,1,2,0:0:0:0:
192,209,23062,1,2,0:0:0:0:
288,230,23227,2,0,L|292:262,7,31.8750012159348,2|0|0|0|0|0|0|0,0:0|0:0|0:0|0:0|0:0|0:0|0:0|0:0,0:0:0:0:
310,140,23883,5,2,0:0:0:0:
363,47,24047,1,2,0:0:0:0:
452,111,24211,1,2,0:0:0:0:
259,46,24374,2,0,L|206:10,1,63.7500024318696,2|0,0:0|0:0,0:0:0:0:
116,72,24702,1,2,0:0:0:0:
205,133,24866,2,0,L|257:168,1,63.7500024318696,2|2,0:0|0:0,0:0:0:0:
354,117,25194,1,2,0:0:0:0:
398,216,25358,1,0,0:0:0:0:
354,315,25522,1,2,0:0:0:0:
254,357,25686,1,2,0:0:0:0:
154,315,25850,2,0,L|119:280,7,31.8750012159348,0|0|0|0|0|0|0|0,0:0|0:0|0:0|0:0|0:0|0:0|0:0|0:0,0:0:0:0:
102,193,26506,6,0,P|81:229|43:251,1,63.7500024318696,6|0,1:2|0:0,0:0:0:0:
51,105,26833,2,0,P|72:69|110:47,1,63.7500024318696,2|0,1:2|0:0,0:0:0:0:
216,47,27161,2,0,P|201:75|177:96,1,63.7500024318696,2|0,1:2|0:0,0:0:0:0:
224,208,27489,1,2,1:2:0:0:
301,115,27653,2,0,L|346:70,1,63.7500024318696,2|0,0:0|1:2,0:0:0:0:
333,209,27981,2,0,L|378:164,1,63.7500024318696,2|0,0:0|1:2,0:0:0:0:
249,208,28309,2,0,L|203:163,1,63.7500024318696,2|0,0:0|1:2,0:0:0:0:
192,282,28637,2,0,L|146:237,1,63.7500024318696,2|2,0:0|1:2,0:0:0:0:
61,149,28965,1,0,0:0:0:0:
143,61,29128,6,0,P|172:31|219:17,1,63.7500024318696,2|0,1:2|0:0,0:0:0:0:
260,122,29456,1,2,1:2:0:0:
320,21,29620,2,0,P|348:36|369:61,1,63.7500024318696,2|0,0:0|1:2,0:0:0:0:
413,191,29948,2,0,P|392:166|364:151,1,63.7500024318696,2|0,0:0|1:2,0:0:0:0:
260,122,30276,1,2,0:0:0:0:
278,242,30440,2,0,P|305:257|326:281,1,63.7500024318696,0|0,1:2|0:0,0:0:0:0:
431,296,30768,1,2,1:2:0:0:
321,348,30932,2,0,L|246:348,1,63.7500024318696,0|0,0:0|1:2,0:0:0:0:
118,348,31260,2,0,L|181:348,1,63.7500024318696,0|2,0:0|1:2,0:0:0:0:
229,288,31587,1,2,0:0:0:0:
93,264,31751,5,0,1:2:0:0:
39,169,31915,1,0,0:0:0:0:
184,219,32079,1,0,1:2:0:0:
130,124,32243,1,2,0:0:0:0:
274,174,32407,1,2,1:2:0:0:
220,80,32571,2,0,B|199:44|199:44|233:44,1,63.7500024318696,2|0,0:0|1:2,0:0:0:0:
330,59,32899,1,0,0:0:0:0:
400,141,33063,5,2,1:2:0:0:
399,246,33227,1,0,0:0:0:0:
490,194,33391,1,2,1:2:0:0:
350,190,33555,1,2,0:0:0:0:
348,294,33719,1,2,1:2:0:0:
440,242,33883,1,2,0:0:0:0:
292,238,34047,2,0,P|252:247|242:216,1,63.7500024318696,0|2,1:2|0:0,0:0:0:0:
280,131,34374,6,0,L|320:81,1,63.7500024318696,2|0,1:2|0:0,0:0:0:0:
201,63,34702,2,0,L|143:137,1,63.7500024318696,2|0,1:2|0:0,0:0:0:0:
154,237,35030,2,0,L|194:187,1,63.7500024318696,2|0,1:2|0:0,0:0:0:0:
75,169,35358,2,0,L|17:243,1,63.7500024318696,2|0,1:2|0:0,0:0:0:0:
80,303,35686,1,4,1:2:0:0:
316,173,36178,5,0,1:0:0:0:
316,173,36260,1,0,1:0:0:0:
316,173,36342,2,0,P|263:147|228:150,1,85,8|0,0:0|1:0,0:0:0:0:
248,30,36669,2,0,P|301:56|336:53,1,85,8|0,0:3|0:0,0:0:0:0:
239,148,36997,6,0,B|295:167|323:212|315:290,1,170,14|2,0:0|0:0,0:0:0:0:
223,258,37489,1,0,1:0:0:0:
106,145,37653,1,2,0:0:0:0:
61,300,37817,1,8,0:3:0:0:
190,148,37981,2,0,L|220:69,1,85,10|0,0:0|0:0,0:0:0:0:
315,38,38309,2,0,B|437:31|375:100|471:102,1,170,2|0,1:2|0:0,0:0:0:0:
436,197,38801,2,0,L|406:276,1,85,8|2,0:3|0:0,0:0:0:0:
307,202,39128,1,0,1:0:0:0:
226,296,39292,6,0,P|189:332|71:343,1,170,10|2,0:0|1:2,0:0:0:0:
135,255,39784,1,0,0:0:0:0:
42,220,39948,2,0,P|108:169|192:171,1,170,0|0,0:0|0:0,0:0:0:0:
302,161,40440,2,0,P|272:109|330:18,1,170,2|0,1:2|0:0,0:0:0:0:
369,96,40932,1,2,1:2:0:0:
463,28,41096,2,0,L|512:106,1,85,8|0,0:3|0:0,0:0:0:0:
417,140,41424,2,0,L|368:218,1,85,8|2,0:3|1:2,0:0:0:0:
431,350,41751,1,0,1:0:0:0:
371,211,41915,1,10,0:0:0:0:
285,348,42079,2,0,L|178:315,1,85,0|4,0:0|1:2,0:0:0:0:
40,266,42407,5,2,0:0:0:0:
61,111,42571,1,10,0:0:0:0:
192,199,42735,1,2,0:0:0:0:
56,185,42899,5,2,1:2:0:0:
77,30,43063,1,2,0:0:0:0:
208,118,43227,1,10,0:0:0:0:
33,95,43391,1,2,0:0:0:0:
194,213,43555,2,0,P|184:249|151:284,1,85,2|0,1:2|0:0,0:0:0:0:
317,170,43883,2,0,P|327:134|366:100,1,85,8|0,0:0|0:0,0:0:0:0:
446,33,44210,5,2,1:2:0:0:
491,196,44374,1,0,0:0:0:0:
362,84,44538,1,8,0:0:0:0:
379,253,44702,1,2,0:0:0:0:
271,159,44866,2,0,P|205:162|176:199,1,85,2|0,1:2|0:0,0:0:0:0:
196,60,45194,2,0,P|262:63|296:97,1,85,8|0,0:0|0:0,0:0:0:0:
355,175,45522,5,2,1:2:0:0:
217,274,45686,1,0,0:0:0:0:
129,128,45850,1,8,0:0:0:0:
275,214,46014,1,2,0:0:0:0:
73,134,46178,5,14,1:2:0:0:
109,112,46260,1,0,3:0:0:0:
150,118,46342,1,8,3:0:0:0:
187,138,46424,1,0,3:0:0:0:
217,167,46506,1,8,0:0:0:0:
246,197,46587,1,0,3:0:0:0:
285,211,46669,1,8,3:0:0:0:
327,214,46751,1,0,3:0:0:0:
367,201,46833,5,10,1:2:0:0:
398,172,46915,1,0,3:0:0:0:
419,135,46997,1,8,3:3:0:0:
437,96,47079,1,0,3:0:0:0:
455,57,47161,2,0,L|437:18,1,42.5,12|8,3:3|3:3,0:0:0:0:
269,24,47325,2,0,L|288:61,1,42.5,8|8,3:3|3:3,0:0:0:0:
251,204,47489,1,10,0:0:0:0:
48,31,47653,1,10,1:2:0:0:
48,328,48801,6,0,P|115:253|199:242,1,170,6|8,1:2|0:0,0:0:0:0:
268,342,49292,1,2,0:0:0:0:
292,190,49456,1,2,1:2:0:0:
400,297,49620,2,0,P|460:339|477:366,1,85,2|8,0:0|0:0,0:0:0:0:
332,248,49948,1,2,0:0:0:0:
181,275,50112,2,0,P|116:225|94:220,1,85,2|0,1:2|0:0,0:0:0:0:
337,178,50440,1,10,0:0:0:0:
181,108,50604,2,0,P|152:140|114:159,1,85,2|0,0:0|1:2,0:0:0:0:
257,163,50932,2,0,P|286:131|324:112,1,85,2|8,0:0|0:0,0:0:0:0:
400,24,51260,5,2,0:0:0:0:
475,157,51424,2,0,L|409:238,1,85,2|0,1:2|0:0,0:0:0:0:
307,139,51751,1,10,0:0:0:0:
111,121,51915,2,0,P|161:136|186:162,1,85,2|0,0:0|1:2,0:0:0:0:
262,319,52243,2,0,L|187:278,1,85,2|8,0:0|0:0,0:0:0:0:
97,344,52571,1,2,0:0:0:0:
22,194,52735,5,2,1:2:0:0:
213,195,52899,1,2,0:0:0:0:
103,26,53063,1,8,0:0:0:0:
230,81,53227,2,0,L|296:28,1,85,2|0,0:0|1:2,0:0:0:0:
425,29,53555,2,0,L|358:81,1,85,2|10,0:0|0:0,0:0:0:0:
286,150,53883,5,2,0:0:0:0:
29,234,54047,1,6,1:2:0:0:
109,43,54210,1,2,0:0:0:0:
133,267,54374,1,10,0:0:0:0:
213,76,54537,1,2,0:0:0:0:
23,247,54702,1,2,1:2:0:0:
208,172,54866,2,0,L|302:164,1,85,2|8,0:0|0:0,0:0:0:0:
464,90,55194,5,2,0:0:0:0:
286,294,55358,1,2,1:2:0:0:
257,89,55521,1,2,0:0:0:0:
393,269,55685,1,10,0:0:0:0:
363,64,55850,1,0,0:0:0:0:
288,308,56013,1,2,1:2:0:0:
283,55,56178,2,0,L|167:67,1,85,2|8,0:0|0:0,0:0:0:0:
65,128,56506,1,2,0:0:0:0:
152,21,56669,5,2,1:2:0:0:
231,137,56833,2,0,L|303:206,1,85,0|10,0:0|0:0,0:0:0:0:
226,348,57161,1,0,0:0:0:0:
69,297,57325,5,2,1:2:0:0:
71,263,57407,1,0,3:0:0:0:
74,229,57489,1,8,3:0:0:0:
79,195,57571,1,0,3:0:0:0:
82,161,57653,1,10,0:0:0:0:
88,127,57735,1,0,3:0:0:0:
95,93,57817,1,8,3:0:0:0:
101,59,57899,1,0,3:0:0:0:
109,26,57981,6,0,B|157:24|157:24|195:56,1,85,12|0,1:2|0:0,0:0:0:0:
215,86,58227,2,0,B|242:109|242:109|291:107,1,85,2|0,1:2|0:0,0:0:0:0:
298,152,58473,2,0,B|373:41|373:41|437:41,1,170,12|0,1:2|1:0,0:0:0:0:
495,41,58965,2,0,L|497:205,1,127.5,8|0,1:2|0:0,0:0:0:0:
491,239,59292,6,0,P|469:278|331:315,1,170,6|8,1:2|0:0,0:0:0:0:
242,312,59784,1,2,0:0:0:0:
363,169,59948,1,2,1:2:0:0:
182,218,60112,2,0,P|110:252|95:274,1,85,2|8,0:0|0:0,0:0:0:0:
118,350,60440,1,2,0:0:0:0:
41,223,60604,2,0,P|28:165|39:130,1,85,2|0,1:2|0:0,0:0:0:0:
142,142,60932,1,10,0:0:0:0:
92,27,61096,2,0,L|7:27,1,85,2|0,0:0|1:2,0:0:0:0:
187,33,61424,2,0,P|209:68|244:91,1,85,2|8,0:0|0:0,0:0:0:0:
351,139,61751,1,2,0:0:0:0:
471,44,61915,5,2,1:2:0:0:
507,192,62079,1,2,0:0:0:0:
403,79,62243,1,10,0:0:0:0:
314,203,62407,2,0,P|270:247|272:284,1,85,2|0,0:0|1:2,0:0:0:0:
341,335,62735,1,0,0:0:0:0:
194,313,62899,2,0,P|151:260|158:219,1,85,8|2,0:0|0:0,0:0:0:0:
136,107,63227,2,0,L|27:240,1,170,2|8,1:2|0:0,0:0:0:0:
139,239,63719,1,2,0:0:0:0:
26,363,63883,1,0,1:2:0:0:
206,355,64047,2,0,P|242:298|356:262,1,170,2|2,0:0|0:0,0:0:0:0:
412,178,64538,5,6,1:2:0:0:
279,251,64702,1,2,0:0:0:0:
282,103,64866,1,10,0:0:0:0:
482,108,65030,5,2,0:0:0:0:
352,183,65194,1,2,1:2:0:0:
354,32,65358,1,2,0:0:0:0:
284,168,65522,2,0,L|169:173,1,85,8|2,0:0|0:0,0:0:0:0:
100,178,65850,5,2,1:2:0:0:
233,251,66014,1,2,0:0:0:0:
230,103,66178,1,10,0:0:0:0:
30,108,66342,5,2,0:0:0:0:
160,183,66506,1,2,1:2:0:0:
158,32,66670,1,2,0:0:0:0:
316,100,66833,2,0,L|316:12,1,85,8|2,0:0|0:0,0:0:0:0:
405,28,67161,6,0,P|463:56|482:96,1,85,2|0,1:2|0:0,0:0:0:0:
391,132,67489,2,0,P|417:190|406:233,1,85,10|0,0:0|0:3,0:0:0:0:
307,193,67817,2,0,P|269:261|278:303,1,85,2|0,1:2|0:0,0:0:0:0:
376,283,68145,2,0,P|378:324|400:360,1,85,10|0,0:0|0:0,0:0:0:0:
509,308,68473,2,0,P|506:266|412:184,1,170,8|8,0:3|0:3,0:0:0:0:
396,289,68965,2,0,P|349:326|300:333,1,85,0|2,0:0|1:2,0:0:0:0:
196,290,69292,5,8,3:0:0:0:
177,256,69374,1,8,3:0:0:0:
168,218,69456,1,10,0:0:0:0:
175,180,69538,1,8,3:0:0:0:
186,143,69620,1,8,3:0:0:0:
203,109,69702,1,8,3:0:0:0:
220,75,69784,2,0,B|395:25,1,170,12|8,1:3|0:0,0:0:0:0:
481,100,70276,2,0,B|317:146,1,170,0|0,1:3|1:3,0:0:0:0:
207,163,70768,2,0,P|170:224|191:250,1,85,10|0,0:0|0:0,0:0:0:0:
282,230,71096,5,10,1:3:0:0:
427,142,71260,1,0,1:0:0:0:
432,311,71424,1,8,0:0:0:0:
343,157,71587,2,0,P|299:102|205:64,1,170,0|0,1:3|1:3,0:0:0:0:
101,27,72079,2,0,L|102:126,1,85,8|0,0:0|0:0,0:0:0:0:
206,91,72407,6,0,P|263:127|282:162,1,85,10|0,1:3|0:0,0:0:0:0:
145,203,72735,1,8,0:0:0:0:
265,244,72899,2,0,P|285:308|277:347,1,85,0|0,1:3|0:0,0:0:0:0:
367,203,73227,1,0,1:3:0:0:
247,140,73391,2,0,P|226:75|234:36,1,85,10|2,0:0|0:0,0:0:0:0:
338,50,73719,5,8,1:3:0:0:
401,140,73883,1,2,0:0:0:0:
272,95,74047,1,10,0:0:0:0:
283,229,74210,1,0,1:3:0:0:
141,170,74374,1,8,0:0:0:0:
200,29,74538,1,0,1:3:0:0:
311,157,74702,1,8,0:0:0:0:
163,284,74866,1,0,0:0:0:0:
124,83,75030,5,10,1:3:0:0:
305,297,75194,1,0,1:0:0:0:
305,297,75358,1,10,0:0:0:0:
406,35,75522,5,0,1:3:0:0:
208,234,75686,1,10,0:0:0:0:
208,234,75850,1,0,1:3:0:0:
90,53,76014,5,10,0:0:0:0:
111,332,76178,1,10,0:0:0:0:
292,88,76342,2,0,P|367:135|295:142,1,220.999989883423,14|0,0:0|0:0,0:0:0:0:
422,218,77161,5,2,1:2:0:0:
422,218,77243,1,0,1:0:0:0:
422,218,77325,2,0,L|453:314,1,85,8|0,0:0|0:0,0:0:0:0:
361,341,77653,6,0,P|307:333|205:275,1,170,6|10,1:2|0:0,0:0:0:0:
221,89,78145,2,0,P|169:126|155:154,1,85,2|0,0:0|0:0,0:0:0:0:
181,330,78473,1,2,1:2:0:0:
10,253,78637,1,8,0:0:0:0:
159,143,78801,2,0,P|211:180|225:208,1,85,2|0,0:0|0:0,0:0:0:0:
296,26,79128,1,2,1:2:0:0:
326,210,79292,2,0,P|364:113|365:109,1,85,8|2,0:0|1:2,0:0:0:0:
423,57,79620,1,8,0:0:0:0:
498,228,79784,1,2,1:2:0:0:
330,144,79948,6,0,P|299:115|258:93,1,85,8|0,0:0|0:0,0:0:0:0:
105,39,80276,2,0,P|136:68|177:90,1,85,2|0,1:2|1:0,0:0:0:0:
211,182,80604,1,10,0:0:0:0:
88,156,80768,2,0,P|42:200|27:233,1,85,2|0,0:0|0:0,0:0:0:0:
131,242,81096,2,0,P|177:286|192:319,1,85,2|8,1:2|0:0,0:0:0:0:
250,156,81424,2,0,P|204:112|189:79,1,85,2|0,0:0|0:0,0:0:0:0:
326,19,81751,1,2,1:2:0:0:
472,135,81915,2,0,L|370:195,1,85,8|2,0:0|1:2,0:0:0:0:
361,282,82243,5,8,0:0:0:0:
319,290,82325,1,0,3:0:0:0:
277,298,82407,1,2,1:2:0:0:
236,311,82489,1,0,3:0:0:0:
192,309,82571,1,8,0:0:0:0:
151,294,82653,1,0,3:0:0:0:
124,260,82735,1,0,3:0:0:0:
106,221,82817,1,0,3:0:0:0:
90,181,82899,6,0,L|54:98,1,85,10|0,1:3|0:0,0:0:0:0:
176,36,83227,1,8,0:0:0:0:
199,187,83391,2,0,L|267:121,1,85,10|0,0:3|0:0,0:0:0:0:
398,126,83719,1,0,1:0:0:0:
348,270,83883,2,0,L|297:370,1,85,10|0,0:0|0:0,0:0:0:0:
166,291,84210,1,0,1:0:0:0:
287,198,84374,2,0,L|358:105,1,85,10|8,0:0|0:3,0:0:0:0:
213,41,84702,1,0,0:0:0:0:
203,193,84866,2,0,P|205:255|235:298,1,85,10|0,0:0|1:0,0:0:0:0:
109,140,85194,2,0,P|83:108|45:90,1,85,10|0,0:0|0:0,0:0:0:0:
53,280,85522,5,10,3:3:0:0:
74,255,85604,1,0,3:0:0:0:
101,237,85686,1,0,3:3:0:0:
131,223,85768,1,0,3:0:0:0:
163,215,85850,2,0,L|222:199,1,42.5,0|0,3:0|3:0,0:0:0:0:
233,78,86014,5,10,3:3:0:0:
265,80,86096,1,0,3:0:0:0:
295,92,86178,1,0,3:0:0:0:
324,109,86260,1,0,3:0:0:0:
349,130,86342,2,0,L|394:158,1,42.5,0|0,3:0|3:0,0:0:0:0:
460,257,86506,5,10,3:0:0:0:
439,282,86588,1,0,3:0:0:0:
412,300,86670,1,0,3:0:0:0:
382,314,86752,1,0,3:0:0:0:
350,322,86834,2,0,L|299:340,1,42.5,0|0,3:0|3:0,0:0:0:0:
182,340,86997,5,10,3:3:0:0:
161,316,87079,1,0,3:0:0:0:
147,287,87161,1,0,3:0:0:0:
137,255,87243,1,0,3:0:0:0:
133,223,87325,2,0,L|126:171,1,42.5,0|0,3:0|3:0,0:0:0:0:
15,110,87489,5,10,0:0:0:0:
256,256,87653,1,10,0:0:0:0:
288,19,87817,1,14,0:0:0:0:
