osu file format v14

[General]
AudioFilename: audio.mp3
AudioLeadIn: 0
PreviewTime: 49121
Countdown: 0
SampleSet: Soft
StackLeniency: 0.4
Mode: 0
LetterboxInBreaks: 0
WidescreenStoryboard: 1

[Editor]
Bookmarks: 11994,17231,27722,38229,50028,55262,60514,65759,70989,78859
DistanceSpacing: 1.6
BeatDivisor: 8
GridSize: 32
TimelineZoom: 2.599999

[Metadata]
Title:RESISTER (TV Size)
TitleUnicode:RESISTER (TV Size)
Artist:ASCA
ArtistUnicode:ASCA
Creator:Gweon Sua
Version:XAHLT, SHAYKS & ASUKO'S HARD
Source:ソードアート・オンライン アリシゼーション
Tags:xahlt kuon- wanpachi cycopton asukow shayks [_lost_] conner c_o_n_n_e_r Sarawatlism nevir nevlr Adinda Esutarosa 大倉明日香 あすか Ōkura okura oukura Asuka alice a.l.i.c.e. kirito asuna eugeo アスナ キリト アリス ユージオ sao sword art online alicization jrock japanese rock j-rock anime op opening season 3 three III SAO-A Project SACRA MUSIC Sony Entertainment
BeatmapID:3608698
BeatmapSetID:1757778

[Difficulty]
HPDrainRate:4
CircleSize:4
OverallDifficulty:6
ApproachRate:8
SliderMultiplier:1.4
SliderTickRate:1

[Events]
//Background and Video events
0,0,"alice.jpg",0,0
Video,1190,"VD.mp4"
//Break Periods
//Storyboard Layer 0 (Background)
//Storyboard Layer 1 (Fail)
//Storyboard Layer 2 (Pass)
//Storyboard Layer 3 (Foreground)
//Storyboard Layer 4 (Overlay)
//Storyboard Sound Samples

[TimingPoints]
-2423,327.868852459016,4,2,1,55,1,0
2822,-166.666666666667,4,2,1,55,0,0
7413,-165.289256198347,4,2,1,55,0,0
7737,309.278350515464,4,2,1,55,1,0
8046,327.868852459016,4,2,1,70,1,0
8046,-125,4,2,1,70,0,0
10668,322.58064516129,4,2,1,70,1,0
11313,340.909090909091,4,2,1,70,1,0
11994,326.086956521739,4,2,1,80,1,0
11994,-100,4,2,1,80,0,0
12238,-100,4,2,1,5,0,0
12320,-100,4,2,1,80,0,0
13298,324.324324324324,4,2,1,80,1,0
13541,-100,4,2,1,80,0,0
13622,-100,4,2,1,80,0,0
14514,-100,4,2,1,5,0,0
14595,331.491712707182,4,2,1,80,1,0
16005,-100,4,2,1,5,0,0
16086,321.71581769437,4,2,1,80,1,0
16246,321.71581769437,4,2,1,80,1,0
17050,363.636363636364,4,2,1,80,1,0
17231,327.868852459016,4,2,1,55,1,0
17231,-142.857142857143,4,2,1,55,0,0
27722,337.078651685393,4,2,1,70,1,0
27722,-125,4,2,1,70,0,0
28396,324.324324324324,4,2,1,70,1,0
28396,-125,4,2,1,70,0,0
29044,324.324324324324,4,2,1,70,1,0
29044,-125,4,2,1,70,0,0
30341,329.67032967033,4,2,1,70,1,0
30341,-125,4,2,1,70,0,0
32978,327.868852459016,4,2,1,75,1,0
32978,-125,4,2,1,75,0,0
36912,335.195530726257,4,2,1,75,1,0
36912,-125,4,2,1,75,0,0
37414,317.460317460317,4,2,1,75,1,0
37414,-125,4,2,1,75,0,0
37731,329.67032967033,4,2,1,75,1,0
37731,-125,4,2,1,75,0,0
38060,338.983050847458,4,2,1,75,1,0
38060,-125,4,2,1,75,0,0
38229,323.450134770889,4,2,1,65,1,0
38229,-125,4,2,1,65,0,0
39522,329.67032967033,4,2,1,65,1,0
39522,-125,4,2,1,65,0,0
40840,326.086956521739,4,2,1,65,1,0
40840,-125,4,2,1,65,0,0
43122,331.491712707182,4,2,1,65,1,0
43122,-125,4,2,1,65,0,0
43453,329.67032967033,4,2,1,75,1,0
43453,-111.111111111111,4,2,1,75,0,0
43700,-111.111111111111,4,2,1,5,0,0
43782,-111.111111111111,4,2,1,75,0,0
44771,326.975476839237,4,2,1,75,1,0
44771,-111.111111111111,4,2,1,75,0,0
45016,-111.111111111111,4,2,1,5,0,0
45097,-111.111111111111,4,2,1,75,0,0
46324,-111.111111111111,4,2,1,5,0,0
46405,-111.111111111111,4,2,1,75,0,0
47059,332.409972299169,4,2,1,75,1,0
47059,-111.111111111111,4,2,1,75,0,0
47391,329.67032967033,4,2,1,75,1,0
47391,-100,4,2,1,75,0,0
49369,-100,4,2,1,65,0,0
50028,326.530612244898,4,2,1,85,1,1
50028,-90.9090909090909,4,2,1,85,0,1
52640,327.868852459016,4,2,1,85,1,1
52640,-90.9090909090909,4,2,1,85,0,1
55262,337.078651685393,4,2,1,85,1,1
55262,-90.9090909090909,4,2,1,85,0,1
55936,322.58064516129,4,2,1,85,1,1
55936,-90.9090909090909,4,2,1,85,0,1
56581,327.868852459016,4,2,1,85,1,1
56581,-90.9090909090909,4,2,1,85,0,1
58138,-90.9090909090909,4,2,1,5,0,1
58220,-90.9090909090909,4,2,1,85,0,1
58466,-90.9090909090909,4,2,1,5,0,1
58548,-90.9090909090909,4,2,1,85,0,1
58876,317.460317460317,4,2,1,85,1,1
58876,-90.9090909090909,4,2,1,85,0,1
59193,331.491712707182,4,2,1,85,1,1
59193,-90.9090909090909,4,2,1,85,0,1
60187,327.868852459016,4,2,1,85,1,1
60187,-90.9090909090909,4,2,1,85,0,1
60432,-90.9090909090909,4,2,1,5,0,1
60514,327.868852459016,4,2,1,85,1,1
60514,-90.9090909090909,4,2,1,85,0,1
62071,-90.9090909090909,4,2,1,5,0,1
62153,-90.9090909090909,4,2,1,85,0,1
62891,-90.9090909090909,4,2,1,5,0,1
62973,-90.9090909090909,4,2,1,85,0,1
64038,-90.9090909090909,4,2,1,5,0,1
64120,-90.9090909090909,4,2,1,85,0,1
64366,-90.9090909090909,4,2,1,5,0,1
64448,-90.9090909090909,4,2,1,85,0,1
65677,-90.9090909090909,4,2,1,5,0,1
65759,-90.9090909090909,4,2,1,85,0,1
68382,324.324324324324,4,2,1,85,1,1
68382,-90.9090909090909,4,2,1,85,0,1
68625,-90.9090909090909,4,2,1,5,0,1
68706,-90.9090909090909,4,2,1,85,0,1
69030,329.67032967033,4,2,1,85,1,1
69030,-90.9090909090909,4,2,1,85,0,1
69277,-90.9090909090909,4,2,1,5,0,1
69358,-90.9090909090909,4,2,1,85,0,1
69359,-90.9090909090909,4,2,1,85,0,1
69689,326.086956521739,4,2,1,85,1,1
69689,-90.9090909090909,4,2,1,85,0,1
70341,324.324324324324,4,2,1,85,1,1
70989,331.491712707182,4,2,1,80,1,0
70989,-100,4,2,1,80,0,0
72977,326.086956521739,4,2,1,80,1,0
73629,326.086956521739,4,2,1,80,1,0
74770,-99.009900990099,4,2,1,80,0,0
74933,322.58064516129,4,2,1,80,1,0
76223,333.333333333333,4,2,1,80,1,0
78223,300,4,2,1,75,1,0
78373,324.324324324324,4,2,1,75,1,0
78859,329.67032967033,4,2,1,80,1,0
78859,-100,4,2,1,80,0,0
80837,319.148936170213,4,2,1,80,1,0
80837,-100,4,2,1,80,0,0
81475,319.148936170213,4,2,1,80,1,0
81475,-100,4,2,1,80,0,0
81794,327.868852459016,4,2,1,80,1,0
81794,-100,4,2,1,80,0,0
82777,333.333333333333,4,2,1,80,1,0
82777,-100,4,2,1,80,0,0
84110,337.078651685393,4,2,1,80,1,0
84110,-90.9090909090909,4,2,1,80,0,0
84615,-89.2857142857143,4,2,1,80,0,0
84784,322.58064516129,4,2,1,80,1,0
84784,-90.9090909090909,4,2,1,80,0,0
85429,322.58064516129,4,2,1,80,1,0
85429,-90.9090909090909,4,2,1,80,0,0
86396,338.983050847458,4,2,1,80,1,0
86396,-90.9090909090909,4,2,1,80,0,0
86734,329.67032967033,3,2,1,80,1,0
86734,-90.9090909090909,4,2,1,80,0,0
88712,-100,3,2,1,85,0,0

[Colours]
Combo1 : 14,63,177
Combo2 : 244,215,96

[HitObjects]
12,16,2822,6,0,P|70:25|139:51,1,125.999996154785,6|2,0:0|0:0,0:0:0:0:
192,102,3478,1,0,0:0:0:0:
315,1,3806,1,0,0:0:0:0:
450,85,4134,6,0,P|467:119|446:173,1,83.9999974365235,2|2,0:0|0:0,0:0:0:0:
404,223,4626,1,2,0:0:0:0:
256,162,4954,2,0,P|217:175|160:187,1,83.9999974365235,2|2,0:0|0:0,0:0:0:0:
114,236,5445,6,0,P|102:275|122:311,1,83.9999974365235,2|2,0:0|0:0,0:0:0:0:
186,359,5937,2,0,P|227:366|268:376,2,83.9999974365235,2|2|2,0:0|0:0|0:0,0:0:0:0:
122,311,6757,6,0,P|81:321|31:344,1,83.9999974365235,2|2,0:0|0:0,0:0:0:0:
2,182,7413,2,0,P|43:172|93:149,1,83.9999974365235,2|0,0:0|0:0,0:0:0:0:
220,13,8046,6,0,B|326:28|267:65|369:85,1,168,6|0,3:2|3:2,0:0:0:0:
377,81,8619,1,0,3:2:0:0:
387,77,8701,1,10,0:0:0:0:
465,121,8865,1,8,2:3:0:0:
465,210,9029,2,0,P|445:218|429:229,3,28,6|0|2|2,2:3|3:2|3:2|3:2,0:0:0:0:
431,235,9357,1,10,0:0:0:0:
431,235,10668,6,0,P|409:241|377:252,3,35,8|4|0|0,2:3|2:3|3:2|3:2,0:0:0:0:
363,280,10990,2,0,P|342:277|306:261,3,35,8|8|4|4,2:3|2:3|2:3|2:3,0:0:0:0:
298,237,11313,1,10,0:0:0:0:
108,38,11994,6,0,P|80:81|104:148,1,105,6|0,3:2|0:0,0:0:0:0:
99,142,12320,2,0,P|93:179|81:237,1,70,10|2,0:0|0:0,0:0:0:0:
28,309,12646,2,0,P|60:330|106:327,1,70,8|2,0:0|3:2,0:0:0:0:
102,324,12890,1,0,0:0:0:0:
112,315,12972,1,10,0:0:0:0:
214,266,13135,1,0,3:2:0:0:
306,341,13298,6,0,P|359:343|430:345,1,105,10|0,0:0|0:0,0:0:0:0:
428,342,13622,1,8,0:0:0:0:
469,244,13784,2,0,P|503:264|512:305,1,70,2|10,3:0|0:0,0:0:0:0:
386,268,14108,1,2,3:2:0:0:
340,185,14270,2,0,P|355:134|369:75,1,105,10|0,0:0|0:0,0:0:0:0:
374,61,14595,6,0,P|348:44|295:60,1,70,10|2,0:0|0:0,0:0:0:0:
247,115,14926,2,0,P|212:110|173:105,1,70,10|2,0:0|3:2,0:0:0:0:
123,25,15257,1,10,2:3:0:0:
45,89,15423,2,0,P|56:135|40:173,1,70,6|10,2:3|0:0,0:0:0:0:
0,236,15755,6,0,P|11:282|22:349,1,105,6|0,3:2|0:0,0:0:0:0:
19,355,16086,1,2,3:2:0:0:
117,318,16246,2,0,P|151:315|196:312,1,70,10|10,0:0|0:0,0:0:0:0:
197,308,16487,1,8,0:0:0:0:
209,303,16567,1,10,0:0:0:0:
317,361,16728,1,8,2:3:0:0:
420,317,16889,2,0,P|435:293|413:226,1,70,4|4,2:3|2:3,0:0:0:0:
417,166,17231,6,0,P|370:176|323:190,1,97.9999970092774,6|2,3:2|0:0,0:0:0:0:
266,244,17722,2,0,P|243:201|253:154,1,97.9999970092774,2|2,0:0|0:0,0:0:0:0:
349,30,18378,2,0,P|405:43|466:58,1,97.9999970092774,2|2,0:0|0:0,0:0:0:0:
505,197,19034,2,0,P|457:185|409:175,1,97.9999970092774,2|2,0:0|0:0,0:0:0:0:
256,136,19690,1,2,0:0:0:0:
179,117,19853,6,0,P|179:166|208:204,1,97.9999970092774,2|2,0:0|0:0,0:0:0:0:
274,247,20345,2,0,P|226:258|178:270,1,97.9999970092774,2|2,0:0|0:0,0:0:0:0:
138,337,20837,1,2,0:0:0:0:
66,304,21001,2,0,P|10:243|66:52,1,293.999991027832,0|0,0:0|0:0,0:0:0:0:
58,56,22312,6,0,P|85:49|111:44,1,48.9999985046387,2|2,0:0|0:0,0:0:0:0:
172,86,22640,2,0,P|199:79|225:74,2,48.9999985046387,0|2|0,0:0|0:0|0:0,0:0:0:0:
120,145,23132,1,2,0:0:0:0:
172,203,23296,1,2,0:0:0:0:
326,231,23624,6,0,P|319:203|313:174,1,48.9999985046387,2|2,0:0|0:0,0:0:0:0:
357,116,23952,2,0,P|350:88|345:61,2,48.9999985046387,0|2|0,0:0|0:0|0:0,0:0:0:0:
416,168,24444,1,2,0:0:0:0:
474,116,24608,1,2,0:0:0:0:
504,269,24935,1,2,0:0:0:0:
439,312,25099,6,0,P|394:298|342:318,1,97.9999970092774,2|2,0:0|0:0,0:0:0:0:
281,357,25591,2,0,P|237:374|190:363,1,97.9999970092774,2|2,0:0|0:0,0:0:0:0:
40,309,26247,2,0,P|110:289|368:168,1,342.999989532471,0|0,0:0|0:0,0:0:0:0:
512,99,27722,6,0,P|506:131|499:180,1,56,6|0,3:2|0:0,0:0:0:0:
431,199,28059,2,0,P|436:226|440:254,1,56,2|0,3:2|0:0,0:0:0:0:
507,308,28396,2,0,P|454:297|407:325,1,112,2|2,3:2|3:2,0:0:0:0:
318,310,28882,2,0,P|286:301|240:288,1,56,2|0,0:0|3:2,0:0:0:0:
259,205,29206,2,0,P|227:214|181:227,1,56,2|0,0:0|3:2,0:0:0:0:
157,295,29530,1,2,0:0:0:0:
27,187,29854,2,0,P|2:140|23:90,1,112,2|2,0:0|0:0,0:0:0:0:
87,38,30341,6,0,P|141:49|196:62,1,112,2|2,3:2|3:2,0:0:0:0:
277,39,30835,2,0,P|285:65|293:98,1,56,2|0,0:0|3:2,0:0:0:0:
359,143,31165,2,0,P|350:169|343:202,1,56,2|0,0:0|3:2,0:0:0:0:
281,253,31494,2,0,P|326:244|379:299,1,112,2|2,0:0|0:0,0:0:0:0:
419,354,31989,2,0,P|447:348|479:339,1,56,2|2,3:2|0:0,0:0:0:0:
502,261,32319,2,0,P|497:243|490:221,7,28,2|0|0|0|0|0|2|0,3:2|0:0|0:0|0:0|3:2|0:0|0:0|0:0,0:0:0:0:
467,201,32978,6,0,P|471:173|479:129,1,56,2|2,3:2|0:0,0:0:0:0:
502,66,33305,2,0,P|471:59|431:46,1,56,2|2,3:2|0:0,0:0:0:0:
380,0,33633,1,2,3:2:0:0:
321,59,33797,2,0,P|292:67|256:82,1,56,2|0,0:0|3:2,0:0:0:0:
220,147,34125,6,0,P|166:147|125:111,1,112,2|2,0:0|0:0,0:0:0:0:
54,65,34617,2,0,P|47:93|42:131,1,56,2|2,3:2|0:0,0:0:0:0:
2,193,34945,1,2,3:2:0:0:
67,245,35109,2,0,P|83:249|118:257,5,28,2|0|0|0|2|0,0:0|0:0|3:2|0:0|0:0|0:0,0:0:0:0:
127,277,35600,6,0,P|151:270|184:243,1,56,2|0,3:2|0:0,0:0:0:0:
224,182,35928,2,0,P|251:186|278:194,1,56,2|0,3:2|0:0,0:0:0:0:
342,249,36256,2,0,P|369:244|396:236,1,56,2|0,3:2|0:0,0:0:0:0:
476,265,36584,2,0,P|490:288|493:330,1,56,2|0,3:2|0:0,0:0:0:0:
439,378,36912,1,2,3:2:0:0:
439,378,37414,5,2,3:2:0:0:
365,337,37572,2,0,P|335:344|302:354,1,56,10|2,0:0|3:2,0:0:0:0:
243,309,37895,1,10,2:3:0:0:
243,309,38060,1,6,2:3:0:0:
161,365,38229,6,0,P|133:361|89:356,1,56,6|0,3:2|0:0,0:0:0:0:
21,352,38552,2,0,P|6:316|26:290,1,56,0|0,0:0|3:2,0:0:0:0:
84,240,38875,2,0,P|73:182|56:116,1,112,0|10,0:0|0:0,0:0:0:0:
0,59,39361,1,0,0:0:0:0:
0,59,39522,6,0,P|34:29|111:43,1,112,2|0,3:2|0:0,0:0:0:0:
183,111,40016,1,0,3:2:0:0:
183,111,40181,2,0,L|264:101,1,56,0|0,0:0|3:2,0:0:0:0:
317,59,40511,1,8,0:0:0:0:
426,10,40840,6,0,P|461:48|447:125,1,112,2|0,3:2|0:0,0:0:0:0:
404,161,41329,2,0,P|412:197|421:231,1,56,0|0,3:2|0:0,0:0:0:0:
477,265,41655,2,0,P|486:296|471:327,1,56,0|12,3:2|0:0,0:0:0:0:
394,353,41981,1,0,0:0:0:0:
320,284,42144,6,0,P|262:277|208:328,1,112,6|0,3:2|0:0,0:0:0:0:
167,378,42633,1,0,3:3:0:0:
70,347,42796,2,0,L|56:269,1,56,4|0,2:3|3:3,0:0:0:0:
109,212,43122,2,0,P|132:228|130:270,1,56,12|0,0:0|0:0,0:0:0:0:
32,197,43453,6,0,P|36:146|47:97,1,94.499997116089,6|0,3:2|0:0,0:0:0:0:
59,89,43782,2,0,P|24:86|-8:104,1,62.9999980773926,10|2,0:0|0:0,0:0:0:0:
118,145,44112,2,0,P|154:142|189:138,1,62.9999980773926,2|2,3:2|0:0,0:0:0:0:
241,60,44442,2,0,P|271:65|301:100,1,62.9999980773926,10|2,0:0|0:0,0:0:0:0:
286,181,44771,6,0,P|293:225|303:287,1,94.499997116089,2|0,3:2|0:0,0:0:0:0:
298,290,45097,2,0,P|262:295|236:321,1,62.9999980773926,10|2,0:0|0:0,0:0:0:0:
357,367,45424,2,0,L|473:379,2,94.499997116089,2|2|2,3:2|0:0|0:0,0:0:0:0:
408,279,46078,6,0,P|412:233|427:167,1,94.499997116089,2|0,3:2|0:0,0:0:0:0:
429,173,46405,2,0,P|471:176|493:203,1,62.9999980773926,8|0,0:0|0:0,0:0:0:0:
328,215,46732,2,0,L|216:199,1,94.499997116089,2|2,3:2|0:0,0:0:0:0:
119,298,47225,1,2,0:0:0:0:
51,207,47391,6,0,L|48:128,1,70,10|8,3:2|0:0,0:0:0:0:
48,119,47638,1,8,0:0:0:0:
47,105,47720,1,8,3:2:0:0:
135,36,47885,2,0,P|133:18|130:-8,2,35,8|8|8,0:0|0:0|3:2,0:0:0:0:
235,86,48215,2,0,P|255:83|299:81,2,35,8|8|0,0:0|0:0|3:2,0:0:0:0:
161,171,48544,5,8,0:0:0:0:
116,273,48709,1,8,3:2:0:0:
208,336,48874,1,8,3:2:0:0:
512,117,50028,6,0,B|434:119|446:67|367:77,1,154.000004699707,6|8,3:2|0:0,0:0:0:0:
273,130,50517,1,2,0:0:0:0:
273,130,50681,1,2,3:2:0:0:
341,213,50844,2,0,P|377:204|423:192,1,77.0000023498536,2|8,0:0|0:0,0:0:0:0:
500,259,51170,1,2,0:0:0:0:
415,326,51334,6,0,P|346:348|272:307,1,154.000004699707,2|10,3:2|0:0,0:0:0:0:
207,173,51823,2,0,P|220:209|213:247,1,77.0000023498536,2|0,0:0|3:2,0:0:0:0:
138,366,52150,2,0,P|162:336|198:324,1,77.0000023498536,2|8,0:0|0:0,0:0:0:0:
289,238,52476,1,2,0:0:0:0:
287,130,52640,6,0,P|209:150|115:174,1,154.000004699707,2|10,3:2|0:0,0:0:0:0:
56,238,53131,2,0,P|33:201|35:158,1,77.0000023498536,2|0,0:0|3:2,0:0:0:0:
82,72,53459,2,0,P|119:63|169:51,1,77.0000023498536,2|8,0:0|0:0,0:0:0:0:
264,38,53787,1,2,0:0:0:0:
264,38,53951,5,2,3:2:0:0:
359,87,54115,2,0,P|351:125|345:162,1,77.0000023498536,0|10,0:0|0:0,0:0:0:0:
229,262,54443,2,0,P|262:250|300:236,1,77.0000023498536,2|0,0:0|3:2,0:0:0:0:
445,290,54771,2,0,P|417:266|387:240,1,77.0000023498536,2|8,0:0|0:0,0:0:0:0:
265,162,55099,1,2,0:0:0:0:
144,240,55262,6,0,P|148:278|152:327,1,77.0000023498536,6|2,3:2|0:0,0:0:0:0:
66,382,55599,1,10,0:0:0:0:
66,382,55767,1,2,0:0:0:0:
4,287,55936,1,2,3:2:0:0:
60,195,56097,2,0,P|56:159|49:104,1,77.0000023498536,2|8,0:0|0:0,0:0:0:0:
3,27,56419,1,2,0:0:0:0:
145,1,56581,6,0,P|179:9|239:28,1,77.0000023498536,2|2,3:2|0:0,0:0:0:0:
275,123,56908,1,10,0:0:0:0:
275,123,57072,1,2,0:0:0:0:
356,52,57236,1,2,3:2:0:0:
424,135,57400,2,0,P|420:170|414:229,1,77.0000023498536,2|8,0:0|0:0,0:0:0:0:
497,291,57728,1,2,0:0:0:0:
391,372,57892,6,0,P|342:387|291:353,1,115.50000352478,4|0,3:2|0:0,0:0:0:0:
283,339,58220,2,0,P|287:300|293:262,1,77.0000023498536,10|0,0:0|0:0,0:0:0:0:
219,186,58548,2,0,P|202:190|180:197,3,38.5000011749268,12|8|8|8,3:2|0:0|0:0|0:0,0:0:0:0:
164,212,58876,2,0,P|147:207|127:199,3,38.5000011749268,10|8|8|8,3:2|0:0|0:0|0:0,0:0:0:0:
59,161,59193,6,0,P|33:183|38:248,1,77.0000023498536,6|0,3:2|0:0,0:0:0:0:
40,234,59441,2,0,P|50:267|61:310,1,77.0000023498536,6|0,3:2|2:0,0:0:0:0:
62,324,59690,2,0,P|133:304|192:356,1,154.000004699707,6|2,3:2|3:2,0:0:0:0:
297,370,60187,2,0,P|350:374|394:325,1,115.50000352478,8|0,0:0|0:0,0:0:0:0:
389,313,60514,6,0,P|400:243|416:157,1,154.000004699707,6|8,3:2|0:0,0:0:0:0:
491,84,61005,1,2,0:0:0:0:
491,84,61169,1,2,3:2:0:0:
401,23,61333,2,0,P|367:17|321:50,1,77.0000023498536,2|8,0:0|0:0,0:0:0:0:
286,135,61661,1,2,0:0:0:0:
225,46,61825,6,0,P|165:59|101:72,1,115.50000352478,2|0,3:2|0:0,0:0:0:0:
101,83,62153,1,10,0:0:0:0:
27,150,62317,2,0,P|1:119|15:58,1,77.0000023498536,2|0,0:0|3:2,0:0:0:0:
117,185,62645,2,0,P|101:229|77:298,1,115.50000352478,2|0,0:0|0:0,0:0:0:0:
58,306,62973,1,2,0:0:0:0:
151,359,63136,6,0,P|195:366|226:341,1,77.0000023498536,2|2,3:2|0:0,0:0:0:0:
284,262,63464,1,10,0:0:0:0:
284,262,63628,1,2,0:0:0:0:
362,336,63792,2,0,P|399:328|451:320,1,77.0000023498536,2|0,3:2|0:0,0:0:0:0:
507,238,64120,2,0,P|527:195|496:137,1,115.50000352478,10|0,0:0|0:0,0:0:0:0:
473,128,64448,6,0,P|478:98|494:42,1,77.0000023498536,2|2,3:2|0:0,0:0:0:0:
392,6,64776,1,8,0:0:0:0:
304,67,64940,2,0,P|261:72|228:47,1,77.0000023498536,2|0,0:0|3:2,0:0:0:0:
131,5,65268,1,2,0:0:0:0:
63,86,65432,2,0,P|70:133|82:202,1,115.50000352478,8|0,0:0|0:0,0:0:0:0:
94,204,65759,6,0,P|130:221|180:203,1,77.0000023498536,6|2,3:2|0:0,0:0:0:0:
262,163,66087,1,10,0:0:0:0:
262,163,66251,1,2,0:0:0:0:
327,248,66415,1,2,3:2:0:0:
250,324,66579,2,0,P|212:326|174:352,1,77.0000023498536,2|8,0:0|0:0,0:0:0:0:
71,340,66907,1,2,0:0:0:0:
90,233,67071,6,0,P|82:199|64:135,1,77.0000023498536,2|2,3:2|0:0,0:0:0:0:
41,58,67399,1,10,0:0:0:0:
41,58,67563,1,2,0:0:0:0:
146,82,67727,1,2,3:2:0:0:
233,18,67891,2,0,P|267:10|331:37,1,77.0000023498536,2|8,0:0|0:0,0:0:0:0:
383,95,68218,1,2,0:0:0:0:
323,174,68382,6,0,P|283:142|216:158,1,115.50000352478,6|0,3:2|0:0,0:0:0:0:
214,163,68706,2,0,P|221:197|230:247,1,77.0000023498536,10|0,0:0|0:0,0:0:0:0:
205,357,69030,6,0,P|253:368|312:328,1,115.50000352478,6|0,3:2|0:0,0:0:0:0:
317,316,69359,2,0,P|361:308|405:331,1,77.0000023498536,10|0,0:0|0:0,0:0:0:0:
485,347,69689,6,0,P|465:269|444:187,1,154.000004699707,6|8,3:2|0:2,0:0:0:0:
369,141,70178,1,8,0:2:0:0:
376,130,70259,1,8,0:2:0:0:
385,115,70341,2,0,P|389:96|396:68,3,35,10|8|8|8,3:2|0:0|0:0|0:0,0:0:0:0:
407,68,70665,2,0,P|402:47|395:22,3,35,8|8|8|8,3:2|3:2|3:2|3:2,0:0:0:0:
358,15,70989,6,0,P|293:3|234:67,1,140,6|8,3:2|0:0,0:0:0:0:
173,129,71486,2,0,P|196:196|216:271,1,140,0|0,3:2|3:2,0:0:0:0:
154,339,71983,2,0,P|120:348|87:338,1,70,10|0,0:0|0:0,0:0:0:0:
8,280,72314,1,2,3:2:0:0:
8,280,72480,1,0,3:2:0:0:
54,193,72646,2,0,P|41:160|26:122,1,70,8|0,0:0|3:2,0:0:0:0:
35,28,72977,6,0,B|110:24|89:66|185:54,1,140,2|8,0:0|0:0,0:0:0:0:
253,4,73466,1,0,0:0:0:0:
340,48,73629,2,0,P|377:103|349:164,1,140,2|8,3:2|0:0,0:0:0:0:
357,262,74118,2,0,P|296:243|211:227,1,140,0|0,3:2|3:2,0:0:0:0:
143,168,74607,1,10,0:0:0:0:
65,227,74770,6,0,P|32:286|86:356,1,140,2|2,0:0|3:2,0:0:0:0:
151,383,75255,2,0,P|186:374|244:362,1,70,10|0,0:0|3:2,0:0:0:0:
297,307,75578,2,0,P|329:318|366:325,1,70,8|0,0:0|3:2,0:0:0:0:
455,361,75900,2,0,P|459:341|465:313,3,35,8|8|8|8,3:2|3:2|3:2|3:2,0:0:0:0:
493,290,76223,6,0,P|512:259|449:164,1,140,14|2,0:0|3:2,0:0:0:0:
403,103,76723,1,12,0:0:0:0:
325,161,76889,2,0,P|291:171|258:184,1,70,2|0,3:2|3:2,0:0:0:0:
186,251,77223,1,10,2:3:0:0:
186,251,77389,1,10,2:3:0:0:
98,206,77556,6,0,P|53:178|157:21,1,280,6|0,3:2|0:0,0:0:0:0:
204,63,78373,1,0,3:2:0:0:
225,54,78454,1,0,3:2:0:0:
242,41,78535,2,0,P|274:47|329:65,1,70,8|2,0:0|0:0,0:0:0:0:
404,114,78859,6,0,P|373:128|361:189,1,70,6|0,3:2|0:0,0:0:0:0:
398,247,79188,1,8,0:0:0:0:
476,326,79353,2,0,L|328:345,1,140,2|0,0:0|3:2,0:0:0:0:
241,321,79848,2,0,P|195:303|160:318,1,70,10|2,0:0|0:0,0:0:0:0:
94,361,80177,5,0,3:2:0:0:
29,267,80342,2,0,P|39:205|56:117,1,140,2|2,3:2|0:0,0:0:0:0:
129,43,80837,6,0,P|66:16|1:38,1,140,2|10,3:2|0:0,0:0:0:0:
135,128,81315,1,0,3:2:0:0:
237,66,81475,2,0,P|228:113|219:207,1,140,2|8,3:2|0:0,0:0:0:0:
232,301,81957,2,0,P|272:312|304:297,1,70,2|0,0:0|3:2,0:0:0:0:
385,193,82285,2,0,P|355:222|352:257,1,70,2|8,3:0|0:0,0:0:0:0:
404,384,82613,2,0,P|393:343|364:323,1,70,2|0,3:2|3:2,0:0:0:0:
297,302,82943,5,2,3:2:0:0:
427,260,83110,2,0,P|434:189|444:113,1,140,14|8,3:2|3:2,0:0:0:0:
478,15,83610,1,8,0:0:0:0:
469,27,83693,1,8,0:0:0:0:
460,38,83777,2,0,L|394:44,3,35,8|8|8|8,3:2|3:2|3:2|3:2,0:0:0:0:
406,58,84110,6,0,P|368:72|279:11,1,154.000004699707,6|10,3:2|0:0,0:0:0:0:
209,97,84615,2,0,P|133:105|50:122,1,154.000004699707,2|0,0:0|0:0,0:0:0:0:
5,208,85106,2,0,P|-15:247|37:339,1,154.000004699707,10|0,0:0|3:2,0:0:0:0:
133,373,85590,2,0,P|208:363|289:357,1,154.000004699707,2|2,0:0|0:0,0:0:0:0:
368,263,86074,2,0,P|399:291|401:335,1,77.0000023498536,2|0,3:2|3:2,0:0:0:0:
280,260,86396,2,0,P|296:216|316:173,1,77.0000023498536,10|0,0:0|3:0,0:0:0:0:
408,136,86734,5,14,3:2:0:0:
401,118,86816,1,0,3:2:0:0:
394,100,86898,1,2,3:2:0:0:
458,14,87063,1,0,3:2:0:0:
351,0,87228,2,0,P|304:9|249:15,1,77.0000023498536,14|2,3:2|3:2,0:0:0:0:
236,114,87558,1,0,3:2:0:0:
217,108,87640,1,0,3:2:0:0:
191,102,87723,6,0,P|153:97|92:86,1,77.0000023498536,14|0,3:2|3:2,0:0:0:0:
32,20,88052,1,0,3:2:0:0:
0,122,88217,2,0,P|13:174|28:274,1,154.000004699707,14|0,0:0|3:2,0:0:0:0:
40,381,88712,5,14,3:2:0:0:
164,309,88876,1,14,3:2:0:0:
297,372,89041,1,14,3:2:0:0:
