osu file format v14

[General]
AudioFilename: audio.mp3
AudioLeadIn: 0
PreviewTime: 49121
Countdown: 0
SampleSet: Soft
StackLeniency: 0.2
Mode: 0
LetterboxInBreaks: 0
WidescreenStoryboard: 1

[Editor]
Bookmarks: 2822,11994,17231,27722,38229,50028,60514,70989,78859
DistanceSpacing: 1
BeatDivisor: 4
GridSize: 32
TimelineZoom: 2.1

[Metadata]
Title:RESISTER (TV Size)
TitleUnicode:RESISTER (TV Size)
Artist:ASCA
ArtistUnicode:ASCA
Creator:Gweon Sua
Version:XAHLT & WANPACHI'S NORMAL
Source:ソードアート・オンライン アリシゼーション
Tags:xahlt kuon- wanpachi cycopton asukow shayks [_lost_] conner c_o_n_n_e_r Sarawatlism nevir nevlr Adinda Esutarosa 大倉明日香 あすか Ōkura okura oukura Asuka alice a.l.i.c.e. kirito asuna eugeo アスナ キリト アリス ユージオ sao sword art online alicization jrock japanese rock j-rock anime op opening season 3 three III SAO-A Project SACRA MUSIC Sony Entertainment
BeatmapID:3602321
BeatmapSetID:1757778

[Difficulty]
HPDrainRate:3
CircleSize:3
OverallDifficulty:4
ApproachRate:5
SliderMultiplier:0.999999999999999
SliderTickRate:1

[Events]
//Background and Video events
0,0,"alice.jpg",0,0
Video,1190,"VD.mp4"
//Break Periods
//Storyboard Layer 0 (Background)
//Storyboard Layer 1 (Fail)
//Storyboard Layer 2 (Pass)
//Storyboard Layer 3 (Foreground)
//Storyboard Layer 4 (Overlay)
//Storyboard Sound Samples

[TimingPoints]
-2423,327.868852459016,4,2,1,55,1,0
2822,-111.111111111111,4,2,1,55,0,0
7737,309.278350515464,4,2,1,55,1,0
7737,-111.111111111111,4,2,1,55,0,0
8046,327.868852459016,4,2,1,70,1,0
8046,-100,4,2,1,70,0,0
10668,322.58064516129,4,2,1,70,1,0
10668,-100,4,2,1,70,0,0
11313,340.909090909091,4,2,1,70,1,0
11313,-100,4,2,1,70,0,0
11994,326.086956521739,4,2,1,80,1,0
11994,-100,4,2,1,80,0,0
13298,324.324324324324,4,2,1,80,1,0
14595,331.491712707182,4,2,1,80,1,0
14595,-100,4,2,1,80,0,0
16086,321.71581769437,4,2,1,80,1,0
16246,321.71581769437,4,2,1,80,1,0
17050,363.636363636364,4,2,1,80,1,0
17231,327.868852459016,4,2,1,55,1,0
17231,-111.111111111111,4,2,1,55,0,0
27722,337.078651685393,4,2,1,70,1,0
27722,-111.111111111111,4,2,1,70,0,0
28396,324.324324324324,4,2,1,70,1,0
28882,-111.111111111111,4,2,1,70,0,0
29044,324.324324324324,4,2,1,70,1,0
29044,-111.111111111111,4,2,1,70,0,0
30341,329.67032967033,4,2,1,70,1,0
30341,-111.111111111111,4,2,1,70,0,0
32978,327.868852459016,4,2,1,75,1,0
32978,-111.111111111111,4,2,1,75,0,0
36912,335.195530726257,4,2,1,75,1,0
37414,317.460317460317,4,2,1,75,1,0
37731,329.67032967033,4,2,1,75,1,0
38060,338.983050847458,4,2,1,75,1,0
38229,323.450134770889,4,2,1,65,1,0
39522,329.67032967033,4,2,1,65,1,0
40840,326.086956521739,4,2,1,65,1,0
43122,331.491712707182,4,2,1,65,1,0
43453,329.67032967033,4,2,1,75,1,0
44771,326.975476839237,4,2,1,75,1,0
47059,332.409972299169,4,2,1,75,1,0
47391,329.67032967033,4,2,1,75,1,0
50028,326.530612244898,4,2,1,85,1,1
50028,-90.9090909090909,4,2,1,85,0,1
52640,327.868852459016,4,2,1,85,1,1
52640,-90.9090909090909,4,2,1,85,0,1
55262,337.078651685393,4,2,1,85,1,1
55262,-90.9090909090909,4,2,1,85,0,1
55936,322.58064516129,4,2,1,85,1,1
55936,-90.9090909090909,4,2,1,85,0,1
56581,327.868852459016,4,2,1,85,1,1
56581,-90.9090909090909,4,2,1,85,0,1
58138,-100,4,2,1,5,0,1
58220,-100,4,2,1,85,0,1
58466,-100,4,2,1,5,0,1
58548,-100,4,2,1,85,0,1
58876,317.460317460317,4,2,1,85,1,1
58876,-90.9090909090909,4,2,1,85,0,1
59193,331.491712707182,4,2,1,85,1,1
59193,-90.9090909090909,4,2,1,85,0,1
60187,327.868852459016,4,2,1,85,1,1
60187,-90.9090909090909,4,2,1,85,0,1
60514,327.868852459016,4,2,1,85,1,1
60514,-90.9090909090909,4,2,1,85,0,1
64038,-90.9090909090909,4,2,1,5,0,1
64120,-90.9090909090909,4,2,1,85,0,1
68382,324.324324324324,4,2,1,85,1,1
68382,-90.9090909090909,4,2,1,85,0,1
68625,-100,4,2,1,5,0,1
68706,-100,4,2,1,85,0,1
69030,329.67032967033,4,2,1,85,1,1
69030,-90.9090909090909,4,2,1,85,0,1
69277,-100,4,2,1,5,0,1
69358,-100,4,2,1,85,0,1
69689,326.086956521739,4,2,1,85,1,1
69689,-90.9090909090909,4,2,1,85,0,1
70341,324.324324324324,4,2,1,85,1,1
70341,-90.9090909090909,4,2,1,85,0,1
70989,331.491712707182,4,2,1,80,1,0
70989,-100,4,2,1,80,0,0
72977,326.086956521739,4,2,1,80,1,0
72977,-100,4,2,1,80,0,0
73629,326.086956521739,4,2,1,80,1,0
73629,-100,4,2,1,80,0,0
74933,322.58064516129,4,2,1,80,1,0
76223,333.333333333333,4,2,1,80,1,0
77556,-98.0392156862745,4,2,1,75,0,0
78223,300,4,2,1,75,1,0
78373,324.324324324324,4,2,1,75,1,0
78859,329.67032967033,4,2,1,80,1,0
80837,319.148936170213,4,2,1,80,1,0
81475,319.148936170213,4,2,1,80,1,0
81794,327.868852459016,4,2,1,80,1,0
82610,-101.010101010101,4,2,1,80,0,0
82777,333.333333333333,4,2,1,80,1,0
84110,337.078651685393,4,2,1,80,1,0
84615,-98.0392156862745,4,2,1,80,0,0
84784,322.58064516129,4,2,1,80,1,0
85429,322.58064516129,4,2,1,80,1,0
86396,338.983050847458,4,2,1,80,1,0
86734,329.67032967033,3,2,1,80,1,0

[Colours]
Combo1 : 14,63,177
Combo2 : 244,215,96

[HitObjects]
39,47,2822,6,0,B|106:44|103:92|189:84,1,134.999995880127,6|2,0:0|0:0,0:0:0:0:
210,73,3478,2,0,P|201:144|206:190,1,89.999997253418,0|0,0:0|0:0,0:0:0:0:
168,245,4134,2,0,P|217:258|265:312,1,89.999997253418,2|2,0:0|0:0,0:0:0:0:
273,318,4626,2,0,P|326:277|391:262,1,134.999995880127,2|0,0:0|0:0,0:0:0:0:
473,225,5445,6,0,P|485:161|499:120,1,89.999997253418,2|2,0:0|0:0,0:0:0:0:
510,95,5937,1,2,0:0:0:0:
452,25,6265,1,2,0:0:0:0:
371,65,6593,2,0,P|271:62|135:24,1,224.999993133545,2|2,0:0|0:0,0:0:0:0:
16,169,8046,6,0,P|34:218|44:283,1,99.9999999999999,6|2,3:2|0:0,0:0:0:0:
114,334,8701,2,0,L|182:326,1,50,10|8,0:0|2:3,0:0:0:0:
201,295,9029,2,0,L|269:303,1,50,6|2,2:3|3:2,0:0:0:0:
292,329,9357,1,10,0:0:0:0:
292,329,10668,6,0,L|360:321,2,50,8|0|8,2:3|3:2|2:3,0:0:0:0:
257,297,11151,1,4,2:3:0:0:
257,297,11313,2,0,B|245:216|281:238|267:131,1,150,10|0,0:0|0:0,0:0:0:0:
311,118,11994,5,6,3:2:0:0:
260,31,12320,2,0,P|196:22|146:70,1,99.9999999999999,10|8,0:0|0:0,0:0:0:0:
133,75,12809,2,0,P|81:67|28:60,1,99.9999999999999,2|0,3:2|3:2,0:0:0:0:
2,99,13298,1,10,0:0:0:0:
77,172,13622,1,8,0:0:0:0:
77,171,13784,2,0,P|65:220|54:269,1,99.9999999999999,2|2,3:0|3:2,0:0:0:0:
22,308,14270,1,10,0:0:0:0:
101,365,14595,6,0,P|146:376|189:348,1,99.9999999999999,10|10,0:0|0:0,0:0:0:0:
241,263,15257,2,0,P|266:269|310:283,1,50,10|6,2:3|2:3,0:0:0:0:
335,294,15589,1,10,0:0:0:0:
335,294,15755,2,0,P|369:261|365:200,1,99.9999999999999,6|2,3:2|3:2,0:0:0:0:
341,170,16246,1,10,0:0:0:0:
248,132,16567,2,0,P|222:138|186:151,1,50,10|8,0:0|2:3,0:0:0:0:
158,174,16889,2,0,P|129:171|89:159,1,50,4|4,2:3|2:3,0:0:0:0:
73,130,17231,6,0,L|87:29,1,89.999997253418,6|2,3:2|0:0,0:0:0:0:
106,1,17722,2,0,P|152:39|201:44,1,89.999997253418,2|2,0:0|0:0,0:0:0:0:
251,101,18378,2,0,P|293:88|325:56,1,89.999997253418,2|2,0:0|0:0,0:0:0:0:
412,32,19034,2,0,L|424:121,1,89.999997253418,2|2,0:0|0:0,0:0:0:0:
487,185,19690,1,2,0:0:0:0:
487,185,19853,6,0,P|460:226|459:279,1,89.999997253418,2|2,0:0|0:0,0:0:0:0:
466,309,20345,1,2,0:0:0:0:
381,339,20673,1,2,0:0:0:0:
304,291,21001,2,0,B|200:283|223:348|81:332,1,224.999993133545,0|0,0:0|0:0,0:0:0:0:
30,210,22312,1,2,0:0:0:0:
30,210,22476,6,0,L|46:104,1,89.999997253418,2|2,0:0|0:0,0:0:0:0:
75,89,22968,2,0,P|124:88|164:126,1,89.999997253418,0|2,0:0|0:0,0:0:0:0:
200,189,23624,1,2,0:0:0:0:
200,189,23788,2,0,L|216:295,1,89.999997253418,2|2,0:0|0:0,0:0:0:0:
245,310,24280,2,0,P|294:311|334:273,1,89.999997253418,0|2,0:0|0:0,0:0:0:0:
413,269,24935,1,2,0:0:0:0:
413,269,25099,6,0,L|429:163,1,89.999997253418,2|2,0:0|0:0,0:0:0:0:
405,139,25591,1,2,0:0:0:0:
469,76,25919,1,2,0:0:0:0:
397,20,26247,2,0,B|305:27|305:27|273:58|273:58|167:72,1,224.999993133545,0|0,0:0|0:0,0:0:0:0:
32,163,27722,6,0,P|20:119|-1:67,2,89.999997253418,6|2|2,3:2|3:2|3:2,0:0:0:0:
6,262,28720,1,2,3:2:0:0:
6,262,28882,2,0,P|67:269|134:284,1,89.999997253418,2|2,0:0|0:0,0:0:0:0:
172,320,29530,1,2,0:0:0:0:
243,264,29854,2,0,P|256:222|244:180,1,89.999997253418,2|2,0:0|0:0,0:0:0:0:
210,151,30341,6,0,P|214:106|222:48,1,89.999997253418,2|2,3:2|3:2,0:0:0:0:
238,20,30835,1,2,0:0:0:0:
314,66,31165,1,2,0:0:0:0:
392,23,31494,2,0,P|441:13|473:88,1,134.999995880127,2|2,0:0|3:2,0:0:0:0:
458,163,32319,2,0,P|451:206|441:267,1,89.999997253418,2|0,3:2|3:2,0:0:0:0:
391,325,32978,5,2,3:2:0:0:
309,287,33305,1,2,3:2:0:0:
232,334,33633,2,0,P|206:341|115:370,1,89.999997253418,2|0,3:2|3:2,0:0:0:0:
101,347,34125,2,0,P|74:315|80:263,1,89.999997253418,2|2,0:0|0:0,0:0:0:0:
103,232,34617,1,2,3:2:0:0:
35,172,34945,2,0,P|39:127|53:50,1,89.999997253418,2|0,3:2|3:2,0:0:0:0:
107,17,35600,5,2,3:2:0:0:
177,73,35928,1,2,3:2:0:0:
258,35,36256,1,2,3:2:0:0:
334,82,36584,2,0,P|378:91|421:101,1,89.999997253418,2|2,3:2|3:2,0:0:0:0:
489,229,37414,5,2,3:2:0:0:
489,229,37572,2,0,P|462:237|419:251,1,50,10|2,0:0|3:2,0:0:0:0:
403,272,37895,2,0,P|381:264|356:256,1,50,10|6,2:3|2:3,0:0:0:0:
317,215,38229,5,6,3:2:0:0:
229,262,38552,2,0,P|237:316|226:383,2,99.9999999999999,0|0|10,0:0|0:0|0:0,0:0:0:0:
198,168,39522,2,0,P|190:114|201:47,1,99.9999999999999,2|0,3:2|0:0,0:0:0:0:
231,32,40016,1,0,3:2:0:0:
231,32,40181,1,0,0:0:0:0:
134,3,40511,1,8,0:0:0:0:
99,97,40840,6,0,P|67:144|8:144,1,99.9999999999999,2|0,3:2|0:0,0:0:0:0:
1,193,41329,2,0,P|71:217|110:233,1,99.9999999999999,0|0,3:2|3:2,0:0:0:0:
139,249,41818,1,12,0:0:0:0:
202,333,42144,1,6,3:2:0:0:
202,333,42307,2,0,P|248:314|296:299,1,99.9999999999999,8|0,0:3|3:3,0:0:0:0:
331,264,42796,2,0,P|354:271|378:280,1,50,4|0,2:3|3:3,0:0:0:0:
416,311,43122,1,12,0:0:0:0:
477,231,43453,5,6,3:2:0:0:
477,231,43617,2,0,P|500:172|450:120,1,99.9999999999999,2|2,0:0|0:0,0:0:0:0:
445,111,44112,2,0,P|417:119|373:125,1,50,2|2,3:2|0:0,0:0:0:0:
346,130,44442,1,10,0:0:0:0:
253,90,44771,2,0,B|234:184|270:150|246:255,1,150,2|0,3:2|0:0,0:0:0:0:
228,283,45424,2,0,P|264:292|299:305,2,74.9999999999999,2|2|2,3:2|0:0|0:0,0:0:0:0:
189,250,46078,6,0,P|136:294|92:291,1,99.9999999999999,2|8,3:2|0:0,0:0:0:0:
19,247,46732,2,0,P|31:211|40:175,1,74.9999999999999,2|2,3:2|0:0,0:0:0:0:
111,147,47225,1,2,0:0:0:0:
111,147,47391,2,0,B|263:103|227:187|419:128,1,300,10|0,3:2|3:2,0:0:0:0:
452,54,48709,1,8,3:2:0:0:
452,54,48874,1,8,3:2:0:0:
452,54,50028,6,0,P|419:23|351:33,1,110.000003356934,6|8,3:2|0:0,0:0:0:0:
312,58,50517,1,2,0:0:0:0:
312,58,50681,2,0,P|279:51|238:37,1,55.0000016784668,2|2,3:2|0:0,0:0:0:0:
155,7,51170,1,2,0:0:0:0:
155,7,51334,2,0,P|141:59|131:126,1,110.000003356934,2|10,3:2|0:0,0:0:0:0:
88,147,51823,2,0,P|64:173|76:248,1,110.000003356934,2|2,0:0|0:0,0:0:0:0:
53,351,52476,1,2,0:0:0:0:
53,351,52640,6,0,P|103:345|175:357,1,110.000003356934,2|10,3:2|0:0,0:0:0:0:
208,323,53131,1,2,0:0:0:0:
304,375,53459,1,2,0:0:0:0:
387,302,53787,1,2,0:0:0:0:
387,302,53951,2,0,P|379:272|367:234,1,55.0000016784668,2|0,3:2|0:0,0:0:0:0:
389,196,54279,1,10,0:0:0:0:
389,196,54443,1,2,0:0:0:0:
340,97,54771,2,0,P|287:86|243:117,1,110.000003356934,2|2,0:0|0:0,0:0:0:0:
230,166,55262,5,6,3:2:0:0:
174,261,55599,1,10,0:0:0:0:
69,227,55936,1,2,3:2:0:0:
69,227,56097,2,0,P|78:171|94:106,1,110.000003356934,2|2,0:0|0:0,0:0:0:0:
65,70,56581,1,2,3:2:0:0:
157,10,56908,1,10,0:0:0:0:
248,70,57236,1,2,3:2:0:0:
247,70,57400,2,0,P|302:65|356:52,1,110.000003356934,2|2,0:0|0:0,0:0:0:0:
405,28,57892,5,4,3:2:0:0:
504,75,58220,1,10,0:0:0:0:
510,184,58548,1,12,3:2:0:0:
412,241,58876,1,10,3:2:0:0:
310,212,59193,2,0,P|325:263|336:311,2,82.5000025177002,6|6|6,3:2|3:2|3:2,0:0:0:0:
216,165,60021,1,2,3:2:0:0:
216,165,60187,1,8,0:0:0:0:
171,64,60514,6,0,P|106:77|44:90,1,110.000003356934,6|8,3:2|0:0,0:0:0:0:
40,135,61005,1,2,0:0:0:0:
40,135,61169,2,0,P|25:159|11:213,1,55.0000016784668,2|2,3:2|0:0,0:0:0:0:
64,282,61661,1,2,0:0:0:0:
64,282,61825,2,0,B|125:289|101:317|172:323,1,110.000003356934,2|10,3:2|0:0,0:0:0:0:
209,354,62317,2,0,P|275:331|324:327,1,110.000003356934,2|2,0:0|0:0,0:0:0:0:
406,265,62973,1,2,0:0:0:0:
406,265,63136,6,0,P|419:230|438:198,1,55.0000016784668,2|2,3:2|0:0,0:0:0:0:
415,160,63464,2,0,P|427:135|436:109,1,55.0000016784668,10|2,0:0|0:0,0:0:0:0:
417,57,63792,1,2,3:2:0:0:
311,26,64120,1,10,0:0:0:0:
241,111,64448,2,0,P|259:173|268:230,1,110.000003356934,2|8,3:2|0:0,0:0:0:0:
298,262,64940,2,0,P|225:272|198:327,1,110.000003356934,2|2,0:0|0:0,0:0:0:0:
104,342,65595,1,2,0:0:0:0:
104,342,65759,5,6,3:2:0:0:
27,262,66087,1,10,0:0:0:0:
80,165,66415,1,2,3:2:0:0:
80,165,66579,2,0,P|90:102|108:41,1,110.000003356934,2|2,0:0|0:0,0:0:0:0:
149,28,67071,1,2,3:2:0:0:
237,93,67399,1,10,0:0:0:0:
335,43,67727,1,2,3:2:0:0:
335,43,67891,2,0,P|409:33|444:87,1,110.000003356934,2|2,0:0|0:0,0:0:0:0:
477,84,68382,6,0,P|449:149|441:200,1,110.000003356934,6|10,3:2|0:0,0:0:0:0:
340,223,69030,1,6,3:2:0:0:
312,116,69359,1,10,0:0:0:0:
204,85,69689,2,0,B|143:91|163:119|76:140,1,110.000003356934,6|8,3:2|0:2,0:0:0:0:
8,184,70341,2,0,P|23:219|33:260,1,55.0000016784668,2|8,3:2|0:0,0:0:0:0:
72,267,70665,2,0,P|63:293|52:318,1,55.0000016784668,8|8,3:2|3:2,0:0:0:0:
88,350,70989,6,0,P|125:373|193:345,1,99.9999999999999,6|8,3:2|0:0,0:0:0:0:
210,323,71486,2,0,P|259:327|309:334,1,99.9999999999999,0|0,3:2|3:2,0:0:0:0:
351,361,71983,1,10,0:0:0:0:
426,295,72314,2,0,P|446:261|415:187,1,99.9999999999999,2|8,3:2|0:0,0:0:0:0:
353,141,72977,2,0,P|308:150|243:170,1,99.9999999999999,2|8,0:0|0:0,0:0:0:0:
185,234,73629,6,0,P|137:246|92:225,1,99.9999999999999,2|8,3:2|0:0,0:0:0:0:
60,186,74118,2,0,P|67:137|74:88,1,99.9999999999999,0|0,3:2|3:2,0:0:0:0:
110,52,74607,1,10,0:0:0:0:
200,97,74933,2,0,P|226:92|268:78,1,50,0|2,3:0|3:2,0:0:0:0:
280,47,75255,1,10,0:0:0:0:
376,18,75578,1,8,0:0:0:0:
444,89,75900,2,0,P|438:117|430:154,1,50,8|0,3:2|3:2,0:0:0:0:
411,181,76223,6,0,P|449:179|496:227,2,99.9999999999999,14|2|2,0:0|3:2|3:2,0:0:0:0:
337,248,77223,2,0,P|310:255|273:267,1,50,10|10,2:3|2:3,0:0:0:0:
260,303,77556,2,0,B|206:332|115:271|212:247|106:174|35:223,1,250,6|0,3:2|3:2,0:0:0:0:
25,248,78535,1,8,0:0:0:0:
0,152,78859,6,0,P|24:99|35:53,1,99.9999999999999,6|8,3:2|0:0,0:0:0:0:
76,32,79353,2,0,B|135:39|116:65|177:77,1,99.9999999999999,2|0,0:0|3:2,0:0:0:0:
211,104,79848,1,10,0:0:0:0:
211,104,80012,1,2,0:0:0:0:
298,54,80342,2,0,P|359:62|388:112,1,99.9999999999999,2|2,3:2|0:0,0:0:0:0:
384,140,80837,1,2,3:2:0:0:
455,210,81156,1,10,0:0:0:0:
402,295,81475,6,0,P|354:303|275:321,1,99.9999999999999,2|8,3:2|0:0,0:0:0:0:
259,335,81957,1,2,0:0:0:0:
177,277,82285,1,2,3:0:0:0:
82,306,82613,2,0,P|35:273|34:218,1,99.9999999999999,2|0,3:2|0:0,0:0:0:0:
58,193,83110,1,14,3:2:0:0:
38,95,83443,2,0,P|78:88|108:82,1,50,8|8,3:2|0:0,0:0:0:0:
135,70,83777,2,0,P|159:74|184:78,1,50,8|8,3:2|3:2,0:0:0:0:
224,108,84110,6,0,P|192:158|196:217,1,99.9999999999999,6|10,3:2|0:0,0:0:0:0:
214,240,84615,2,0,P|214:300|210:348,1,99.9999999999999,2|2,0:0|0:0,0:0:0:0:
248,369,85106,1,10,0:0:0:0:
339,327,85429,1,0,3:2:0:0:
339,327,85590,2,0,B|398:338|379:357|442:374,1,99.9999999999999,2|2,0:0|0:0,0:0:0:0:
474,351,86074,1,2,3:2:0:0:
448,259,86396,1,10,0:0:0:0:
491,166,86734,6,0,P|500:114|511:52,1,99.9999999999999,14|0,3:2|3:2,0:0:0:0:
477,27,87228,2,0,P|423:21|385:73,1,99.9999999999999,14|0,3:2|3:2,0:0:0:0:
365,93,87723,1,14,3:2:0:0:
273,132,88052,1,0,3:2:0:0:
273,132,88217,2,0,B|216:123|242:101|165:83,1,99.9999999999999,14|0,0:0|3:2,0:0:0:0:
144,118,88712,2,0,P|139:149|124:187,1,50,14|14,3:2|3:2,0:0:0:0:
104,207,89041,1,14,3:2:0:0:
