osu file format v14

[General]
AudioFilename: audio.mp3
AudioLeadIn: 0
PreviewTime: 49121
Countdown: 0
SampleSet: Soft
StackLeniency: 0.7
Mode: 0
LetterboxInBreaks: 0
WidescreenStoryboard: 1

[Editor]
DistanceSpacing: 1.2
BeatDivisor: 4
GridSize: 32
TimelineZoom: 1.3

[Metadata]
Title:RESISTER (TV Size)
TitleUnicode:RESISTER (TV Size)
Artist:ASCA
ArtistUnicode:ASCA
Creator:Gweon Sua
Version:LOST'S EXTRA
Source:ソードアート・オンライン アリシゼーション
Tags:xahlt kuon- wanpachi cycopton asukow shayks [_lost_] conner c_o_n_n_e_r Sarawatlism nevir nevlr Adinda Esutarosa 大倉明日香 あすか Ōkura okura oukura Asuka alice a.l.i.c.e. kirito asuna eugeo アスナ キリト アリス ユージオ sao sword art online alicization jrock japanese rock j-rock anime op opening season 3 three III SAO-A Project SACRA MUSIC Sony Entertainment
BeatmapID:3608598
BeatmapSetID:1757778

[Difficulty]
HPDrainRate:5.5
CircleSize:4.3
OverallDifficulty:8.3
ApproachRate:9.2
SliderMultiplier:1.93
SliderTickRate:1

[Events]
//Background and Video events
0,0,"alice.jpg",0,0
Video,1190,"VD.mp4"
//Break Periods
//Storyboard Layer 0 (Background)
//Storyboard Layer 1 (Fail)
//Storyboard Layer 2 (Pass)
//Storyboard Layer 3 (Foreground)
//Storyboard Layer 4 (Overlay)
//Storyboard Sound Samples

[TimingPoints]
-2423,327.868852459016,4,2,1,55,1,0
2822,-142.857142857143,4,2,1,55,0,0
7737,309.278350515464,4,2,1,55,1,0
8046,327.868852459016,4,2,1,70,1,0
10668,322.58064516129,4,2,1,70,1,0
10829,-181.818181818181,4,2,1,70,0,0
11313,340.909090909091,4,2,1,70,1,0
11313,-181.818181818181,4,2,1,70,0,0
11994,326.086956521739,4,2,1,80,1,0
11994,-90.9090909090909,4,2,1,80,0,0
12238,-90.9090909090909,4,2,1,80,0,0
12320,-90.9090909090909,4,2,1,80,0,0
13298,324.324324324324,4,2,1,80,1,0
13298,-90.9090909090909,4,2,1,80,0,0
14595,331.491712707182,4,2,1,80,1,0
15257,-90.9090909090909,4,2,1,80,0,0
16003,-90.9090909090909,4,2,1,5,0,0
16086,321.71581769437,4,2,1,80,1,0
16246,321.71581769437,4,2,1,80,1,0
16246,-90.9090909090909,4,2,1,80,0,0
17050,363.636363636364,4,2,1,80,1,0
17231,327.868852459016,4,2,1,55,1,0
17231,-181.818181818182,4,2,1,55,0,0
27722,337.078651685393,4,2,1,70,1,0
27722,-111.111111111111,4,2,1,70,0,0
28396,324.324324324324,4,2,1,70,1,0
28396,-111.111111111111,4,2,1,70,0,0
29044,324.324324324324,4,2,1,70,1,0
29044,-111.111111111111,4,2,1,70,0,0
30341,329.67032967033,4,2,1,70,1,0
30341,-111.111111111111,4,2,1,70,0,0
32978,327.868852459016,4,2,1,75,1,0
32978,-111.111111111111,4,2,1,75,0,0
35600,-83.3333333333333,4,2,1,75,0,0
35928,-90.9090909090909,4,2,1,75,0,0
36256,-100,4,2,1,75,0,0
36584,-111.111111111111,4,2,1,75,0,0
36912,335.195530726257,4,2,1,75,1,0
37414,317.460317460317,4,2,1,75,1,0
37572,-111.111111111111,4,2,1,75,0,0
37731,329.67032967033,4,2,1,75,1,0
37895,-111.111111111111,4,2,1,75,0,0
38060,338.983050847458,4,2,1,75,1,0
38229,323.450134770889,4,2,1,65,1,0
38229,-133.333333333333,4,2,1,65,0,0
39441,-133.333333333333,4,2,1,5,0,0
39522,329.67032967033,4,2,1,65,1,0
39522,-133.333333333333,4,2,1,65,0,0
40758,-133.333333333333,4,2,1,5,0,0
40840,326.086956521739,4,2,1,65,1,0
40840,-133.333333333333,4,2,1,65,0,0
43122,331.491712707182,4,2,1,65,1,0
43122,-200,4,2,1,65,0,0
43370,-200,4,2,1,5,0,0
43453,329.67032967033,4,2,1,75,1,0
43453,-90.9090909090909,4,2,1,75,0,0
44771,326.975476839237,4,2,1,75,1,0
44771,-90.9090909090909,4,2,1,75,0,0
47059,332.409972299169,4,2,1,75,1,0
47059,-90.9090909090909,4,2,1,75,0,0
47391,329.67032967033,4,2,1,75,1,0
48050,-83.3333333333333,4,2,1,75,0,0
49369,-181.818181818182,4,2,1,65,0,0
50028,326.530612244898,4,2,1,85,1,1
50028,-83.3333333333333,4,2,1,85,0,1
51578,-83.3333333333333,4,2,1,5,0,1
51660,-83.3333333333333,4,2,1,85,0,1
52640,327.868852459016,4,2,1,85,1,1
52640,-83.3333333333333,4,2,1,85,0,1
52885,-83.3333333333333,4,2,1,5,0,1
52967,-83.3333333333333,4,2,1,85,0,1
55262,337.078651685393,4,2,1,85,1,1
55936,322.58064516129,4,2,1,85,1,1
56258,-83.3333333333333,4,2,1,85,0,1
56581,327.868852459016,4,2,1,85,1,1
57236,-83.3333333333333,4,2,1,85,0,1
58138,-83.3333333333333,4,2,1,5,0,1
58220,-83.3333333333333,4,2,1,85,0,1
58466,-83.3333333333333,4,2,1,5,0,1
58548,-83.3333333333333,4,2,1,85,0,1
58876,317.460317460317,4,2,1,85,1,1
58876,-83.3333333333333,4,2,1,85,0,1
59193,331.491712707182,4,2,1,85,1,1
59193,-62.5,4,2,1,85,0,1
59358,-62.5,4,2,1,5,0,1
59441,-58.8235294117647,4,2,1,85,0,1
59606,-58.8235294117647,4,2,1,5,0,1
59690,-76.9230769230769,4,2,1,85,0,1
59938,-76.9230769230769,4,2,1,5,0,1
60021,-76.9230769230769,4,2,1,85,0,1
60187,327.868852459016,4,2,1,85,1,1
60187,-200,4,2,1,85,0,1
60432,-200,4,2,1,5,0,1
60514,327.868852459016,4,2,1,85,1,1
60514,-83.3333333333333,4,2,1,85,0,1
62070,-83.3333333333333,4,2,1,5,0,1
62153,-83.3333333333333,4,2,1,85,0,1
64038,-83.3333333333333,4,2,1,5,0,1
64120,-83.3333333333333,4,2,1,85,0,1
64365,-83.3333333333333,4,2,1,5,0,1
64448,-83.3333333333333,4,2,1,85,0,1
68382,324.324324324324,4,2,1,85,1,1
68382,-83.3333333333333,4,2,1,85,0,1
68625,-83.3333333333333,4,2,1,5,0,1
68706,-83.3333333333333,4,2,1,85,0,1
69030,329.67032967033,4,2,1,85,1,1
69030,-83.3333333333333,4,2,1,85,0,1
69277,-100,4,2,1,5,0,1
69358,-100,4,2,1,85,0,1
69689,326.086956521739,4,2,1,85,1,1
70341,324.324324324324,4,2,1,85,1,1
70503,-83.3333333333333,4,2,1,85,0,1
70989,331.491712707182,4,2,1,80,1,0
70989,-83.3333333333333,4,2,1,80,0,0
72231,-83.3333333333333,4,2,1,5,0,0
72314,-83.3333333333333,4,2,1,80,0,0
72977,326.086956521739,4,2,1,80,1,0
72977,-83.3333333333333,4,2,1,80,0,0
73547,-83.3333333333333,4,2,1,5,0,0
73629,326.086956521739,4,2,1,80,1,0
73629,-83.3333333333333,4,2,1,80,0,0
74933,322.58064516129,4,2,1,80,1,0
75255,-83.3333333333333,4,2,1,80,0,0
76223,333.333333333333,4,2,1,80,1,0
77556,-200,4,2,1,75,0,0
78223,300,4,2,1,75,1,0
78373,324.324324324324,4,2,1,75,1,0
78535,-66.6666666666667,4,2,1,75,0,0
78859,329.67032967033,4,2,1,80,1,0
78859,-90.9090909090909,4,2,1,80,0,0
80837,319.148936170213,4,2,1,80,1,0
80837,-90.9090909090909,4,2,1,80,0,0
81475,319.148936170213,4,2,1,80,1,0
81475,-90.9090909090909,4,2,1,80,0,0
81794,327.868852459016,4,2,1,80,1,0
82121,-90.9090909090909,4,2,1,80,0,0
82777,333.333333333333,4,2,1,80,1,0
83110,-90.9090909090909,4,2,1,80,0,0
84110,337.078651685393,4,2,1,80,1,0
84110,-83.3333333333333,4,2,1,80,0,0
84784,322.58064516129,4,2,1,80,1,0
84784,-83.3333333333333,4,2,1,80,0,0
85429,322.58064516129,4,2,1,80,1,0
85751,-83.3333333333333,4,2,1,80,0,0
86396,338.983050847458,4,2,1,80,1,0
86396,-83.3333333333333,4,2,1,80,0,0
86734,329.67032967033,3,2,1,80,1,0
88712,-66.6666666666667,3,2,1,85,0,0
89123,-66.6666666666667,3,2,1,85,0,0

[Colours]
Combo1 : 14,63,177
Combo2 : 244,215,96

[HitObjects]
43,91,2822,6,0,B|61:56|112:71|112:71|131:104|177:111,1,135.099995877075,6|0,0:0|0:0,0:0:0:0:
222,61,3314,1,2,0:0:0:0:
274,117,3478,1,0,0:0:0:0:
363,0,3642,2,0,P|349:117|347:148,1,135.099995877075,2|2,0:0|0:0,0:0:0:0:
389,195,4134,6,0,P|434:180|466:171,2,67.5499979385377,2|0|2,0:0|0:0|0:0,0:0:0:0:
350,265,4626,2,0,B|405:275|405:275|439:306|439:306|495:316,2,135.099995877075,2|2|2,0:0|0:0|0:0,0:0:0:0:
288,317,5445,6,0,P|217:302|143:297,1,135.099995877075,2|2,0:0|0:0,0:0:0:0:
91,349,5937,2,0,P|27:299|45:233,2,135.099995877075,2|2|2,0:0|0:0|0:0,0:0:0:0:
157,195,6757,6,0,P|193:182|232:172,1,67.5499979385377,2|0,0:0|0:0,0:0:0:0:
266,98,7085,2,0,P|233:89|201:77,1,67.5499979385377,2|2,0:0|0:0,0:0:0:0:
55,44,7413,2,0,P|78:1|170:16,1,134.099995877075,2|0,0:0|0:0,0:0:0:0:
157,2,8046,6,0,L|157:202,1,193,6|2,3:2|0:0,0:0:0:0:
42,326,8537,1,0,3:2:0:0:
42,326,8619,1,0,3:2:0:0:
42,326,8701,2,0,P|105:306|146:302,1,96.5,10|8,0:0|2:3,0:0:0:0:
11,177,9029,1,6,2:3:0:0:
245,358,9193,1,2,3:2:0:0:
254,315,9275,1,2,0:0:0:0:
263,273,9357,1,10,0:0:0:0:
263,273,10668,5,8,2:3:0:0:
266,262,10748,1,4,2:3:0:0:
270,251,10829,2,0,L|226:262,1,26.5375008098603,0|0,3:2|3:2,0:0:0:0:
365,190,10990,1,8,2:3:0:0:
368,201,11071,1,8,2:3:0:0:
372,212,11151,2,0,L|328:201,1,26.5375008098603,4|4,2:3|2:3,0:0:0:0:
442,374,11313,6,0,B|450:309|450:309|467:280|467:280|478:209,1,159.225004859162,10|0,0:0|0:0,0:0:0:0:
342,0,11994,6,0,L|342:230,1,212.300006478882,6|10,3:2|0:0,0:0:0:0:
256,320,12483,1,2,0:0:0:0:
142,241,12646,2,0,P|207:224|255:196,1,106.150003239441,8|2,0:0|3:2,0:0:0:0:
125,345,12972,2,0,P|77:321|25:309,1,106.150003239441,10|0,0:0|3:2,0:0:0:0:
26,157,13298,6,0,B|95:128|139:172|121:183|165:226|247:195,1,212.300006478882,10|8,0:0|0:0,0:0:0:0:
317,103,13784,1,2,3:0:0:0:
221,202,13946,1,10,0:0:0:0:
403,226,14108,1,2,3:2:0:0:
403,226,14189,1,0,3:2:0:0:
403,226,14270,2,0,P|351:193|295:199,1,106.150003239441,10|2,0:0|3:2,0:0:0:0:
448,120,14595,5,10,0:0:0:0:
336,271,14760,1,2,0:0:0:0:
512,182,14926,1,10,0:0:0:0:
317,103,15092,1,2,3:2:0:0:
410,313,15257,2,0,P|477:295|531:287,1,106.150003239441,10|6,2:3|2:3,0:0:0:0:
291,205,15589,1,10,0:0:0:0:
401,42,15755,6,0,L|401:216,1,159.225004859162,6|0,3:2|0:0,0:0:0:0:
401,226,16086,1,2,3:2:0:0:
219,156,16246,2,0,P|268:117|323:122,1,106.150003239441,10|10,0:0|0:0,0:0:0:0:
145,220,16567,1,10,0:0:0:0:
278,318,16728,1,8,2:3:0:0:
278,318,16809,1,8,2:3:0:0:
278,318,16889,2,0,P|292:265|301:202,1,106.150003239441,4|4,2:3|2:3,0:0:0:0:
30,313,17231,6,0,P|91:302|149:300,1,106.150003239441,6|2,3:2|0:0,0:0:0:0:
145,220,17722,2,0,P|85:231|34:237,2,106.150003239441,2|2|2,0:0|0:0|0:0,0:0:0:0:
189,160,18542,1,0,0:0:0:0:
132,111,18706,2,0,B|90:102|62:131|62:131|54:155|32:168,2,106.150003239441,2|2|2,0:0|0:0|0:0,0:0:0:0:
185,58,19526,2,0,P|218:71|245:73,1,53.0750016197205,0|2,0:0|0:0,0:0:0:0:
291,24,19853,6,0,P|283:49|274:147,1,106.150003239441,2|2,0:0|0:0,0:0:0:0:
254,200,20345,2,0,P|292:165|343:171,2,106.150003239441,2|2|0,0:0|0:0|0:0,0:0:0:0:
204,256,21165,2,0,P|173:249|147:247,2,53.0750016197205,2|2|2,0:0|0:0|0:0,0:0:0:0:
256,308,21657,1,2,0:0:0:0:
256,308,21821,2,0,P|290:298|307:296,1,53.0750016197205,0|0,0:0|0:0,0:0:0:0:
365,249,22149,2,0,P|399:259|416:261,1,53.0750016197205,0|2,0:0|0:0,0:0:0:0:
465,316,22476,6,0,P|469:253|479:197,1,106.150003239441,2|2,0:0|0:0,0:0:0:0:
419,161,22968,2,0,P|377:172|308:183,2,106.150003239441,0|2|2,0:0|0:0|0:0,0:0:0:0:
474,111,23788,2,0,P|482:75|478:54,2,53.0750016197205,2|0|2,0:0|0:0|0:0,0:0:0:0:
407,76,24280,1,0,0:0:0:0:
334,60,24444,2,0,P|294:72|279:76,1,53.0750016197205,2|2,0:0|0:0,0:0:0:0:
229,126,24771,2,0,P|189:114|174:110,1,53.0750016197205,0|2,0:0|0:0,0:0:0:0:
126,56,25099,6,0,P|81:33|25:66,1,106.150003239441,2|2,0:0|0:0,0:0:0:0:
7,124,25591,2,0,P|12:175|16:248,1,106.150003239441,2|2,0:0|0:0,0:0:0:0:
67,282,26083,2,0,P|58:318|54:338,1,53.0750016197205,2|0,0:0|0:0,0:0:0:0:
134,240,26411,2,0,P|167:229|190:226,1,53.0750016197205,2|2,0:0|0:0,0:0:0:0:
234,316,26739,2,0,P|201:305|178:302,1,53.0750016197205,2|2,0:0|0:0,0:0:0:0:
280,251,27067,6,0,P|322:220|374:222,1,106.150003239441,0|0,0:0|0:0,0:0:0:0:
432,268,27558,1,0,0:0:0:0:
412,368,27722,6,0,P|423:307|436:264,1,86.8499973495484,6|0,3:2|0:0,0:0:0:0:
344,134,28059,2,0,P|354:176|361:218,1,86.8499973495484,2|0,3:2|0:0,0:0:0:0:
454,13,28396,2,0,L|454:212,1,173.699994699097,2|2,3:2|3:2,0:0:0:0:
346,294,28882,1,2,0:0:0:0:
241,232,29044,6,0,P|308:214|340:198,1,86.8499973495484,0|2,3:2|0:0,0:0:0:0:
141,279,29368,2,0,P|100:262|58:253,1,86.8499973495484,0|2,3:2|0:0,0:0:0:0:
143,117,29692,2,0,P|161:176|166:216,1,86.8499973495484,0|2,3:2|0:0,0:0:0:0:
224,330,30016,2,0,P|231:287|245:246,1,86.8499973495484,0|2,3:2|0:0,0:0:0:0:
355,196,30341,6,0,P|275:201|263:107,1,173.699994699097,2|2,3:2|3:2,0:0:0:0:
326,26,30835,1,2,0:0:0:0:
427,124,31000,2,0,P|368:104|326:104,1,86.8499973495484,0|2,3:2|0:0,0:0:0:0:
228,48,31330,2,0,P|271:42|311:26,1,86.8499973495484,0|2,3:2|0:0,0:0:0:0:
139,103,31659,1,2,3:2:0:0:
48,21,31824,1,2,0:0:0:0:
139,103,31989,2,0,P|146:60|155:16,1,86.8499973495484,2|2,3:2|0:0,0:0:0:0:
62,186,32319,2,0,P|54:143|46:99,1,86.8499973495484,2|0,3:2|0:0,0:0:0:0:
157,260,32648,2,0,P|164:217|173:173,1,86.8499973495484,0|2,3:2|0:0,0:0:0:0:
23,311,32978,6,0,B|68:281|116:315|103:322|136:355|196:323,1,173.699994699097,2|2,3:2|3:2,0:0:0:0:
264,248,33469,1,2,0:0:0:0:
343,344,33633,2,0,P|298:328|255:325,1,86.8499973495484,2|2,3:2|0:0,0:0:0:0:
412,279,33961,2,0,P|465:267|494:247,1,86.8499973495484,0|2,3:2|0:0,0:0:0:0:
257,153,34289,5,2,3:2:0:0:
363,189,34453,1,2,0:0:0:0:
257,153,34617,2,0,P|274:204|277:248,1,86.8499973495484,2|2,3:2|0:0,0:0:0:0:
336,87,34945,2,0,P|283:76|243:56,1,86.8499973495484,2|2,3:2|0:0,0:0:0:0:
363,189,35273,2,0,P|398:148|435:124,1,86.8499973495484,0|2,3:2|0:0,0:0:0:0:
277,236,35600,6,0,P|213:224|151:220,1,115.799996466065,2|0,3:2|0:0,0:0:0:0:
8,166,35928,6,0,P|60:160|111:146,1,106.150003239441,2|0,3:2|0:0,0:0:0:0:
211,36,36256,6,0,P|195:89|189:140,1,96.5,2|0,3:2|0:0,0:0:0:0:
183,303,36584,6,0,P|175:255|159:214,1,86.8499973495484,2|0,3:2|0:0,0:0:0:0:
111,146,36912,5,2,3:2:0:0:
111,146,37414,5,2,3:2:0:0:
111,146,37493,1,2,3:2:0:0:
111,146,37572,2,0,P|55:157|22:174,1,86.8499973495484,10|2,0:0|3:2,0:0:0:0:
237,185,37895,6,0,P|279:179|319:162,1,86.8499973495484,10|6,2:3|2:3,0:0:0:0:
387,90,38229,6,0,P|467:69|499:135,1,144.750005521775,6|0,3:2|0:0,0:0:0:0:
421,196,38714,1,0,3:2:0:0:
490,258,38875,2,0,P|496:209|505:170,1,72.3750027608873,2|0,0:0|3:2,0:0:0:0:
483,344,39199,2,0,P|429:334|375:327,1,108.562504141331,10|0,0:0|0:0,0:0:0:0:
363,310,39522,6,0,B|313:300|296:337|302:339|285:367|228:359,1,144.750005521775,2|0,3:2|0:0,0:0:0:0:
155,310,40016,1,0,3:2:0:0:
205,230,40181,2,0,P|257:237|280:247,1,72.3750027608873,2|0,0:0|3:2,0:0:0:0:
138,176,40511,2,0,P|79:167|49:219,1,108.562504141331,8|0,0:0|0:0,0:0:0:0:
44,216,40840,6,0,P|38:129|27:58,1,144.750005521775,2|0,3:2|0:0,0:0:0:0:
93,3,41329,1,2,3:2:0:0:
93,3,41492,2,0,P|135:19|172:23,1,72.3750027608873,0|2,0:0|3:2,0:0:0:0:
189,112,41818,2,0,P|147:96|110:92,1,72.3750027608873,12|0,0:0|0:0,0:0:0:0:
266,78,42144,5,6,3:2:0:0:
344,26,42307,1,8,0:3:0:0:
266,78,42470,2,0,P|254:37|250:2,1,72.3750027608873,4|0,2:3|3:3,0:0:0:0:
343,115,42796,2,0,P|355:74|359:39,1,72.3750027608873,4|0,2:3|3:3,0:0:0:0:
446,16,43122,6,0,P|434:57|428:100,1,72.375,12|0,0:0|0:0,0:0:0:0:
481,175,43453,6,0,P|433:102|322:142,1,212.300006478882,6|10,3:2|0:0,0:0:0:0:
237,223,43947,1,2,0:0:0:0:
319,320,44112,2,0,P|327:237|337:195,1,106.150003239441,2|2,3:2|0:0,0:0:0:0:
212,92,44442,2,0,P|227:145|234:195,1,106.150003239441,10|2,0:0|0:0,0:0:0:0:
37,272,44771,6,0,B|97:244|136:281|123:288|171:331|235:304,1,212.300006478882,2|10,3:2|0:0,0:0:0:0:
339,197,45261,1,0,0:0:0:0:
212,92,45424,1,2,3:2:0:0:
339,197,45588,1,2,0:0:0:0:
339,197,45670,1,2,0:0:0:0:
339,197,45751,2,0,P|369:142|350:87,1,106.150003239441,10|2,0:0|0:0,0:0:0:0:
185,5,46078,6,0,L|185:237,1,212.300006478882,2|8,3:2|0:0,0:0:0:0:
296,347,46569,1,0,0:0:0:0:
452,246,46732,2,0,P|378:229|340:214,1,106.150003239441,2|0,3:2|0:0,0:0:0:0:
339,197,46978,1,2,0:0:0:0:
339,197,47059,2,0,P|391:205|441:223,1,106.150003239441,10|2,0:0|0:0,0:0:0:0:
483,65,47391,5,10,3:2:0:0:
439,37,47473,1,8,0:0:0:0:
387,36,47555,1,8,0:0:0:0:
344,67,47638,1,8,0:0:0:0:
319,98,47720,5,8,3:2:0:0:
288,125,47803,1,8,0:0:0:0:
248,133,47885,1,8,0:0:0:0:
210,117,47967,1,8,0:0:0:0:
188,97,48050,6,0,P|195:62|199:30,1,57.8999982330323,8|8,3:2|0:0,0:0:0:0:
88,123,48215,2,0,P|93:151|98:180,1,57.8999982330323,8|8,0:0|0:0,0:0:0:0:
241,215,48380,2,0,P|216:207|180:192,1,57.8999982330323,0|0,3:2|0:0,0:0:0:0:
54,297,48544,2,0,P|85:282|110:268,1,57.8999982330323,8|0,0:0|0:0,0:0:0:0:
288,125,48709,5,8,3:2:0:0:
31,20,48874,1,8,3:2:0:0:
31,20,49204,5,0,0:0:0:0:
122,55,49369,6,0,P|162:32|128:3,1,106.150003239441,2|2,0:0|0:0,0:0:0:0:
128,3,50028,6,0,L|128:238,1,231.599992932129,6|8,3:2|0:0,0:0:0:0:
234,354,50517,1,2,0:0:0:0:
329,231,50681,2,0,P|285:188|215:202,1,115.799996466065,2|2,3:2|0:0,0:0:0:0:
351,340,51007,2,0,P|410:344|455:290,1,115.799996466065,8|2,0:0|0:0,0:0:0:0:
465,64,51334,6,0,B|417:49|385:84|398:90|358:131|296:108,1,173.699994699097,2|0,3:2|0:0,0:0:0:0:
275,86,51660,1,10,0:0:0:0:
423,174,51823,1,2,0:0:0:0:
200,142,51987,2,0,P|171:83|199:37,1,115.799996466065,0|2,3:2|0:0,0:0:0:0:
286,194,52313,2,0,P|315:253|286:297,1,115.799996466065,8|2,0:0|0:0,0:0:0:0:
108,279,52640,6,0,B|88:262|59:259|59:259|219:244,1,173.699994699097,2|0,3:2|0:0,0:0:0:0:
211,248,52967,1,10,0:0:0:0:
86,154,53131,1,2,0:0:0:0:
187,341,53295,2,0,P|250:342|290:292,1,115.799996466065,0|2,3:2|0:0,0:0:0:0:
262,137,53623,2,0,P|198:135|159:187,1,115.799996466065,8|2,0:0|0:0,0:0:0:0:
376,220,53951,5,2,3:2:0:0:
403,67,54115,1,0,0:0:0:0:
287,219,54279,1,10,0:0:0:0:
403,67,54443,1,2,0:0:0:0:
491,231,54607,2,0,P|443:195|379:204,1,115.799996466065,0|2,3:2|0:0,0:0:0:0:
165,155,54935,2,0,P|223:157|267:122,1,115.799996466065,8|2,0:0|0:0,0:0:0:0:
281,93,55180,1,0,3:2:0:0:
281,93,55262,5,6,3:2:0:0:
166,238,55430,1,2,0:0:0:0:
355,138,55599,1,10,0:0:0:0:
150,52,55767,1,2,0:0:0:0:
306,266,55936,1,2,3:2:0:0:
312,10,56097,1,2,0:0:0:0:
84,111,56258,2,0,B|60:167|60:167|94:226,1,115.799996466065,8|2,0:0|0:0,0:0:0:0:
355,138,56581,5,2,3:2:0:0:
226,50,56744,1,2,0:0:0:0:
355,138,56908,1,10,0:0:0:0:
165,155,57072,1,2,0:0:0:0:
383,45,57236,2,0,P|453:50|474:102,1,115.799996466065,2|2,3:2|0:0,0:0:0:0:
347,244,57564,2,0,B|312:196|312:196|346:133,1,115.799996466065,8|2,0:0|0:0,0:0:0:0:
512,4,57892,6,0,L|512:195,1,173.699994699097,4|0,3:2|0:0,0:0:0:0:
512,216,58220,2,0,P|461:178|397:188,1,115.799996466065,10|0,0:0|0:0,0:0:0:0:
233,341,58548,5,12,3:2:0:0:
271,359,58630,1,8,0:0:0:0:
313,359,58712,1,8,0:0:0:0:
347,336,58794,1,8,0:0:0:0:
366,299,58876,2,0,P|354:271|345:232,1,57.8999982330323,10|8,3:2|0:0,0:0:0:0:
267,161,59034,2,0,P|255:188|246:223,1,57.8999982330323,8|8,0:0|0:0,0:0:0:0:
70,280,59193,6,0,B|63:265|37:251|37:251|175:278,1,154.4,6|0,3:2|0:0,0:0:0:0:
266,150,59441,6,0,L|105:185,1,164.050003129005,6|0,3:2|2:0,0:0:0:0:
0,48,59690,6,0,B|56:30|101:67|84:75|123:112|185:89,1,188.174991386033,6|0,3:2|0:0,0:0:0:0:
191,88,60021,1,2,3:2:0:0:
379,38,60187,6,0,P|353:55|306:57,1,72.375,8|0,0:0|0:0,0:0:0:0:
304,45,60514,6,0,P|408:16|450:124,1,231.599992932129,6|8,3:2|0:0,0:0:0:0:
393,260,61005,1,2,0:0:0:0:
262,175,61169,2,0,P|298:134|369:140,1,115.799996466065,2|2,3:2|0:0,0:0:0:0:
244,275,61497,1,8,0:0:0:0:
146,154,61661,1,2,0:0:0:0:
114,355,61825,6,0,P|203:353|307:351,1,173.699994699097,2|0,3:2|0:0,0:0:0:0:
319,349,62153,1,10,0:0:0:0:
154,246,62317,1,2,0:0:0:0:
319,349,62481,2,0,P|384:348|412:297,1,115.799996466065,0|2,3:2|0:0,0:0:0:0:
364,158,62809,2,0,P|299:159|271:210,1,115.799996466065,8|2,0:0|0:0,0:0:0:0:
449,206,63136,5,2,3:2:0:0:
297,70,63300,1,2,0:0:0:0:
449,206,63464,1,10,0:0:0:0:
223,118,63628,1,2,0:0:0:0:
452,0,63792,2,0,P|440:58|435:117,1,115.799996466065,2|0,3:2|0:0,0:0:0:0:
242,273,64120,2,0,P|252:238|390:262,1,173.699994699097,10|0,0:0|0:0,0:0:0:0:
377,247,64448,6,0,B|313:277|262:227|276:228|229:176|150:223,1,231.599992932129,2|8,3:2|0:0,0:0:0:0:
37,324,64940,1,2,0:0:0:0:
181,382,65104,2,0,P|215:347|208:280,1,115.799996466065,0|2,3:2|0:0,0:0:0:0:
61,22,65432,2,0,L|61:215,1,173.699994699097,8|0,0:0|0:0,0:0:0:0:
60,226,65759,5,6,3:2:0:0:
176,123,65923,1,2,0:0:0:0:
60,226,66087,1,10,0:0:0:0:
181,39,66251,1,2,0:0:0:0:
291,243,66415,2,0,P|236:204|169:224,1,115.799996466065,2|2,3:2|0:0,0:0:0:0:
373,316,66743,2,0,P|433:316|469:273,1,115.799996466065,8|2,0:0|0:0,0:0:0:0:
362,159,67071,5,2,3:2:0:0:
223,285,67235,1,2,0:0:0:0:
362,159,67399,1,10,0:0:0:0:
174,217,67563,1,2,0:0:0:0:
351,371,67727,2,0,P|359:302|377:253,1,115.799996466065,2|2,3:2|0:0,0:0:0:0:
148,101,68054,2,0,P|166:157|173:216,1,115.799996466065,8|2,0:0|0:0,0:0:0:0:
4,351,68382,6,0,B|-2:334|-27:319|-27:319|113:346,1,173.699994699097,6|0,3:2|0:0,0:0:0:0:
129,333,68706,2,0,L|-2:307,1,115.799996466065,10|0,0:0|0:0,0:0:0:0:
251,263,69030,2,0,P|309:251|365:230,1,115.799996466065,6|0,3:2|0:0,0:0:0:0:
77,142,69359,2,0,B|47:181|47:181|81:246,1,96.5,10|0,0:0|0:0,0:0:0:0:
215,133,69689,5,6,3:2:0:0:
85,47,69852,1,0,3:2:0:0:
215,133,70015,1,8,0:2:0:0:
9,93,70178,1,8,0:2:0:0:
223,7,70341,5,2,3:2:0:0:
253,2,70422,1,0,3:2:0:0:
281,11,70503,2,0,P|306:24|319:53,1,57.8999982330323,8|8,0:0|0:0,0:0:0:0:
239,228,70665,5,8,3:2:0:0:
209,233,70746,1,8,3:2:0:0:
181,224,70827,2,0,P|155:210|141:179,1,57.8999982330323,8|8,3:2|3:2,0:0:0:0:
399,7,70989,6,0,L|399:254,1,231.599992932129,6|8,3:2|0:0,0:0:0:0:
300,353,71486,1,0,3:2:0:0:
484,353,71651,2,0,P|429:326|370:318,1,115.799996466065,0|0,0:0|3:2,0:0:0:0:
189,356,71983,2,0,P|242:348|272:232,1,173.699994699097,10|0,0:0|0:0,0:0:0:0:
263,217,72314,5,2,3:2:0:0:
375,317,72480,1,0,3:2:0:0:
188,268,72646,1,8,0:0:0:0:
327,137,72812,1,0,3:2:0:0:
188,268,72977,2,0,P|123:253|62:248,1,115.799996466065,2|0,0:0|3:2,0:0:0:0:
41,101,73303,2,0,B|96:81|125:111|112:118|158:158|206:135,1,173.699994699097,8|0,0:0|0:0,0:0:0:0:
225,110,73629,6,0,P|282:32|407:73,1,231.599992932129,2|8,3:2|0:0,0:0:0:0:
487,183,74118,1,0,3:2:0:0:
362,267,74281,2,0,P|353:194|340:136,1,115.799996466065,0|0,0:0|3:2,0:0:0:0:
467,318,74607,2,0,P|473:260|484:203,1,115.799996466065,10|2,0:0|0:0,0:0:0:0:
267,235,74933,5,0,3:0:0:0:
361,351,75094,1,2,3:2:0:0:
267,235,75255,2,0,P|209:242|148:292,1,115.799996466065,10|0,0:0|3:2,0:0:0:0:
372,144,75578,2,0,P|419:175|476:183,1,115.799996466065,8|0,0:0|3:2,0:0:0:0:
233,38,75900,2,0,P|253:88|268:151,1,115.799996466065,8|0,3:2|3:2,0:0:0:0:
339,2,76223,5,14,0:0:0:0:
172,126,76389,1,0,3:2:0:0:
172,126,76556,1,2,3:2:0:0:
418,68,76723,5,12,0:0:0:0:
147,3,76889,1,2,3:2:0:0:
147,3,77056,1,0,3:2:0:0:
267,235,77223,5,10,2:3:0:0:
339,2,77389,1,10,2:3:0:0:
86,117,77556,6,0,B|150:91|192:129|170:137|216:166|272:146,1,193,6|0,3:2|0:0,0:0:0:0:
202,303,78373,5,0,3:2:0:0:
202,303,78454,1,0,3:2:0:0:
202,303,78535,2,0,B|132:282|132:282|133:279|133:279|57:255,1,144.750005521775,8|2,0:0|0:0,0:0:0:0:
266,147,78859,6,0,B|312:79|401:112|401:112|412:159|454:170,1,212.300006478882,6|8,3:2|0:0,0:0:0:0:
330,237,79353,1,2,0:0:0:0:
447,285,79518,2,0,P|399:253|344:245,1,106.150003239441,0|0,0:0|3:2,0:0:0:0:
171,187,79848,2,0,P|222:176|265:146,1,106.150003239441,10|2,0:0|0:0,0:0:0:0:
347,48,80177,5,0,3:2:0:0:
228,1,80342,1,2,3:2:0:0:
432,160,80507,2,0,P|436:102|446:32,1,106.150003239441,8|2,0:0|0:0,0:0:0:0:
282,239,80837,2,0,P|278:181|268:111,1,106.150003239441,2|2,3:2|3:2,0:0:0:0:
447,285,81156,2,0,P|451:227|461:157,1,106.150003239441,10|0,0:0|3:2,0:0:0:0:
282,26,81475,6,0,L|282:258,1,212.300006478882,2|8,3:2|0:0,0:0:0:0:
204,338,81957,1,2,0:0:0:0:
99,264,82121,2,0,P|154:221|194:228,1,106.150003239441,0|2,3:2|3:0,0:0:0:0:
369,277,82449,2,0,P|317:275|281:237,1,106.150003239441,8|2,0:0|3:2,0:0:0:0:
242,117,82777,5,0,3:2:0:0:
344,191,82943,1,2,3:2:0:0:
242,117,83110,2,0,P|176:135|132:142,1,106.150003239441,14|0,3:2|3:2,0:0:0:0:
346,28,83443,5,8,3:2:0:0:
369,16,83527,1,0,0:0:0:0:
395,14,83610,2,0,P|424:21|452:50,1,53.0750016197205,8|8,0:0|0:0,0:0:0:0:
443,180,83777,5,8,3:2:0:0:
420,192,83861,1,8,3:2:0:0:
394,194,83944,2,0,P|365:187|337:158,1,53.0750016197205,8|0,3:2|0:0,0:0:0:0:
512,0,84110,6,0,L|512:247,1,231.599992932129,6|10,3:2|0:0,0:0:0:0:
420,335,84615,1,2,0:0:0:0:
304,246,84784,2,0,P|385:224|417:205,1,115.799996466065,0|2,3:2|0:0,0:0:0:0:
195,325,85106,2,0,P|143:299|86:287,1,115.799996466065,10|0,0:0|0:0,0:0:0:0:
174,129,85429,5,0,3:2:0:0:
304,246,85590,1,2,0:0:0:0:
174,129,85751,2,0,P|201:214|207:255,1,115.799996466065,8|2,0:0|0:0,0:0:0:0:
276,50,86074,2,0,P|191:23|150:17,1,115.799996466065,2|0,3:2|3:2,0:0:0:0:
362,147,86396,2,0,P|418:135|473:115,1,115.799996466065,10|0,0:0|3:0,0:0:0:0:
174,129,86734,5,14,3:2:0:0:
304,246,86898,1,2,3:2:0:0:
80,189,87063,1,0,3:2:0:0:
80,189,87146,1,0,3:2:0:0:
80,189,87228,1,14,3:2:0:0:
293,83,87393,5,2,3:2:0:0:
58,195,87558,1,0,3:2:0:0:
58,195,87640,1,0,3:2:0:0:
58,195,87723,1,14,3:2:0:0:
362,147,87887,5,0,3:2:0:0:
73,36,88052,1,0,3:2:0:0:
73,36,88135,1,0,3:2:0:0:
73,36,88217,1,14,0:0:0:0:
235,342,88382,5,0,3:2:0:0:
299,83,88547,1,0,3:2:0:0:
299,83,88629,1,0,3:2:0:0:
299,83,88712,6,0,P|305:51|309:1,1,72.3750027608873,14|0,3:2|0:0,0:0:0:0:
33,200,88876,6,0,P|36:236|42:271,1,72.3750027608873,14|0,3:2|0:0,0:0:0:0:
376,351,89041,6,0,P|382:319|386:269,1,72.3750027608873,14|0,3:2|0:0,0:0:0:0:
