osu file format v14

[General]
AudioFilename: audio.mp3
AudioLeadIn: 0
PreviewTime: 49121
Countdown: 0
SampleSet: Soft
StackLeniency: 0.8
Mode: 0
LetterboxInBreaks: 0
WidescreenStoryboard: 1

[Editor]
DistanceSpacing: 1.5
BeatDivisor: 4
GridSize: 32
TimelineZoom: 2.2

[Metadata]
Title:RESISTER (TV Size)
TitleUnicode:RESISTER (TV Size)
Artist:ASCA
ArtistUnicode:ASCA
Creator:Gweon Sua
Version:ESUTAROSA'S EXTRA
Source:ソードアート・オンライン アリシゼーション
Tags:xahlt kuon- wanpachi cycopton asukow shayks [_lost_] conner c_o_n_n_e_r Sarawatlism nevir nevlr Adinda Esutarosa 大倉明日香 あすか Ōkura okura oukura Asuka alice a.l.i.c.e. kirito asuna eugeo アスナ キリト アリス ユージオ sao sword art online alicization jrock japanese rock j-rock anime op opening season 3 three III SAO-A Project SACRA MUSIC Sony Entertainment
BeatmapID:3608597
BeatmapSetID:1757778

[Difficulty]
HPDrainRate:6
CircleSize:4.3
OverallDifficulty:9.2
ApproachRate:9.6
SliderMultiplier:1.74
SliderTickRate:1

[Events]
//Background and Video events
0,0,"alice.jpg",0,0
Video,1190,"VD.mp4"
//Break Periods
//Storyboard Layer 0 (Background)
//Storyboard Layer 1 (Fail)
//Storyboard Layer 2 (Pass)
//Storyboard Layer 3 (Foreground)
//Storyboard Layer 4 (Overlay)
//Storyboard Sound Samples

[TimingPoints]
-2423,327.868852459016,4,2,1,55,1,0
2822,-156.25,4,2,1,55,0,0
7737,309.278350515464,4,2,1,55,1,0
8046,327.868852459016,4,2,1,70,1,0
8046,-135.135135135135,4,2,1,70,0,0
10668,322.58064516129,4,2,1,70,1,0
11313,340.909090909091,4,2,1,70,1,0
11313,-185.185185185185,4,2,1,70,0,0
11912,-185.185185185185,4,2,1,5,0,0
11994,326.086956521739,4,2,1,80,1,0
11994,-87.719298245614,4,2,1,80,0,0
12238,-87.719298245614,4,2,1,5,0,0
12320,-87.719298245614,4,2,1,80,0,0
13298,324.324324324324,4,2,1,80,1,0
13298,-87.719298245614,4,2,1,80,0,0
14595,331.491712707182,4,2,1,80,1,0
14595,-87.719298245614,4,2,1,80,0,0
15755,-96.153846153846,4,2,1,80,0,0
16005,-96.153846153846,4,2,1,5,0,0
16086,321.71581769437,4,2,1,80,1,0
16246,321.71581769437,4,2,1,80,1,0
17050,363.636363636364,4,2,1,80,1,0
17231,327.868852459016,4,2,1,55,1,0
17558,-135.135135135135,4,2,1,55,0,0
27722,337.078651685393,4,2,1,70,1,0
27722,-119.047619047619,4,2,1,70,0,0
27974,-119.047619047619,4,2,1,5,0,0
28059,-119.047619047619,4,2,1,70,0,0
28396,324.324324324324,4,2,1,70,1,0
28396,-119.047619047619,4,2,1,70,0,0
28639,-119.047619047619,4,2,1,5,0,0
28720,-119.047619047619,4,2,1,70,0,0
29044,324.324324324324,4,2,1,70,1,0
29044,-119.047619047619,4,2,1,70,0,0
29287,-119.047619047619,4,2,1,5,0,0
29368,-119.047619047619,4,2,1,70,0,0
29935,-119.047619047619,4,2,1,5,0,0
30016,-119.047619047619,4,2,1,70,0,0
30341,329.67032967033,4,2,1,70,1,0
30341,-119.047619047619,4,2,1,70,0,0
30588,-119.047619047619,4,2,1,5,0,0
30670,-119.047619047619,4,2,1,70,0,0
31082,-119.047619047619,4,2,1,5,0,0
31165,-119.047619047619,4,2,1,70,0,0
32978,327.868852459016,4,2,1,75,1,0
32978,-119.047619047619,4,2,1,75,0,0
35846,-119.047619047619,4,2,1,5,0,0
35928,-119.047619047619,4,2,1,75,0,0
36502,-119.047619047619,4,2,1,5,0,0
36584,-119.047619047619,4,2,1,75,0,0
36912,335.195530726257,4,2,1,75,1,0
37414,317.460317460317,4,2,1,75,1,0
37731,329.67032967033,4,2,1,75,1,0
37731,-135.135135135135,4,2,1,75,0,0
38060,338.983050847458,4,2,1,75,1,0
38229,323.450134770889,4,2,1,65,1,0
38229,-156.25,4,2,1,65,0,0
39441,-156.25,4,2,1,65,0,0
39522,329.67032967033,4,2,1,65,1,0
39522,-135.135135135135,4,2,1,65,0,0
40181,-156.25,4,2,1,65,0,0
40758,-156.25,4,2,1,65,0,0
40840,326.086956521739,4,2,1,65,1,0
40840,-135.135135135135,4,2,1,65,0,0
43039,-119.047619047619,4,2,1,5,0,0
43122,331.491712707182,4,2,1,65,1,0
43122,-185.185185185185,4,2,1,65,0,0
43370,-119.047619047619,4,2,1,5,0,0
43453,329.67032967033,4,2,1,75,1,0
43453,-96.1538461538461,4,2,1,75,0,0
44771,326.975476839237,4,2,1,75,1,0
44771,-96.1538461538461,4,2,1,75,0,0
47059,332.409972299169,4,2,1,75,1,0
47391,329.67032967033,4,2,1,75,1,0
47391,-227.272727272727,4,2,1,75,0,0
48050,-80.6451612903226,4,2,1,75,0,0
49369,-227.272727272727,4,2,1,65,0,0
50028,326.530612244898,4,2,1,85,1,0
50028,-80.6451612903226,4,2,1,85,0,0
50272,-80.6451612903226,4,2,1,8,0,0
50354,-80.6451612903226,4,2,1,85,0,0
52640,327.868852459016,4,2,1,85,1,0
52640,-80.6451612903226,4,2,1,85,0,0
55262,337.078651685393,4,2,1,85,1,0
55262,-87.719298245614,4,2,1,85,0,0
55936,322.58064516129,4,2,1,85,1,0
55936,-87.719298245614,4,2,1,85,0,0
56581,327.868852459016,4,2,1,85,1,0
56581,-87.719298245614,4,2,1,85,0,0
58138,-87.719298245614,4,2,1,5,0,0
58220,-87.719298245614,4,2,1,85,0,0
58466,-87.719298245614,4,2,1,5,0,0
58548,-87.719298245614,4,2,1,85,0,0
58876,317.460317460317,4,2,1,85,1,0
58876,-87.719298245614,4,2,1,85,0,0
59193,331.491712707182,4,2,1,85,1,0
59193,-87.719298245614,4,2,1,85,0,0
59938,-87.719298245614,4,2,1,5,0,0
60021,-87.719298245614,4,2,1,85,0,0
60187,327.868852459016,4,2,1,85,1,0
60187,-135.135135135135,4,2,1,85,0,0
60432,-135.135135135135,4,2,1,5,0,0
60514,327.868852459016,4,2,1,85,1,0
60514,-80.6451612903226,4,2,1,85,0,0
60759,-80.6451612903226,4,2,1,5,0,0
60841,-80.6451612903226,4,2,1,85,0,0
64038,-80.6451612903226,4,2,1,5,0,0
64120,-80.6451612903226,4,2,1,85,0,0
65759,-87.719298245614,4,2,1,85,0,0
68382,324.324324324324,4,2,1,85,1,0
68382,-80.6451612903225,4,2,1,85,0,0
68625,-80.6451612903225,4,2,1,5,0,0
68706,-185.185185185185,4,2,1,85,0,0
68947,-185.185185185185,4,2,1,5,0,0
69030,329.67032967033,4,2,1,85,1,0
69030,-80.6451612903225,4,2,1,85,0,0
69277,-80.6451612903225,4,2,1,5,0,0
69359,-185.185185185185,4,2,1,85,0,0
69606,-185.185185185185,4,2,1,5,0,0
69689,326.086956521739,4,2,1,85,1,0
69689,-80.6451612903225,4,2,1,85,0,0
69933,-80.6451612903225,4,2,1,5,0,0
70015,-135.135135135135,4,2,1,85,0,0
70259,-135.135135135135,4,2,1,5,0,0
70341,324.324324324324,4,2,1,85,1,0
70989,331.491712707182,4,2,1,80,1,0
70989,-87.719298245614,4,2,1,80,0,0
72232,-87.719298245614,4,2,1,5,0,0
72314,-87.719298245614,4,2,1,80,0,0
72977,326.086956521739,4,2,1,80,1,0
72977,-87.719298245614,4,2,1,80,0,0
73547,-87.719298245614,4,2,1,5,0,0
73629,326.086956521739,4,2,1,80,1,0
73629,-87.719298245614,4,2,1,80,0,0
74933,322.58064516129,4,2,1,80,1,0
74933,-87.719298245614,4,2,1,80,0,0
76139,-87.719298245614,4,2,1,5,0,0
76223,333.333333333333,4,2,1,80,1,0
76223,-87.719298245614,4,2,1,80,0,0
77556,-135.135135135135,4,2,1,75,0,0
78223,300,4,2,1,75,1,0
78373,324.324324324324,4,2,1,75,1,0
78697,-96.1538461538461,4,2,1,75,0,0
78859,329.67032967033,4,2,1,80,1,0
78859,-87.719298245614,4,2,1,80,0,0
79106,-87.719298245614,4,2,1,5,0,0
79188,-87.719298245614,4,2,1,80,0,0
80837,319.148936170213,4,2,1,80,1,0
80837,-87.719298245614,4,2,1,80,0,0
81475,319.148936170213,4,2,1,80,1,0
81475,-87.719298245614,4,2,1,80,0,0
81714,-87.719298245614,4,2,1,5,0,0
81794,327.868852459016,4,2,1,80,1,0
81794,-87.719298245614,4,2,1,80,0,0
82777,333.333333333333,4,2,1,80,1,0
82777,-87.719298245614,4,2,1,80,0,0
84110,337.078651685393,4,2,1,80,1,0
84110,-80.6451612903226,4,2,1,80,0,0
84784,322.58064516129,4,2,1,80,1,0
84784,-80.6451612903226,4,2,1,80,0,0
85429,322.58064516129,4,2,1,80,1,0
85429,-80.6451612903226,4,2,1,80,0,0
86396,338.983050847458,4,2,1,80,1,0
86396,-80.6451612903226,4,2,1,80,0,0
86734,329.67032967033,3,2,1,80,1,0
86734,-80.6451612903226,4,2,1,80,0,0
88712,-83.3333333333333,3,2,1,85,0,0

[Colours]
Combo1 : 14,63,177
Combo2 : 244,215,96

[HitObjects]
477,301,2822,6,0,P|402:326|352:265,1,167.04,6|2,0:0|0:0,0:0:0:0:
228,157,3478,1,0,0:0:0:0:
285,109,3642,6,0,P|299:132|301:160,1,55.68,2|0,0:0|0:0,0:0:0:0:
233,295,3970,1,2,0:0:0:0:
341,270,4134,6,0,P|285:275|233:295,1,111.36,2|2,0:0|0:0,0:0:0:0:
181,345,4626,2,0,P|125:339|73:319,1,111.36,2|2,0:0|0:0,0:0:0:0:
341,270,5281,1,2,0:0:0:0:
231,220,5445,6,0,B|267:230|299:210|299:210|272:227|268:263,1,111.36,2|2,0:0|0:0,0:0:0:0:
414,190,5937,6,0,P|409:136|363:107,2,111.36,2|2|2,0:0|0:0|0:0,0:0:0:0:
452,254,6757,2,0,P|437:277|430:304,1,55.68,2|0,0:0|0:0,0:0:0:0:
448,375,7085,1,2,0:0:0:0:
184,147,7413,5,2,0:0:0:0:
284,189,7737,5,2,0:0:0:0:
493,66,8046,6,0,B|443:87|389:54|389:54|380:54|380:54|423:76|423:131,1,193.140004715332,6|0,3:2|3:2,0:0:0:0:
424,132,8619,1,0,3:2:0:0:
424,132,8701,1,10,0:0:0:0:
508,49,8865,1,8,2:3:0:0:
340,117,9029,5,6,2:3:0:0:
268,100,9193,1,2,3:2:0:0:
108,188,9357,5,10,0:0:0:0:
328,384,10668,5,8,2:3:0:0:
278,369,10748,1,4,2:3:0:0:
254,329,10829,1,0,3:2:0:0:
260,283,10909,1,0,3:2:0:0:
278,273,10990,5,8,2:3:0:0:
283,238,11070,1,0,0:0:0:0:
265,209,11151,1,4,2:3:0:0:
244,202,11231,1,0,0:0:0:0:
231,205,11313,6,0,B|182:238|248:267|247:261|312:293|252:329,1,164.430004014404,10|0,0:0|0:0,0:0:0:0:
184,376,11994,6,0,P|251:344|324:337,1,148.76999818396,6|0,3:2|0:0,0:0:0:0:
375,286,12320,2,0,P|420:301|431:347,1,99.1799987893067,10|2,0:0|0:0,0:0:0:0:
303,242,12646,1,8,0:0:0:0:
430,139,12809,6,0,L|334:163,1,99.1799987893067,2|10,3:2|0:0,0:0:0:0:
170,67,13135,1,0,3:2:0:0:
222,17,13298,2,0,P|252:54|247:101,1,99.1799987893067,10|2,0:0|0:0,0:0:0:0:
144,212,13622,5,8,0:0:0:0:
211,251,13784,1,2,3:0:0:0:
225,232,13865,1,2,3:2:0:0:
223,208,13946,1,10,0:0:0:0:
73,319,14108,1,2,3:2:0:0:
195,384,14270,6,0,L|175:286,1,99.1799987893067,10|2,0:0|3:2,0:0:0:0:
280,109,14595,1,10,0:0:0:0:
143,212,14760,1,2,0:0:0:0:
318,312,14926,5,10,0:0:0:0:
302,242,15092,1,2,3:2:0:0:
192,113,15257,5,10,2:3:0:0:
215,45,15423,1,6,2:3:0:0:
368,172,15589,5,10,0:0:0:0:
143,301,15755,2,0,B|103:300|81:263|81:263|115:293|156:284,1,135.719999171631,6|0,3:2|0:0,0:0:0:0:
50,350,16086,1,2,3:2:0:0:
143,212,16246,5,10,0:0:0:0:
240,355,16406,1,10,0:0:0:0:
237,331,16487,1,8,0:0:0:0:
220,315,16568,1,10,0:0:0:0:
127,210,16728,5,8,2:3:0:0:
110,136,16889,1,4,2:3:0:0:
175,99,17050,1,4,2:3:0:0:
274,150,17231,5,6,3:2:0:0:
443,90,17558,5,2,0:0:0:0:
398,32,17722,2,0,P|336:37|313:93,1,128.760003143555,2|2,0:0|0:0,0:0:0:0:
274,150,18214,1,0,0:0:0:0:
336,227,18378,6,0,P|398:243|458:265,2,128.760003143555,2|2|2,0:0|0:0|0:0,0:0:0:0:
279,270,19198,1,0,0:0:0:0:
185,343,19362,6,0,P|123:334|96:279,1,128.760003143555,2|2,0:0|0:0,0:0:0:0:
38,230,19853,2,0,P|33:198|22:167,1,64.3800015717774,2|0,0:0|0:0,0:0:0:0:
121,98,20181,1,2,0:0:0:0:
177,143,20345,2,0,P|162:171|154:202,1,64.3800015717774,2|0,0:0|0:0,0:0:0:0:
45,61,20673,6,0,P|91:19|153:25,1,128.760003143555,2|0,0:0|0:0,0:0:0:0:
224,8,21165,1,2,0:0:0:0:
307,163,21493,6,0,P|338:170|367:184,1,64.3800015717774,2|2,0:0|0:0,0:0:0:0:
451,118,21821,1,0,0:0:0:0:
508,193,21985,6,0,P|446:205|418:260,1,128.760003143555,0|2,0:0|0:0,0:0:0:0:
463,318,22476,1,2,0:0:0:0:
334,269,22640,2,0,P|353:294|364:324,1,64.3800015717774,0|2,0:0|0:0,0:0:0:0:
418,260,22968,5,0,0:0:0:0:
319,383,23132,1,2,0:0:0:0:
463,318,23296,2,0,P|409:283|345:279,1,128.760003143555,2|2,0:0|0:0,0:0:0:0:
277,234,23788,6,0,P|249:247|217:254,1,64.3800015717774,2|0,0:0|0:0,0:0:0:0:
121,358,24116,1,2,0:0:0:0:
207,289,24280,1,0,0:0:0:0:
70,213,24444,1,2,0:0:0:0:
124,349,24608,6,0,P|133:285|147:222,1,128.760003143555,2|2,0:0|0:0,0:0:0:0:
71,72,25099,2,0,P|103:126|163:143,2,128.760003143555,2|2|0,0:0|0:0|0:0,0:0:0:0:
31,186,25919,1,2,0:0:0:0:
185,80,26083,6,0,P|154:88|128:106,1,64.3800015717774,2|0,0:0|0:0,0:0:0:0:
297,204,26411,2,0,P|247:163|184:154,1,128.760003143555,2|2,0:0|0:0,0:0:0:0:
127,106,26903,1,2,0:0:0:0:
34,299,27067,6,0,P|0:213|56:141,1,193.140004715332,0|0,0:0|0:0,0:0:0:0:
204,4,27722,6,0,P|243:38|235:90,1,109.619996654663,6|0,3:2|0:0,0:0:0:0:
252,108,28059,2,0,B|215:128|228:132|192:149,1,73.0799977697755,2|0,3:2|0:0,0:0:0:0:
66,176,28396,2,0,P|26:210|34:262,1,109.619996654663,2|0,3:2|0:0,0:0:0:0:
17,280,28720,2,0,B|54:300|41:304|76:321,1,73.0799977697755,2|2,3:2|0:0,0:0:0:0:
188,375,29044,6,0,P|238:351|292:341,1,109.619996654663,2|0,3:2|0:0,0:0:0:0:
315,350,29368,2,0,P|342:327|346:292,1,73.0799977697755,0|2,3:2|0:0,0:0:0:0:
512,258,29692,6,0,P|462:234|408:224,1,109.619996654663,0|0,3:2|0:0,0:0:0:0:
385,233,30016,2,0,P|357:209|353:174,1,73.0799977697755,0|2,3:2|0:0,0:0:0:0:
464,29,30341,6,0,P|500:68|484:118,1,109.619996654663,2|0,3:2|0:0,0:0:0:0:
485,143,30670,1,2,3:2:0:0:
395,8,30835,2,0,P|359:46|375:96,1,109.619996654663,2|0,0:0|0:0,0:0:0:0:
398,107,31165,2,0,P|364:120|335:143,1,73.0799977697755,2|0,0:0|3:2,0:0:0:0:
201,97,31494,1,2,0:0:0:0:
152,157,31659,6,0,P|147:193|163:225,1,73.0799977697755,2|2,3:2|0:0,0:0:0:0:
319,155,31989,2,0,P|323:190|307:222,1,73.0799977697755,2|2,3:2|0:0,0:0:0:0:
199,86,32319,6,0,P|233:97|269:102,1,73.0799977697755,2|0,3:2|0:0,0:0:0:0:
149,248,32648,2,0,P|181:232|217:223,1,73.0799977697755,0|2,3:2|0:0,0:0:0:0:
384,291,32978,5,2,3:2:0:0:
449,322,33141,1,2,0:0:0:0:
509,276,33305,5,2,3:2:0:0:
324,337,33469,1,2,0:0:0:0:
429,225,33633,5,2,3:2:0:0:
408,155,33797,1,2,0:0:0:0:
415,232,33961,1,0,3:2:0:0:
431,146,34125,1,2,0:0:0:0:
512,231,34289,6,0,P|476:236|443:253,1,73.0799977697755,2|2,3:2|0:0,0:0:0:0:
344,190,34617,2,0,P|308:184|275:167,1,73.0799977697755,2|2,3:2|0:0,0:0:0:0:
190,285,34945,1,2,3:2:0:0:
258,257,35109,1,2,0:0:0:0:
155,166,35273,1,0,3:2:0:0:
169,170,35437,1,2,0:0:0:0:
87,283,35600,6,0,P|50:244|57:192,1,109.619996654663,2|0,3:2|0:0,0:0:0:0:
41,171,35928,2,0,P|49:137|35:104,1,73.0799977697755,2|0,3:2|0:0,0:0:0:0:
0,285,36256,6,0,P|39:248|93:238,1,109.619996654663,2|0,3:2|0:0,0:0:0:0:
113,222,36584,1,2,3:2:0:0:
16,379,36912,5,2,3:2:0:0:
310,27,37414,5,2,3:2:0:0:
170,92,37572,1,10,0:0:0:0:
227,43,37731,6,0,B|256:49|256:49|262:53|262:53|289:58,1,64.3800015717774,2|10,3:2|2:3,0:0:0:0:
336,116,38060,1,6,2:3:0:0:
472,63,38229,6,0,B|429:80|375:52|375:52|412:71|412:118,1,167.04,6|0,3:2|3:2,0:0:0:0:
325,167,38875,2,0,P|322:139|335:115,1,55.68,0|0,0:0|3:2,0:0:0:0:
441,221,39199,6,0,P|399:225|361:241,1,83.52,10|0,0:0|0:0,0:0:0:0:
207,223,39522,6,0,B|260:231|305:186|305:186|313:184|313:184|277:215|290:269,1,193.140004715332,2|0,3:2|3:2,0:0:0:0:
371,293,40181,2,0,P|373:265|360:241,1,55.68,0|0,0:0|3:2,0:0:0:0:
241,342,40511,6,0,P|282:346|320:362,1,83.52,8|0,0:0|0:0,0:0:0:0:
436,348,40840,6,0,B|460:303|508:302|508:302|442:292|412:361,1,193.140004715332,2|0,3:2|3:2,0:0:0:0:
287,251,41492,2,0,P|265:227|260:196,1,64.3800015717774,0|0,0:0|3:2,0:0:0:0:
198,309,41818,1,12,0:0:0:0:
269,188,41981,1,0,0:0:0:0:
129,280,42144,6,0,P|144:252|173:238,1,64.3800015717774,6|8,3:2|0:3,0:0:0:0:
275,115,42470,2,0,P|306:121|328:144,1,64.3800015717774,4|0,2:3|3:3,0:0:0:0:
155,22,42796,2,0,P|189:54|194:101,1,96.5700023576661,2|0,3:2|0:0,0:0:0:0:
146,159,43122,6,0,B|137:142|119:142|119:142|143:138|154:163,1,70.470001720459,12|0,0:0|0:0,0:0:0:0:
194,218,43453,1,6,3:2:0:0:
357,277,43617,1,2,0:0:0:0:
240,375,43782,6,0,L|263:287,1,90.4799994477539,10|2,0:0|0:0,0:0:0:0:
186,128,44112,1,2,3:2:0:0:
351,268,44277,1,2,0:0:0:0:
279,95,44442,6,0,P|235:104|210:141,1,90.4799994477539,10|2,0:0|0:0,0:0:0:0:
409,323,44771,2,0,L|388:234,1,90.4799994477539,2|0,3:2|0:0,0:0:0:0:
432,60,45097,1,10,0:0:0:0:
355,163,45261,1,0,0:0:0:0:
208,40,45424,5,2,3:2:0:0:
440,179,45670,5,2,0:0:0:0:
292,351,45915,5,2,0:0:0:0:
190,250,46078,6,0,P|228:273|272:282,1,90.4799994477539,2|0,3:2|0:0,0:0:0:0:
401,359,46405,2,0,P|445:351|483:327,1,90.4799994477539,8|0,0:0|0:0,0:0:0:0:
288,185,46732,5,2,3:2:0:0:
126,345,46978,5,2,0:0:0:0:
0,121,47225,5,2,0:0:0:0:
158,0,47391,5,10,3:2:0:0:
190,22,47473,1,8,0:0:0:0:
202,60,47555,1,8,0:0:0:0:
187,97,47638,1,8,0:0:0:0:
170,105,47720,5,8,3:2:0:0:
138,143,47803,1,8,0:0:0:0:
151,200,47885,1,8,0:0:0:0:
206,232,47967,1,8,0:0:0:0:
268,207,48050,6,0,P|246:220|230:242,1,53.9399978600465,8|8,3:2|0:0,0:0:0:0:
93,92,48215,2,0,P|99:118|114:139,1,53.9399978600465,8|8,0:0|0:0,0:0:0:0:
274,7,48380,6,0,P|251:23|226:33,1,53.9399978600465,8|8,3:2|0:2,0:0:0:0:
110,274,48544,2,0,P|131:257|156:247,1,53.9399978600465,8|8,0:2|0:2,0:0:0:0:
379,349,48709,5,8,3:2:0:0:
108,155,48874,1,8,3:2:0:0:
418,51,49204,5,0,0:0:0:0:
474,19,49369,2,0,P|437:20|417:51,1,76.5600023364259,2|2,0:0|0:0,0:0:0:0:
313,180,50028,6,0,B|268:182|250:219|250:219|264:163|347:166,1,161.819993580139,6|0,3:2|0:0,0:0:0:0:
381,149,50354,1,8,0:0:0:0:
189,72,50517,1,2,0:0:0:0:
317,253,50681,1,2,3:2:0:0:
217,356,50844,6,0,P|200:334|197:308,1,53.9399978600465,2|0,0:0|0:0,0:0:0:0:
241,245,51007,1,8,0:0:0:0:
106,371,51170,1,2,0:0:0:0:
186,290,51334,6,0,P|141:260|89:248,1,107.879995720093,2|0,3:2|0:0,0:0:0:0:
310,96,51660,1,10,0:0:0:0:
164,190,51823,6,0,B|206:179|206:179|227:161|227:161|262:149,1,107.879995720093,2|0,0:0|3:2,0:0:0:0:
90,43,52150,1,2,0:0:0:0:
153,0,52313,2,0,P|187:39|180:91,1,107.879995720093,8|2,0:0|0:0,0:0:0:0:
369,269,52640,6,0,B|319:272|291:218|291:218|318:289|251:344,1,215.759991440186,2|10,3:2|0:0,0:0:0:0:
285,199,53131,1,2,0:0:0:0:
193,354,53295,1,0,3:2:0:0:
290,192,53459,6,0,B|224:207|263:221|194:239,1,107.879995720093,2|8,0:0|0:0,0:0:0:0:
77,136,53787,1,2,0:0:0:0:
83,61,53951,2,0,B|152:79|113:93|178:108,1,107.879995720093,2|0,3:2|0:0,0:0:0:0:
299,15,54279,1,10,0:0:0:0:
441,185,54443,6,0,P|469:141|451:93,1,107.879995720093,2|0,0:0|3:2,0:0:0:0:
512,227,54771,1,2,0:0:0:0:
303,107,54935,2,0,L|326:212,1,107.879995720093,8|2,0:0|0:0,0:0:0:0:
281,374,55262,5,6,3:2:0:0:
318,310,55430,1,2,0:0:0:0:
181,170,55599,5,10,0:0:0:0:
224,313,55767,1,2,0:0:0:0:
368,128,55936,5,2,3:2:0:0:
315,289,56097,1,2,0:0:0:0:
163,93,56258,6,0,P|211:96|246:130,1,99.1799987893067,8|2,0:0|0:0,0:0:0:0:
392,0,56581,5,2,3:2:0:0:
324,22,56744,1,2,0:0:0:0:
173,174,56908,5,10,0:0:0:0:
105,152,57071,1,2,0:0:0:0:
4,22,57236,5,2,3:2:0:0:
106,141,57400,1,2,0:0:0:0:
17,289,57564,5,8,0:0:0:0:
56,226,57728,2,0,P|74:242|84:264,1,49.5899993946533,2|2,0:0|0:0,0:0:0:0:
48,370,57892,6,0,B|65:334|112:338|112:338|70:345|53:384,1,148.76999818396,4|0,3:2|0:0,0:0:0:0:
223,301,58220,2,0,B|206:265|159:269|159:269|201:276|219:315,1,148.76999818396,10|0,0:0|0:0,0:0:0:0:
273,356,58548,5,12,3:2:0:0:
321,360,58630,1,8,0:0:0:0:
359,330,58712,1,8,0:0:0:0:
365,282,58793,1,8,0:0:0:0:
412,224,58876,5,10,3:2:0:0:
386,210,58955,1,8,0:0:0:0:
372,184,59034,1,8,0:0:0:0:
376,155,59114,1,8,0:0:0:0:
429,105,59193,5,6,3:2:0:0:
211,297,59441,5,6,3:2:0:0:
61,48,59690,6,0,B|101:37|128:73|128:73|87:97|103:157,1,148.76999818396,6|0,3:2|0:0,0:0:0:0:
171,130,60021,1,2,3:2:0:0:
62,205,60187,6,0,B|46:210|39:235|39:235|63:209|97:206,1,96.5700023576661,8|0,0:0|0:0,0:0:0:0:
259,302,60514,6,0,B|287:281|322:286|322:286|370:215|284:202,1,161.819993580139,6|0,3:2|0:0,0:0:0:0:
288,212,60841,1,8,0:0:0:0:
450,331,61005,1,2,0:0:0:0:
388,138,61169,1,2,3:2:0:0:
440,37,61333,6,0,P|448:62|440:87,1,53.9399978600465,2|0,0:0|0:0,0:0:0:0:
388,138,61497,1,8,0:0:0:0:
503,272,61661,1,2,0:0:0:0:
347,208,61825,6,0,P|388:174|440:163,1,107.879995720093,2|0,3:2|0:0,0:0:0:0:
257,61,62153,1,10,0:0:0:0:
168,255,62317,6,0,B|177:215|177:215|185:195|185:195|193:150,1,107.879995720093,2|0,0:0|3:2,0:0:0:0:
320,281,62645,1,2,0:0:0:0:
119,338,62809,2,0,P|151:297|204:296,1,107.879995720093,8|2,0:0|0:0,0:0:0:0:
35,182,63136,5,2,3:2:0:0:
106,207,63300,1,2,0:0:0:0:
276,360,63464,5,10,0:0:0:0:
347,335,63628,1,2,0:0:0:0:
479,214,63792,6,0,B|512:190|509:151|509:151|525:200|473:235,1,161.819993580139,2|0,3:2|0:0,0:0:0:0:
423,266,64120,2,0,B|363:245|383:275|317:251,1,107.879995720093,10|0,0:0|0:0,0:0:0:0:
215,76,64448,6,0,P|225:102|242:123,1,53.9399978600465,2|0,3:2|0:0,0:0:0:0:
304,155,64612,1,2,0:0:0:0:
168,334,64776,1,8,0:0:0:0:
230,374,64940,2,0,P|252:326|235:276,1,107.879995720093,2|0,0:0|3:2,0:0:0:0:
316,137,65268,1,2,0:0:0:0:
139,246,65432,5,8,0:0:0:0:
112,178,65595,1,2,0:0:0:0:
250,9,65759,5,6,3:2:0:0:
186,183,65923,1,2,0:0:0:0:
313,304,66087,6,0,P|337:263|323:218,1,99.1799987893067,10|2,0:0|0:0,0:0:0:0:
169,333,66415,1,2,3:2:0:0:
237,302,66579,1,2,0:0:0:0:
141,237,66743,6,0,B|130:213|100:216|100:216|126:221|138:245,1,99.1799987893067,8|2,0:0|0:0,0:0:0:0:
287,53,67071,5,2,3:2:0:0:
218,229,67235,1,2,0:0:0:0:
383,337,67399,5,10,0:0:0:0:
344,170,67563,1,2,0:0:0:0:
235,323,67727,5,2,3:2:0:0:
301,361,67891,1,2,0:0:0:0:
455,265,68054,6,0,B|465:241|495:244|495:244|469:249|457:273,1,99.1799987893067,8|2,0:0|0:0,0:0:0:0:
265,170,68382,6,0,P|264:94|335:67,1,161.819993580139,6|0,3:2|0:0,0:0:0:0:
371,3,68706,2,0,P|398:24|409:57,1,70.470001720459,10|0,0:0|0:0,0:0:0:0:
323,231,69030,6,0,B|250:258|250:258|247:262|247:262|172:288,1,161.819993580139,6|0,3:2|0:0,0:0:0:0:
138,352,69359,2,0,P|110:330|99:297,1,70.470001720459,10|0,0:0|0:0,0:0:0:0:
15,195,69689,6,0,B|40:103|40:103|30:148|54:185,1,161.819993580139,6|0,3:2|0:0,0:0:0:0:
92,50,70015,6,0,B|77:-2|77:-2|83:23|73:47,1,96.5700023576661,8|0,0:2|0:2,0:0:0:0:
115,198,70341,5,2,3:2:0:0:
143,149,70422,1,0,3:2:0:0:
196,130,70503,1,8,0:0:0:0:
249,143,70584,1,8,0:0:0:0:
295,203,70665,5,8,3:2:0:0:
367,219,70746,1,8,3:2:0:0:
428,177,70827,1,8,3:2:0:0:
425,103,70908,1,8,3:2:0:0:
356,73,70989,6,0,P|349:96|354:120,1,49.5899993946533,6|0,3:2|0:0,0:0:0:0:
468,275,71154,6,0,P|429:243|383:228,1,99.1799987893067,0|8,0:0|0:0,0:0:0:0:
497,138,71486,1,0,3:2:0:0:
336,0,71651,6,0,P|294:26|279:72,1,99.1799987893067,0|0,0:0|3:2,0:0:0:0:
197,195,71983,2,0,B|232:223|280:209|280:209|241:221|226:260,1,148.76999818396,10|0,0:0|0:0,0:0:0:0:
289,375,72314,6,0,P|314:334|297:289,1,99.1799987893067,2|0,3:2|3:2,0:0:0:0:
388,384,72646,1,8,0:0:0:0:
295,278,72812,1,0,3:2:0:0:
472,157,72977,6,0,B|411:171|444:179|381:194,1,99.1799987893067,2|0,0:0|0:0,0:0:0:0:
209,132,73303,2,0,B|163:124|154:72|154:72|170:111|205:120,1,148.76999818396,8|0,0:0|0:0,0:0:0:0:
280,152,73629,6,0,B|343:137|310:129|371:115,1,99.1799987893067,2|0,3:2|0:0,0:0:0:0:
226,265,73955,1,8,0:0:0:0:
326,361,74118,6,0,P|311:341|289:331,1,49.5899993946533,0|0,3:2|0:0,0:0:0:0:
219,258,74281,6,0,P|172:275|123:283,1,99.1799987893067,0|0,0:0|3:2,0:0:0:0:
284,143,74607,1,10,0:0:0:0:
220,64,74770,6,0,P|185:97|187:146,1,99.1799987893067,2|0,0:0|3:0,0:0:0:0:
307,256,75094,1,2,3:2:0:0:
145,361,75255,6,0,P|192:344|241:336,1,99.1799987893067,10|0,0:0|3:2,0:0:0:0:
366,201,75578,2,0,P|412:217|461:225,1,99.1799987893067,8|0,0:0|3:2,0:0:0:0:
289,88,75900,6,0,B|241:89|213:140|213:140|232:104|218:63,1,148.76999818396,8|0,3:2|0:0,0:0:0:0:
149,98,76223,5,14,0:0:0:0:
358,197,76389,1,0,3:2:0:0:
274,265,76556,5,2,3:2:0:0:
375,62,76723,1,12,0:0:0:0:
466,291,76889,5,2,3:2:0:0:
395,271,77056,1,0,3:2:0:0:
146,107,77223,5,10,2:3:0:0:
29,138,77390,5,10,2:3:0:0:
327,244,77556,6,0,B|333:204|382:193|382:193|321:192|300:239|313:236|296:278|238:281,1,257.52000628711,6|0,3:2|0:0,0:0:0:0:
186,330,78373,1,0,3:2:0:0:
170,315,78454,1,0,3:2:0:0:
149,311,78535,1,8,0:0:0:0:
232,207,78697,6,0,P|209:211|190:223,1,45.239999723877,2|0,0:0|0:0,0:0:0:0:
29,327,78859,6,0,B|39:329|47:337|47:337|99:331|116:257|53:229,1,148.76999818396,6|0,3:2|0:0,0:0:0:0:
36,178,79188,6,0,P|16:192|4:213,1,49.5899993946533,8|0,0:0|0:0,0:0:0:0:
71,240,79353,1,2,0:0:0:0:
174,123,79518,6,0,P|139:89|90:84,1,99.1799987893067,0|0,0:0|3:2,0:0:0:0:
250,0,79848,1,10,0:0:0:0:
84,91,80012,2,0,B|137:76|123:93|181:76,1,99.1799987893067,2|0,0:0|3:2,0:0:0:0:
353,181,80342,1,2,3:2:0:0:
324,9,80507,2,0,L|297:104,1,99.1799987893067,8|2,0:0|0:0,0:0:0:0:
400,237,80837,6,0,P|417:220|425:196,1,49.5899993946533,2|0,3:2|3:2,0:0:0:0:
353,181,80996,1,2,3:2:0:0:
227,347,81156,6,0,P|209:330|201:306,1,49.5899993946533,10|0,0:0|3:2,0:0:0:0:
274,291,81315,1,0,3:2:0:0:
462,384,81475,6,0,P|391:360|317:351,1,148.76999818396,2|0,3:2|0:0,0:0:0:0:
274,291,81794,1,8,0:0:0:0:
126,372,81957,2,0,P|80:356|67:310,1,99.1799987893067,2|0,0:0|3:2,0:0:0:0:
28,251,82285,1,2,3:0:0:0:
148,138,82449,6,0,P|196:139|223:178,1,99.1799987893067,8|2,0:0|3:2,0:0:0:0:
104,58,82777,1,0,3:2:0:0:
242,178,82943,2,0,P|224:222|177:233,1,99.1799987893067,2|14,3:2|3:2,0:0:0:0:
298,351,83277,1,0,3:2:0:0:
163,236,83443,5,8,3:2:0:0:
210,222,83526,1,0,0:0:0:0:
256,237,83609,1,8,0:0:0:0:
287,275,83692,1,8,0:0:0:0:
296,309,83777,5,8,3:2:0:0:
322,341,83860,1,8,3:2:0:0:
363,354,83943,1,8,3:2:0:0:
405,343,84026,1,8,3:2:0:0:
475,331,84110,6,0,P|467:305|449:285,1,53.9399978600465,6|0,3:2|0:0,0:0:0:0:
366,148,84278,6,0,B|386:84|386:84|378:113|393:142,1,107.879995720093,0|10,0:0|0:0,0:0:0:0:
512,185,84615,6,0,P|477:224|424:228,1,107.879995720093,2|0,0:0|3:2,0:0:0:0:
291,90,84945,1,2,0:0:0:0:
165,205,85106,6,0,P|113:219|67:248,1,107.879995720093,10|0,0:0|0:0,0:0:0:0:
257,326,85429,1,0,3:2:0:0:
53,259,85590,6,0,P|75:273|101:277,1,53.9399978600465,2|0,0:0|0:0,0:0:0:0:
289,168,85751,6,0,P|248:201|241:253,1,107.879995720093,8|2,0:0|0:0,0:0:0:0:
113,108,86074,1,2,3:2:0:0:
137,180,86235,1,0,3:2:0:0:
28,371,86396,6,0,B|50:312|30:328|52:266,1,107.879995720093,10|0,0:0|3:0,0:0:0:0:
150,39,86734,6,0,P|172:54|183:78,1,53.9399978600465,14|0,3:2|3:2,0:0:0:0:
282,125,86898,2,0,P|274:150|255:168,1,53.9399978600465,2|0,3:2|3:2,0:0:0:0:
126,276,87063,1,0,3:2:0:0:
185,239,87146,1,0,3:2:0:0:
251,262,87228,6,0,P|263:285|264:312,1,53.9399978600465,14|0,3:2|3:2,0:0:0:0:
126,194,87393,2,0,P|144:174|169:165,1,53.9399978600465,2|0,3:2|3:0,0:0:0:0:
0,341,87558,1,0,3:2:0:0:
59,378,87641,1,0,3:2:0:0:
125,355,87723,6,0,P|137:331|138:304,1,53.9399978600465,14|0,3:2|3:2,0:0:0:0:
228,123,87887,2,0,P|208:104|183:94,1,53.9399978600465,0|0,3:2|3:2,0:0:0:0:
51,11,88052,1,0,3:2:0:0:
15,41,88134,1,0,3:2:0:0:
19,87,88217,6,0,P|45:92|70:103,1,53.9399978600465,14|0,3:2|3:2,0:0:0:0:
251,262,88382,2,0,P|277:257|302:246,1,53.9399978600465,0|0,3:2|3:2,0:0:0:0:
436,116,88547,1,0,3:2:0:0:
466,127,88629,1,0,3:2:0:0:
477,156,88712,6,0,P|472:129|455:107,1,52.1999984069825,14|0,3:2|0:0,0:0:0:0:
169,251,88876,6,0,P|174:224|191:202,1,52.1999984069825,14|0,3:2|0:0,0:0:0:0:
480,384,89041,6,0,P|474:357|456:337,1,52.1999984069825,14|0,3:2|0:0,0:0:0:0:
389,321,89206,5,0,0:0:0:0:
