osu file format v14

[General]
AudioFilename: audio.mp3
AudioLeadIn: 0
PreviewTime: 49121
Countdown: 0
SampleSet: Soft
StackLeniency: 0.2
Mode: 0
LetterboxInBreaks: 0
WidescreenStoryboard: 0

[Editor]
Bookmarks: 2818,11994,17231,27722,38229,50028
DistanceSpacing: 1.5
BeatDivisor: 4
GridSize: 32
TimelineZoom: 2.5

[Metadata]
Title:RESISTER (TV Size)
TitleUnicode:RESISTER (TV Size)
Artist:ASCA
ArtistUnicode:ASCA
Creator:Gweon Sua
Version:ARTIFICIAL LABILE INTELLIGENT CYBERNATED EXISTENCE
Source:ソードアート・オンライン アリシゼーション
Tags:xahlt kuon- wanpachi cycopton asukow shayks [_lost_] conner c_o_n_n_e_r Sarawatlism nevir nevlr Adinda Esutarosa 大倉明日香 あすか Ōkura okura oukura Asuka alice a.l.i.c.e. kirito asuna eugeo アスナ キリト アリス ユージオ sao sword art online alicization jrock japanese rock j-rock anime op opening season 3 three III SAO-A Project SACRA MUSIC Sony Entertainment
BeatmapID:3597253
BeatmapSetID:1757778

[Difficulty]
HPDrainRate:6
CircleSize:4.3
OverallDifficulty:9.2
ApproachRate:9.6
SliderMultiplier:2.1
SliderTickRate:1

[Events]
//Background and Video events
0,0,"alice.jpg",0,0
Video,1190,"VD.mp4"
//Break Periods
//Storyboard Layer 0 (Background)
//Storyboard Layer 1 (Fail)
//Storyboard Layer 2 (Pass)
//Storyboard Layer 3 (Foreground)
//Storyboard Layer 4 (Overlay)
//Storyboard Sound Samples

[TimingPoints]
-2423,327.868852459016,4,2,1,55,1,0
2819,-166.666666666667,4,2,1,55,0,0
7737,309.278350515464,4,2,1,55,1,0
8046,327.868852459016,4,2,1,70,1,0
8046,-100,4,2,1,70,0,0
10668,322.58064516129,4,2,1,70,1,0
11313,340.909090909091,4,2,1,70,1,0
11313,-200,4,2,1,70,0,0
11912,-200,4,2,1,5,0,0
11994,326.086956521739,4,2,1,80,1,0
11994,-76.9230769230769,4,2,1,80,0,0
12238,-76.9230769230769,4,2,1,5,0,0
12320,-90.9090909090909,4,2,1,80,0,0
13298,324.324324324324,4,2,1,80,1,0
14595,331.491712707182,4,2,1,80,1,0
16086,321.71581769437,4,2,1,80,1,0
16246,321.71581769437,4,2,1,80,1,0
17050,363.636363636364,4,2,1,80,1,0
17231,327.868852459016,4,2,1,55,1,0
17722,-166.666666666667,4,2,1,55,0,0
27722,337.078651685393,4,2,1,70,1,0
27722,-125,4,2,1,70,0,0
27974,-125,4,2,1,5,0,0
28059,-125,4,2,1,70,0,0
28396,324.324324324324,4,2,1,70,1,0
28396,-125,4,2,1,70,0,0
29044,324.324324324324,4,2,1,70,1,0
29044,-125,4,2,1,70,0,0
30341,329.67032967033,4,2,1,70,1,0
30341,-125,4,2,1,70,0,0
31577,-125,4,2,1,5,0,0
31659,-125,4,2,1,70,0,0
32978,327.868852459016,4,2,1,75,1,0
33797,-125,4,2,1,75,0,0
35846,-125,4,2,1,5,0,0
35928,-125,4,2,1,75,0,0
36502,-125,4,2,1,5,0,0
36584,-125,4,2,1,75,0,0
36912,335.195530726257,4,2,1,75,1,0
37414,317.460317460317,4,2,1,75,1,0
37731,329.67032967033,4,2,1,75,1,0
38060,338.983050847458,4,2,1,75,1,0
38229,323.450134770889,4,2,1,65,1,0
38229,-125,4,2,1,65,0,0
39522,329.67032967033,4,2,1,65,1,0
39522,-125,4,2,1,65,0,0
40840,326.086956521739,4,2,1,65,1,0
40840,-125,4,2,1,65,0,0
41247,-125,4,2,1,5,0,0
41329,-125,4,2,1,65,0,0
43122,331.491712707182,4,2,1,65,1,0
43122,-250,4,2,1,65,0,0
43370,-125,4,2,1,5,0,0
43453,329.67032967033,4,2,1,75,1,0
43453,-100,4,2,1,75,0,0
44771,326.975476839237,4,2,1,75,1,0
44771,-125,4,2,1,75,0,0
47059,332.409972299169,4,2,1,75,1,0
47391,329.67032967033,4,2,1,75,1,0
48050,-76.9230769230769,4,2,1,75,0,0
49369,-500,4,2,1,65,0,0
50028,326.530612244898,4,2,1,85,1,1
50028,-55.5555555555556,4,2,1,85,0,1
50517,-90.9090909090909,4,2,1,85,0,1
52640,327.868852459016,4,2,1,85,1,1
52640,-90.9090909090909,4,2,1,85,0,1
54771,-66.6666666666667,4,2,1,85,0,1
55262,337.078651685393,4,2,1,85,1,1
55936,322.58064516129,4,2,1,85,1,1
56258,-250,4,2,1,85,0,1
56581,327.868852459016,4,2,1,85,1,1
57564,-250,4,2,1,85,0,1
57892,-66.6666666666667,4,2,1,85,0,1
58138,-66.6666666666667,4,2,1,5,0,1
58220,-66.6666666666667,4,2,1,85,0,1
58466,-66.6666666666667,4,2,1,5,0,1
58548,-66.6666666666667,4,2,1,85,0,1
58876,317.460317460317,4,2,1,85,1,1
59193,331.491712707182,4,2,1,85,1,1
59193,-52.6315789473684,4,2,1,85,0,1
59358,-66.6666666666667,4,2,1,5,0,1
59441,-45.4545454545455,4,2,1,85,0,1
59607,-66.6666666666667,4,2,1,5,0,1
59690,-125,4,2,1,85,0,1
59938,-66.6666666666667,4,2,1,5,0,1
60021,-125,4,2,1,85,0,1
60187,327.868852459016,4,2,1,85,1,1
60187,-166.666666666667,4,2,1,85,0,1
60432,-66.6666666666667,4,2,1,5,0,1
60514,327.868852459016,4,2,1,85,1,1
60514,-55.5555555555556,4,2,1,85,0,1
61333,-90.9090909090909,4,2,1,85,0,1
64038,-66.6666666666667,4,2,1,5,0,1
64120,-90.9090909090909,4,2,1,85,0,1
65268,-66.6666666666667,4,2,1,85,0,1
68382,324.324324324324,4,2,1,85,1,1
68382,-66.6666666666667,4,2,1,85,0,1
68625,-66.6666666666667,4,2,1,5,0,1
68706,-166.666666666667,4,2,1,85,0,1
68947,-66.6666666666667,4,2,1,5,0,1
69030,329.67032967033,4,2,1,85,1,1
69030,-66.6666666666667,4,2,1,85,0,1
69277,-66.6666666666667,4,2,1,5,0,1
69359,-166.666666666667,4,2,1,85,0,1
69606,-66.6666666666667,4,2,1,5,0,1
69689,326.086956521739,4,2,1,85,1,1
69689,-83.3333333333333,4,2,1,85,0,1
69933,-66.6666666666667,4,2,1,5,0,1
70015,-83.3333333333333,4,2,1,85,0,1
70341,324.324324324324,4,2,1,85,1,1
70989,331.491712707182,4,2,1,80,1,0
70989,-83.3333333333333,4,2,1,80,0,0
71486,-100,4,2,1,80,0,0
72232,-100,4,2,1,5,0,0
72314,-100,4,2,1,80,0,0
72977,326.086956521739,4,2,1,80,1,0
73303,-250,4,2,1,80,0,0
73547,-100,4,2,1,5,0,0
73629,326.086956521739,4,2,1,80,1,0
73629,-83.3333333333333,4,2,1,80,0,0
74118,-100,4,2,1,80,0,0
74933,322.58064516129,4,2,1,80,1,0
75013,-100,4,2,1,5,0,0
75094,-100,4,2,1,80,0,0
76223,333.333333333333,4,2,1,80,1,0
78056,-250,4,2,1,75,0,0
78223,300,4,2,1,75,1,0
78373,324.324324324324,4,2,1,75,1,0
78859,329.67032967033,4,2,1,80,1,0
78859,-90.9090909090909,4,2,1,80,0,0
80095,-90.9090909090909,4,2,1,5,0,0
80177,-90.9090909090909,4,2,1,80,0,0
80837,319.148936170213,4,2,1,80,1,0
81156,-90.9090909090909,4,2,1,80,0,0
81475,319.148936170213,4,2,1,80,1,0
81475,-90.9090909090909,4,2,1,80,0,0
81794,327.868852459016,4,2,1,80,1,0
81957,-90.9090909090909,4,2,1,80,0,0
82777,333.333333333333,4,2,1,80,1,0
84110,337.078651685393,4,2,1,80,1,0
84278,-90.9090909090909,4,2,1,80,0,0
84784,322.58064516129,4,2,1,80,1,0
85429,322.58064516129,4,2,1,80,1,0
86396,338.983050847458,4,2,1,80,1,0
86734,329.67032967033,3,2,1,80,1,0
86734,-76.9230769230769,3,2,1,80,0,0
88712,-76.9230769230769,3,2,1,85,0,0
88794,-76.9230769230769,3,2,1,5,0,0
88876,-76.9230769230769,3,2,1,85,0,0
88959,-76.9230769230769,3,2,1,5,0,0
89041,-250,3,2,1,85,0,0
89371,-250,3,2,1,5,0,0

[Colours]
Combo1 : 14,63,177
Combo2 : 244,215,96

[HitObjects]
22,43,2822,6,0,P|116:58|206:92,1,188.999994232178,6|2,0:0|0:0,0:0:0:0:
381,66,3478,1,0,0:0:0:0:
302,80,3642,2,0,P|283:106|270:135,1,62.9999980773926,2|0,0:0|0:0,0:0:0:0:
191,193,3970,1,2,0:0:0:0:
353,250,4134,6,0,P|292:239|242:275,1,125.999996154785,2|2,0:0|0:0,0:0:0:0:
152,357,4626,2,0,P|143:326|131:297,1,62.9999980773926,2|0,0:0|0:0,0:0:0:0:
13,291,4954,2,0,P|21:260|33:231,1,62.9999980773926,2|0,0:0|0:0,0:0:0:0:
128,96,5281,1,2,0:0:0:0:
0,141,5445,6,0,P|61:156|141:184,1,125.999996154785,2|2,0:0|0:0,0:0:0:0:
244,85,5937,2,0,P|274:80|319:63,1,62.9999980773926,2|0,0:0|0:0,0:0:0:0:
415,184,6265,2,0,P|445:189|490:206,1,62.9999980773926,2|0,0:0|0:0,0:0:0:0:
406,72,6593,1,2,0:0:0:0:
303,176,6757,6,0,P|326:239|348:316,1,125.999996154785,2|2,0:0|0:0,0:0:0:0:
143,64,7413,2,0,P|119:127|98:204,1,124.999996154785,2|0,0:0|0:0,0:0:0:0:
3,308,8046,6,0,B|7:263|69:239|109:277|109:277|102:328|161:348,1,210,6|2,3:2|0:0,0:0:0:0:
282,379,8537,1,0,3:2:0:0:
275,368,8619,1,0,3:2:0:0:
267,357,8701,5,10,0:0:0:0:
210,269,8865,5,8,2:3:0:0:
265,196,9029,5,6,2:3:0:0:
200,122,9193,5,2,3:2:0:0:
271,27,9357,5,10,0:0:0:0:
502,216,10668,5,8,2:3:0:0:
455,248,10748,1,4,2:3:0:0:
400,228,10829,1,0,3:2:0:0:
385,172,10909,1,0,3:2:0:0:
416,123,10990,5,8,2:3:0:0:
380,193,11071,5,8,2:3:0:0:
340,260,11151,5,4,2:3:0:0:
313,334,11232,5,4,2:3:0:0:
305,328,11313,6,0,P|213:336|128:370,1,183.75,10|0,0:0|0:0,0:0:0:0:
54,341,11994,6,0,P|-8:291|41:188,1,204.749990627289,6|0,3:2|0:0,0:0:0:0:
38,179,12320,2,0,P|95:191|150:210,1,115.50000352478,10|2,0:0|0:0,0:0:0:0:
257,61,12646,5,8,0:0:0:0:
170,0,12809,2,0,P|141:57|166:105,1,115.50000352478,2|10,3:2|0:0,0:0:0:0:
383,219,13135,5,0,3:2:0:0:
409,122,13298,2,0,P|358:135|308:152,1,105,10|2,0:0|0:0,0:0:0:0:
158,353,13622,5,8,0:0:0:0:
226,279,13784,1,2,3:0:0:0:
188,262,13865,1,0,3:2:0:0:
151,254,13946,1,10,0:0:0:0:
33,67,14108,5,2,3:2:0:0:
134,41,14270,2,0,P|117:93|100:151,1,105,10|2,0:0|3:2,0:0:0:0:
19,270,14595,5,10,0:0:0:0:
29,259,14760,1,2,0:0:0:0:
213,184,14926,1,10,0:0:0:0:
349,326,15092,1,2,3:2:0:0:
448,288,15257,5,10,2:3:0:0:
280,240,15423,5,6,2:3:0:0:
164,356,15589,5,10,0:0:0:0:
349,326,15755,6,0,P|370:230|395:113,1,210,6|2,3:2|3:2,0:0:0:0:
303,12,16246,1,10,0:0:0:0:
229,128,16406,5,10,0:0:0:0:
254,120,16487,1,8,0:0:0:0:
283,113,16567,1,10,0:0:0:0:
418,15,16728,5,8,2:3:0:0:
481,220,16889,5,4,2:3:0:0:
393,120,17050,5,4,2:3:0:0:
477,207,17231,5,6,3:2:0:0:
484,317,17558,1,2,0:0:0:0:
493,306,17722,2,0,P|456:295|421:289,1,62.9999980773926,2|0,0:0|0:0,0:0:0:0:
374,241,18050,2,0,P|340:252|301:259,1,62.9999980773926,2|0,0:0|0:0,0:0:0:0:
255,307,18378,2,0,P|218:296|183:291,1,62.9999980773926,2|0,0:0|0:0,0:0:0:0:
131,334,18706,2,0,P|89:322|70:281,1,62.9999980773926,2|0,0:0|0:0,0:0:0:0:
27,240,19034,2,0,P|89:229|146:201,1,125.999996154785,2|2,0:0|0:0,0:0:0:0:
266,34,19690,5,2,0:0:0:0:
345,18,19853,2,0,P|337:50|329:91,1,62.9999980773926,2|0,0:0|0:0,0:0:0:0:
200,154,20181,1,2,0:0:0:0:
265,109,20345,2,0,P|273:141|281:182,1,62.9999980773926,2|0,0:0|0:0,0:0:0:0:
248,293,20673,2,0,P|288:256|356:270,1,125.999996154785,2|0,0:0|0:0,0:0:0:0:
483,332,21165,5,2,0:0:0:0:
463,343,21329,5,2,0:0:0:0:
388,339,21493,5,2,0:0:0:0:
357,256,21657,5,2,0:0:0:0:
421,181,21821,6,0,P|432:185|444:190,9,25.1999992309571,0|0|0|0|0|0|0|0|0|0,0:0|0:0|0:0|0:0|0:0|0:0|0:0|0:0|0:0|0:0,0:0:0:0:
504,124,22476,5,2,0:0:0:0:
500,113,22640,1,0,0:0:0:0:
441,52,22804,1,2,0:0:0:0:
365,104,22968,1,0,0:0:0:0:
266,40,23132,1,2,0:0:0:0:
216,96,23296,2,0,P|171:104|141:111,1,62.9999980773926,2|0,0:0|0:0,0:0:0:0:
0,65,23624,6,0,P|30:62|67:146,1,125.999996154785,2|0,0:0|0:0,0:0:0:0:
19,201,24116,1,2,0:0:0:0:
85,252,24280,1,0,0:0:0:0:
8,318,24444,1,2,0:0:0:0:
76,264,24608,2,0,P|85:294|95:330,1,62.9999980773926,2|0,0:0|0:0,0:0:0:0:
259,326,24935,5,2,0:0:0:0:
168,372,25099,2,0,P|177:315|187:242,1,125.999996154785,2|2,0:0|0:0,0:0:0:0:
282,190,25591,2,0,P|279:161|250:124,1,62.9999980773926,2|0,0:0|0:0,0:0:0:0:
149,17,25919,2,0,P|186:57|252:41,1,125.999996154785,2|0,0:0|0:0,0:0:0:0:
347,5,26411,5,2,0:0:0:0:
357,0,26575,5,2,0:0:0:0:
438,12,26739,5,2,0:0:0:0:
478,93,26903,5,2,0:0:0:0:
415,169,27067,6,0,P|399:164|377:158,9,25.1999992309571,0|0|0|0|0|0|0|0|0|0,0:0|0:0|0:0|0:0|0:0|0:0|0:0|0:0|0:0|0:0,0:0:0:0:
309,88,27722,6,0,P|244:81|189:142,1,126,6|0,3:2|0:0,0:0:0:0:
194,134,28059,2,0,P|156:137|115:103,1,84,2|0,3:2|0:0,0:0:0:0:
16,54,28396,2,0,P|24:92|34:154,1,84,2|0,3:2|0:0,0:0:0:0:
64,305,28720,5,2,3:2:0:0:
4,211,28882,2,0,P|45:219|101:233,1,84,2|0,0:0|3:2,0:0:0:0:
181,296,29206,2,0,P|218:299|269:259,1,84,2|0,0:0|3:2,0:0:0:0:
311,183,29530,2,0,P|348:190|400:206,1,84,2|0,0:0|3:2,0:0:0:0:
500,285,29854,2,0,P|422:273|364:362,1,168,2|2,0:0|0:0,0:0:0:0:
278,384,30341,6,0,P|267:341|250:280,1,84,2|0,3:2|0:0,0:0:0:0:
117,163,30670,1,2,3:2:0:0:
184,226,30835,2,0,P|193:185|205:144,1,84,2|0,0:0|3:2,0:0:0:0:
304,7,31165,5,2,0:0:0:0:
364,99,31330,2,0,P|303:108|250:62,1,126,2|0,3:2|0:0,0:0:0:0:
246,58,31659,5,2,3:2:0:0:
169,12,31824,5,2,0:0:0:0:
76,93,31989,5,2,3:2:0:0:
1,49,32154,5,2,0:0:0:0:
66,98,32319,6,0,P|60:113|54:129,9,33.6,2|0|0|0|0|0|0|0|0|0,3:2|0:0|0:0|0:0|0:0|3:2|0:0|0:0|0:0|0:0,0:0:0:0:
7,243,32978,5,2,3:2:0:0:
18,235,33141,1,2,0:0:0:0:
98,189,33305,1,2,3:2:0:0:
187,239,33469,1,2,0:0:0:0:
300,164,33633,1,2,3:2:0:0:
378,208,33797,2,0,P|418:195|458:185,1,84,2|0,0:0|3:2,0:0:0:0:
288,384,34125,6,0,P|325:348|247:248,1,168,2|2,0:0|0:0,0:0:0:0:
187,219,34617,1,2,3:2:0:0:
225,117,34781,1,2,0:0:0:0:
149,52,34945,1,2,3:2:0:0:
215,107,35109,2,0,P|223:68|236:18,1,84,2|0,0:0|3:2,0:0:0:0:
5,160,35437,5,2,0:0:0:0:
59,54,35600,2,0,P|74:113|94:205,1,126,2|0,3:2|0:0,0:0:0:0:
21,233,35928,2,0,P|-3:200|4:160,1,84,2|0,3:2|0:0,0:0:0:0:
201,198,36256,2,0,P|186:257|166:349,1,126,2|0,3:2|0:0,0:0:0:0:
237,382,36584,2,0,P|262:347|253:308,1,84,2|0,3:2|0:0,0:0:0:0:
36,357,36912,5,2,3:2:0:0:
44,350,37414,6,0,P|51:322|65:273,1,52.5,2|0,3:2|0:0,0:0:0:0:
103,119,37572,6,0,P|109:144|116:169,1,52.5,10|0,0:0|0:0,0:0:0:0:
243,222,37731,5,2,3:2:0:0:
376,138,37895,5,10,2:3:0:0:
438,193,38060,5,6,2:3:0:0:
347,225,38229,6,0,P|360:142|376:59,1,168,6|0,3:2|0:0,0:0:0:0:
257,33,38714,1,0,3:2:0:0:
195,106,38875,2,0,P|232:115|278:131,1,84,2|0,0:0|3:2,0:0:0:0:
159,16,39199,2,0,P|119:29|78:39,1,84,10|0,0:0|0:0,0:0:0:0:
0,204,39522,6,0,B|47:154|151:231|50:251|153:332|220:267,1,252,2|0,3:2|3:2,0:0:0:0:
301,287,40181,2,0,P|286:251|270:194,1,84,2|0,0:0|3:2,0:0:0:0:
435,117,40511,2,0,P|419:156|407:196,1,84,8|0,0:0|0:0,0:0:0:0:
512,381,40840,6,0,P|472:320|352:375,1,210,2|0,3:2|0:0,0:0:0:0:
349,372,41329,2,0,P|308:361|255:349,1,84,2|0,3:2|0:0,0:0:0:0:
150,271,41655,2,0,P|111:288|57:298,1,84,0|12,3:2|0:0,0:0:0:0:
256,191,41981,1,0,0:0:0:0:
177,21,42144,5,6,3:2:0:0:
100,148,42307,1,8,0:3:0:0:
111,138,42470,1,4,2:3:0:0:
13,41,42633,5,0,3:3:0:0:
237,79,42796,1,8,0:0:0:0:
177,21,42959,5,0,3:3:0:0:
0,202,43122,2,0,P|30:210|74:223,1,63,12|0,0:0|0:0,0:0:0:0:
161,311,43453,5,6,3:2:0:0:
235,269,43617,5,2,0:0:0:0:
352,331,43782,1,10,0:0:0:0:
470,264,43947,1,2,0:0:0:0:
341,340,44112,1,2,3:2:0:0:
377,209,44277,5,2,0:0:0:0:
296,119,44442,1,10,0:0:0:0:
440,0,44606,1,2,0:0:0:0:
389,59,44771,6,0,P|403:99|414:139,1,84,2|0,3:2|0:0,0:0:0:0:
208,82,45097,2,0,P|219:41|233:1,1,84,10|0,0:0|0:0,0:0:0:0:
32,173,45424,5,2,3:2:0:0:
99,128,45670,5,2,0:0:0:0:
260,235,45915,5,2,0:0:0:0:
206,183,46078,6,0,P|143:208|42:255,1,168,2|8,3:2|0:0,0:0:0:0:
52,249,46569,1,0,0:0:0:0:
282,358,46732,5,2,3:2:0:0:
327,277,46978,5,2,0:0:0:0:
206,183,47225,5,2,0:0:0:0:
345,4,47391,5,10,3:2:0:0:
389,40,47473,1,8,0:0:0:0:
389,97,47555,1,8,0:0:0:0:
350,140,47638,1,8,0:0:0:0:
335,133,47720,5,8,3:2:0:0:
280,82,47803,1,8,0:0:0:0:
209,61,47885,1,8,0:0:0:0:
138,79,47967,1,8,0:0:0:0:
84,130,48050,6,0,P|99:161|107:194,1,68.2499968757631,8|8,3:2|0:0,0:0:0:0:
263,376,48215,6,0,P|271:342|286:312,1,68.2499968757631,8|8,0:0|0:0,0:0:0:0:
1,317,48380,6,0,P|35:319|68:328,1,68.2499968757631,8|8,3:2|0:0,0:0:0:0:
350,140,48544,6,0,P|317:149|283:151,1,68.2499968757631,8|8,0:0|0:0,0:0:0:0:
74,28,48709,5,8,3:2:0:0:
380,318,48874,1,8,3:2:0:0:
380,318,49204,5,0,0:0:0:0:
383,308,49369,6,0,P|376:287|370:268,1,42,2|2,0:0|0:0,0:0:0:0:
24,118,50028,6,0,B|17:28|127:-8|183:65|183:65|136:164|247:197,1,377.999988464356,6|8,3:2|0:0,0:0:0:0:
407,126,50517,1,2,0:0:0:0:
400,116,50681,1,2,3:2:0:0:
310,248,50844,2,0,P|250:266|189:298,1,115.50000352478,2|8,0:0|0:0,0:0:0:0:
313,158,51170,1,2,0:0:0:0:
459,341,51334,6,0,P|479:297|439:237,1,115.50000352478,2|0,3:2|0:0,0:0:0:0:
313,158,51660,1,10,0:0:0:0:
139,316,51823,2,0,P|197:327|270:349,1,115.50000352478,2|0,0:0|3:2,0:0:0:0:
18,162,52150,2,0,P|79:148|150:123,1,115.50000352478,2|8,0:0|0:0,0:0:0:0:
17,281,52476,1,2,0:0:0:0:
268,11,52640,6,0,P|228:144|204:239,1,231.000007049561,2|10,3:2|0:0,0:0:0:0:
153,35,53131,2,0,P|116:76|128:130,1,115.50000352478,2|0,0:0|3:2,0:0:0:0:
295,312,53459,2,0,P|332:270|319:216,1,115.50000352478,2|8,0:0|0:0,0:0:0:0:
128,130,53787,1,2,0:0:0:0:
359,1,53951,5,2,3:2:0:0:
483,132,54115,1,0,0:0:0:0:
487,125,54279,1,10,0:0:0:0:
342,111,54443,6,0,P|278:127|228:147,1,115.50000352478,2|0,0:0|3:2,0:0:0:0:
114,285,54771,6,0,P|95:279|76:273,10,39.3750015020371,2|0|0|0|8|0|0|0|2|0|0,0:0|0:0|0:0|0:0|0:0|0:0|0:0|0:0|0:0|0:0|0:0,0:0:0:0:
288,380,55262,5,6,3:2:0:0:
405,297,55430,1,2,0:0:0:0:
232,234,55599,1,10,0:0:0:0:
292,284,55767,1,2,0:0:0:0:
432,90,55936,5,2,3:2:0:0:
304,208,56097,1,2,0:0:0:0:
299,197,56258,1,8,0:0:0:0:
497,54,56419,5,2,0:0:0:0:
512,91,56500,1,2,0:0:0:0:
499,125,56581,1,2,3:2:0:0:
332,76,56744,1,2,0:0:0:0:
170,179,56908,1,10,0:0:0:0:
20,145,57072,1,2,0:0:0:0:
197,41,57236,5,2,3:2:0:0:
299,197,57400,1,2,0:0:0:0:
425,64,57564,1,8,0:0:0:0:
122,0,57728,5,2,0:0:0:0:
109,34,57809,1,2,0:0:0:0:
124,71,57892,2,0,P|219:88|370:122,1,236.250009012223,4|0,3:2|0:0,0:0:0:0:
512,209,58220,6,0,B|496:148|426:152|397:191|397:191|407:242|353:273,1,236.250009012223,10|0,0:0|0:0,0:0:0:0:
370,362,58548,5,12,3:2:0:0:
328,338,58630,1,8,0:0:0:0:
283,321,58712,1,8,0:0:0:0:
236,313,58794,1,8,0:0:0:0:
212,240,58876,5,10,3:2:0:0:
152,277,58955,5,8,0:0:0:0:
86,302,59034,5,8,0:0:0:0:
16,313,59114,5,8,0:0:0:0:
61,367,59193,6,0,P|74:263|88:138,1,199.499994672775,6|0,3:2|0:0,0:0:0:0:
23,6,59441,6,0,B|-32:27|-24:98|27:118|27:118|60:85|107:98,1,231.000007049561,6|0,3:2|2:0,0:0:0:0:
203,1,59690,6,0,P|220:75|233:141,1,126,6|0,3:2|0:0,0:0:0:0:
228,136,60021,1,2,3:2:0:0:
378,177,60187,6,0,P|393:134|370:94,1,94.499997116089,8|0,0:0|0:0,0:0:0:0:
490,269,60514,6,0,B|467:188|367:163|318:252|318:252|346:348|253:370,1,377.999988464356,6|8,3:2|0:0,0:0:0:0:
161,265,61005,1,2,0:0:0:0:
173,258,61169,1,2,3:2:0:0:
55,374,61333,2,0,P|45:319|32:259,1,115.50000352478,2|8,0:0|0:0,0:0:0:0:
126,108,61661,1,2,0:0:0:0:
291,219,61825,6,0,P|344:228|388:184,1,115.50000352478,2|0,3:2|0:0,0:0:0:0:
126,108,62153,1,10,0:0:0:0:
266,0,62317,2,0,P|252:53|237:124,1,115.50000352478,2|0,0:0|3:2,0:0:0:0:
52,152,62645,2,0,P|33:98|70:46,1,115.50000352478,2|8,0:0|0:0,0:0:0:0:
172,237,62973,1,2,0:0:0:0:
18,309,63136,5,2,3:2:0:0:
160,242,63300,1,2,0:0:0:0:
357,316,63464,1,10,0:0:0:0:
453,279,63628,1,2,0:0:0:0:
251,354,63792,6,0,P|262:269|275:183,1,173.250005287171,2|0,3:2|0:0,0:0:0:0:
354,129,64120,2,0,P|381:171|356:232,1,115.50000352478,10|0,0:0|0:0,0:0:0:0:
148,319,64448,5,2,3:2:0:0:
220,78,64612,1,2,0:0:0:0:
228,87,64776,1,8,0:0:0:0:
13,124,64940,6,0,P|71:141|143:165,1,115.50000352478,2|0,0:0|3:2,0:0:0:0:
335,23,65268,6,0,P|359:16|395:-1,10,39.3750015020371,2|0|0|0|8|0|0|0|2|0|0,0:0|0:0|0:0|0:0|0:0|0:0|0:0|0:0|0:0|0:0|0:0,0:0:0:0:
499,173,65759,5,6,3:2:0:0:
351,113,65923,1,2,0:0:0:0:
482,24,66087,1,10,0:0:0:0:
442,102,66251,1,2,0:0:0:0:
253,258,66415,5,2,3:2:0:0:
199,87,66579,1,2,0:0:0:0:
206,76,66743,1,8,0:0:0:0:
295,321,66907,5,2,0:0:0:0:
253,337,66989,1,2,0:0:0:0:
214,321,67071,1,2,3:2:0:0:
355,228,67235,1,2,0:0:0:0:
101,125,67399,1,10,0:0:0:0:
258,150,67563,1,2,0:0:0:0:
93,236,67727,5,2,3:2:0:0:
336,37,67891,1,2,0:0:0:0:
421,141,68054,1,8,0:0:0:0:
15,203,68218,5,2,0:0:0:0:
2,240,68300,1,2,0:0:0:0:
20,271,68382,2,0,B|81:283|110:223|110:223|152:211|206:254|178:321,1,236.250009012223,6|0,3:2|0:0,0:0:0:0:
221,367,68706,6,0,P|180:379|126:342,1,94.499997116089,10|0,0:0|0:0,0:0:0:0:
373,88,69030,6,0,P|354:182|327:328,1,236.250009012223,6|0,3:2|0:0,0:0:0:0:
437,384,69359,6,0,P|461:349|449:297,1,94.499997116089,10|0,0:0|0:0,0:0:0:0:
258,145,69689,6,0,P|229:65|299:4,1,188.999994232178,6|0,3:2|0:0,0:0:0:0:
465,0,70015,6,0,P|473:32|485:91,3,62.9999980773926,8|8|8|8,0:2|0:0|0:2|0:2,0:0:0:0:
385,159,70341,5,10,3:2:0:0:
324,127,70422,1,8,0:2:0:0:
258,145,70503,1,8,0:0:0:0:
227,205,70584,1,8,0:0:0:0:
219,288,70665,5,8,3:2:0:0:
162,350,70746,5,8,3:2:0:0:
78,357,70827,5,8,3:2:0:0:
17,299,70908,5,8,3:2:0:0:
110,249,70989,6,0,P|210:278|360:340,1,251.999992309571,6|8,3:2|0:0,0:0:0:0:
385,159,71486,2,0,P|337:179|324:231,1,105,0|0,3:2|0:0,0:0:0:0:
480,299,71817,1,0,3:2:0:0:
508,185,71983,6,0,P|497:141|475:-1,1,157.5,10|0,0:0|0:0,0:0:0:0:
466,18,72314,5,2,3:2:0:0:
350,0,72480,1,0,3:2:0:0:
297,143,72646,1,8,0:0:0:0:
375,87,72812,1,0,3:2:0:0:
238,34,72977,5,2,0:0:0:0:
386,87,73140,1,0,3:2:0:0:
226,230,73303,6,0,P|190:235|151:250,1,63,8|0,0:0|0:0,0:0:0:0:
0,61,73629,6,0,B|18:11|85:2|119:46|119:46|111:113|182:130,1,251.999992309571,2|8,3:2|0:0,0:0:0:0:
324,8,74118,2,0,P|311:59|300:125,1,105,0|0,3:2|0:0,0:0:0:0:
226,230,74444,1,0,3:2:0:0:
437,168,74607,5,10,0:0:0:0:
496,293,74770,2,0,P|437:315|377:230,1,157.5,2|0,0:0|0:0,0:0:0:0:
380,243,75094,1,2,3:2:0:0:
170,78,75255,6,0,P|178:101|187:133,1,52.5,10|0,0:0|3:2,0:0:0:0:
297,289,75416,1,0,3:2:0:0:
363,10,75578,6,0,P|355:33|346:65,1,52.5,8|0,0:0|3:2,0:0:0:0:
176,329,75739,1,0,3:2:0:0:
57,2,75900,5,8,3:2:0:0:
12,39,75981,1,0,3:2:0:0:
7,96,76062,1,0,3:2:0:0:
45,138,76142,1,0,3:2:0:0:
55,132,76223,5,14,0:0:0:0:
264,132,76389,1,0,3:2:0:0:
423,269,76556,1,2,3:2:0:0:
0,371,76723,5,12,0:0:0:0:
160,206,76889,1,2,3:2:0:0:
388,169,77056,1,0,3:2:0:0:
275,266,77223,5,10,2:3:0:0:
171,118,77389,5,10,2:3:0:0:
410,0,77556,5,6,3:2:0:0:
355,56,77889,5,2,0:0:0:0:
347,62,78056,6,0,P|326:56|307:52,1,42,2|0,0:0|0:0,0:0:0:0:
224,0,78373,5,0,3:2:0:0:
212,5,78454,1,0,3:2:0:0:
202,9,78535,1,8,0:0:0:0:
65,11,78697,6,0,P|78:38|90:90,1,52.5,2|0,0:0|0:0,0:0:0:0:
0,211,78859,6,0,B|41:162|142:218|47:257|137:324|226:257,1,231.000007049561,6|8,3:2|0:0,0:0:0:0:
377,256,79353,1,2,0:0:0:0:
313,174,79518,2,0,P|292:228|278:283,1,115.50000352478,0|0,3:2|3:2,0:0:0:0:
502,101,79848,6,0,P|427:121|377:34,1,173.250005287171,10|0,0:0|0:0,0:0:0:0:
380,40,80177,1,0,3:2:0:0:
126,88,80342,1,2,3:2:0:0:
196,7,80507,2,0,P|214:61|230:117,1,115.50000352478,8|2,0:0|0:0,0:0:0:0:
0,356,80837,6,0,P|6:330|13:305,1,52.5,2|0,3:2|3:2,0:0:0:0:
137,229,80996,1,2,3:2:0:0:
13,121,81156,6,0,P|20:148|26:177,1,57.7500017623902,10|0,0:0|3:2,0:0:0:0:
162,333,81315,1,0,3:2:0:0:
498,142,81475,6,0,B|482:85|401:83|380:128|380:128|388:176|341:197,1,231.000007049561,2|8,3:2|0:0,0:0:0:0:
265,322,81957,2,0,P|319:332|395:359,1,115.50000352478,2|0,0:0|3:2,0:0:0:0:
139,140,82285,2,0,P|193:130|269:103,1,115.50000352478,2|8,3:0|0:0,0:0:0:0:
34,342,82613,5,2,3:2:0:0:
40,330,82777,1,0,3:2:0:0:
191,239,82943,1,2,3:2:0:0:
376,350,83110,5,14,3:2:0:0:
384,339,83193,1,0,3:2:0:0:
386,323,83277,1,0,3:2:0:0:
376,312,83360,1,0,3:2:0:0:
365,304,83443,5,8,3:2:0:0:
306,305,83527,1,8,0:0:0:0:
250,318,83610,1,8,0:0:0:0:
199,344,83693,1,8,0:0:0:0:
135,383,83777,5,8,3:2:0:0:
57,368,83860,1,8,3:2:0:0:
21,297,83943,1,8,3:2:0:0:
48,222,84027,1,8,3:2:0:0:
118,189,84110,6,0,P|145:196|186:213,1,52.5,6|0,3:2|0:0,0:0:0:0:
386,44,84278,2,0,P|320:63|247:97,1,115.50000352478,0|10,0:0|0:0,0:0:0:0:
19,0,84615,6,0,P|41:53|59:107,1,115.50000352478,2|0,0:0|3:2,0:0:0:0:
254,290,84945,1,2,0:0:0:0:
132,303,85106,6,0,P|150:248|170:198,1,105,10|0,0:0|0:0,0:0:0:0:
385,36,85429,1,0,3:2:0:0:
496,192,85590,6,0,P|469:185|442:179,1,52.5,2|0,0:0|0:0,0:0:0:0:
268,24,85751,2,0,P|293:73|320:147,1,105,8|2,0:0|0:0,0:0:0:0:
406,330,86074,5,2,3:2:0:0:
167,204,86235,1,0,3:2:0:0:
456,91,86396,5,10,0:0:0:0:
208,355,86565,1,0,3:0:0:0:
26,13,86734,6,0,P|56:17|113:46,1,68.2499968757631,14|0,3:2|3:2,0:0:0:0:
379,114,86898,2,0,P|348:123|294:151,1,68.2499968757631,2|0,3:2|3:2,0:0:0:0:
38,318,87063,5,0,3:2:0:0:
58,331,87146,1,0,3:2:0:0:
78,327,87228,2,0,P|91:296|105:230,1,68.2499968757631,14|0,3:2|3:2,0:0:0:0:
182,1,87393,2,0,P|197:31|209:63,1,68.2499968757631,2|0,3:2|3:0,0:0:0:0:
443,331,87558,5,0,3:2:0:0:
463,298,87640,1,0,3:2:0:0:
449,267,87723,2,0,P|414:261|364:261,1,68.2499968757631,14|0,3:2|3:2,0:0:0:0:
11,182,87887,5,0,3:2:0:0:
20,175,87970,1,0,3:2:0:0:
60,178,88052,1,0,3:2:0:0:
120,193,88135,1,0,3:2:0:0:
192,221,88217,2,0,P|210:194|214:149,1,68.2499968757631,14|0,0:0|3:2,0:0:0:0:
512,43,88382,5,0,3:2:0:0:
459,58,88464,1,0,3:2:0:0:
409,81,88547,1,0,3:2:0:0:
363,111,88629,1,0,3:2:0:0:
315,174,88712,6,0,P|296:148|281:97,1,68.2499968757631,14|0,3:2|0:0,0:0:0:0:
38,96,88876,6,0,P|57:70|72:19,1,68.2499968757631,14|0,3:2|0:0,0:0:0:0:
158,375,89041,6,0,P|137:348|121:296,1,84,14|0,3:2|0:0,0:0:0:0:
