osu file format v14

[General]
AudioFilename: audio.mp3
AudioLeadIn: 0
PreviewTime: 61754
Countdown: 0
SampleSet: Soft
StackLeniency: 0.7
Mode: 0
LetterboxInBreaks: 0
WidescreenStoryboard: 1

[Editor]
Bookmarks: 155354,156554,162468,164096,182268
DistanceSpacing: 1
BeatDivisor: 4
GridSize: 32
TimelineZoom: 0.9

[Metadata]
Title:Nisemono no Koi ni Sayounara with Wakeshima Kanon
TitleUnicode:偽物の恋にさようなら with 分島花音
Artist:ASCA
ArtistUnicode:ASCA
Creator:timemon
Version:Normal
Source:
Tags:大倉明日香 Okura Asuka -[ Hinoao ]- Meyrink Japanese 百歌繚乱 Hyakka Ryoran Naoki Chiba Kyou Tomohide Rock
BeatmapID:2208364
BeatmapSetID:1055201

[Difficulty]
HPDrainRate:4
CircleSize:3.5
OverallDifficulty:5
ApproachRate:6
SliderMultiplier:1.1
SliderTickRate:1

[Events]
//Background and Video events
0,0,"1280453.jpg",0,0
//Break Periods
2,84265,94329
2,176493,186214
//Storyboard Layer 0 (Background)
//Storyboard Layer 1 (Fail)
//Storyboard Layer 2 (Pass)
//Storyboard Layer 3 (Foreground)
//Storyboard Layer 4 (Overlay)
//Storyboard Sound Samples

[TimingPoints]
408,342.857142857143,4,2,1,50,1,0
408,-100,4,2,1,50,0,0
8636,-100,4,2,1,60,0,0
10522,-100,4,2,1,70,0,0
10779,-100,4,2,1,5,0,0
10865,-100,4,2,1,70,0,0
10950,-100,4,2,1,70,0,0
21236,-100,4,2,1,70,0,0
22265,-100,4,2,1,5,0,0
22350,-100,4,2,1,55,0,0
31608,-100,4,2,1,55,0,0
32808,-100,4,2,1,55,0,0
33322,-100,4,2,1,55,0,0
39836,-100,4,2,1,55,0,0
40350,-100,4,2,1,55,0,0
44293,-100,4,2,1,60,0,0
49779,-100,4,2,1,60,0,0
55265,-100,4,2,1,60,0,0
56979,-100,4,2,1,5,0,0
57322,-100,4,2,1,60,0,0
57836,-100,4,2,1,70,0,0
58179,-100,4,2,1,70,0,0
59893,-100,4,2,1,70,0,0
62122,-100,4,2,1,80,0,1
70179,-100,4,2,1,80,0,1
70436,-100,4,2,1,5,0,1
70522,-100,4,2,1,80,0,1
70865,-100,4,2,1,80,0,1
71550,-100,4,2,1,80,0,1
71808,-100,4,2,1,5,0,1
71893,-100,4,2,1,80,0,1
72065,-100,4,2,1,80,0,1
72750,-100,4,2,1,80,0,0
73093,-100,4,2,1,80,0,1
81408,-100,4,2,1,5,0,1
81493,-100,4,2,1,80,0,1
82779,-100,4,2,1,5,0,1
82865,-100,4,2,1,80,0,1
84065,-100,4,2,1,70,0,0
92808,-100,4,2,1,70,0,0
93150,-100,4,2,1,70,0,0
93665,-100,4,2,1,70,0,0
93836,-100,4,2,1,5,0,0
93922,-100,4,2,1,70,0,0
94093,-100,4,2,1,5,0,0
94179,-100,4,2,1,70,0,0
94522,-100,4,2,1,5,0,0
94608,-100,4,2,1,70,0,0
94779,-100,4,2,1,5,0,0
94865,-100,4,2,1,70,0,0
95379,342.857142857143,4,2,1,50,1,0
95379,-100,4,2,1,50,0,0
106350,-100,4,2,1,70,0,0
113550,-100,4,2,1,70,0,0
114579,-100,4,2,1,70,0,0
115864,-100,4,2,1,5,0,0
115950,-100,4,2,1,70,0,0
116979,-100,4,2,1,70,0,0
117321,-100,4,2,1,60,0,0
122807,-100,4,2,1,60,0,0
128293,-100,4,2,1,60,0,0
130007,-100,4,2,1,5,0,0
130350,-100,4,2,1,60,0,0
130864,-100,4,2,1,70,0,0
131379,-100,4,2,1,70,0,0
131721,-100,4,2,1,70,0,0
132064,-100,4,2,1,70,0,0
132407,-100,4,2,1,80,0,1
140464,-100,4,2,1,80,0,1
140721,-100,4,2,1,5,0,1
140807,-100,4,2,1,80,0,1
142093,-100,4,2,1,5,0,1
142179,-100,4,2,1,80,0,1
143036,-100,4,2,1,80,0,0
143379,-100,4,2,1,80,0,1
151693,-100,4,2,1,5,0,1
151779,-100,4,2,1,80,0,1
153064,-100,4,2,1,5,0,1
153150,-100,4,2,1,80,0,1
154350,-100,4,2,1,70,0,0
155379,-100,4,2,1,70,0,0
155893,-100,4,2,1,70,0,0
157093,-100,4,2,1,70,0,0
157436,-100,4,2,1,50,0,0
157779,-100,4,2,1,60,0,0
158121,-100,4,2,1,70,0,0
158464,-100,4,2,1,70,0,0
158636,-100,4,2,1,5,0,0
158721,-100,4,2,1,70,0,0
158893,-100,4,2,1,5,0,0
158979,-100,4,2,1,70,0,0
159836,-100,4,2,1,70,0,0
162579,-100,4,2,1,70,0,0
163093,-100,4,2,1,70,0,0
163607,-100,4,2,1,70,0,0
165321,-100,4,2,1,70,0,0
170807,-100,4,2,1,70,0,0
172350,-100,4,2,1,70,0,0
174750,-100,4,2,1,70,0,0
175093,-100,4,2,1,70,0,0
175693,-100,4,2,1,5,0,0
175779,-100,4,2,1,70,0,0
176293,-100,4,2,1,60,0,0
187093,-100,4,2,1,40,0,0
187264,-100,4,2,1,60,0,0
196864,-100,4,2,1,70,0,0
198921,-100,4,2,1,40,0,0
199607,-100,4,2,1,80,0,1
207664,-100,4,2,1,80,0,1
207921,-100,4,2,1,5,0,1
208007,-100,4,2,1,80,0,1
209293,-100,4,2,1,5,0,1
209379,-100,4,2,1,80,0,1
210064,-100,4,2,1,80,0,0
210579,-100,4,2,1,80,0,1
218893,-100,4,2,1,5,0,1
218979,-100,4,2,1,80,0,1
220264,-100,4,2,1,5,0,1
220350,-100,4,2,1,80,0,1
221379,-100,4,2,1,80,0,0
221550,-100,4,2,1,80,0,1
225664,-100,4,2,1,80,0,1
227036,-100,4,2,1,70,0,0
229864,-100,4,2,1,5,0,0
229950,-100,4,2,1,70,0,0
231236,-100,4,2,1,5,0,0
231321,-100,4,2,1,70,0,0
232521,-100,4,2,1,70,0,1
232693,-100,4,2,1,70,0,0
240750,-100,4,2,1,70,0,0
243493,-100,4,2,1,70,0,0
244864,-100,4,2,1,70,0,0
245036,-100,4,2,1,5,0,0
245121,-100,4,2,1,70,0,0
245293,-100,4,2,1,5,0,0
245379,-100,4,2,1,70,0,0
245721,-100,4,2,1,5,0,0
245807,-100,4,2,1,70,0,0
245979,-100,4,2,1,5,0,0
246064,-100,4,2,1,70,0,0
246921,-100,4,2,1,70,0,0
247607,-100,4,2,1,60,0,0
248293,-100,4,2,1,50,0,0
248979,-100,4,2,1,40,0,0
249664,-100,4,2,1,30,0,0
250350,-100,4,2,1,20,0,0
251036,-100,4,2,1,10,0,0

[Colours]
Combo1 : 148,202,235
Combo2 : 203,194,220
Combo3 : 168,215,210
Combo4 : 221,174,186

[HitObjects]
251,107,408,6,0,P|282:153|279:221,2,110,2|2|0,1:2|0:0|0:0,0:0:0:0:
157,165,1436,1,0,0:0:0:0:
77,89,1779,2,0,B|57:60|36:41|36:41|63:28|96:24,2,110,0|0|0,0:0|0:0|0:0,0:0:0:0:
112,130,2636,1,2,1:2:0:0:
112,130,2808,2,0,P|104:165|99:202,1,55,2|2,0:0|1:2,0:0:0:0:
65,223,3150,6,0,P|121:216|175:205,1,110,0|2,1:0|0:0,0:0:0:0:
202,163,3665,2,0,P|258:170|312:181,1,110,2|0,0:0|0:0,0:0:0:0:
361,337,4522,2,0,P|426:359|480:334,1,110,2|2,0:0|0:0,0:0:0:0:
492,300,5036,2,0,B|507:271|524:243|524:243|509:212|512:185,1,110,2|0,0:0|1:0,0:0:0:0:
483,153,5550,1,2,0:0:0:0:
394,86,5893,6,0,P|362:80|323:73,2,55,2|2|2,1:2|0:0|0:0,0:0:0:0:
437,51,6408,2,0,P|469:45|508:38,1,55,2|0,0:0|0:0,0:0:0:0:
463,147,6922,1,0,0:0:0:0:
512,250,7265,2,0,P|520:282|477:357,2,110,0|0|0,0:0|0:0|0:0,0:0:0:0:
457,269,8122,1,2,1:2:0:0:
457,269,8293,2,0,P|424:258|390:243,1,55,2|2,0:0|1:2,0:0:0:0:
357,222,8636,6,0,P|308:254|295:320,1,110,12|8,0:0|0:0,0:0:0:0:
217,381,9322,1,8,0:0:0:0:
172,280,9665,2,0,P|188:248|213:219,1,55,8|10,0:0|0:0,0:0:0:0:
235,190,10008,6,0,P|217:151|137:133,1,110,6|8,1:2|0:0,0:0:0:0:
107,152,10522,2,0,P|72:171|-1:157,1,110,2|10,1:2|0:0,0:0:0:0:
13,106,11036,1,8,0:3:0:0:
13,106,11208,1,4,0:3:0:0:
13,106,11379,6,0,B|4:61|-7:29|-7:29|16:5|20:3,1,110,6|8,1:2|0:0,0:0:0:0:
106,69,12065,1,0,1:0:0:0:
106,69,12236,2,0,P|135:64|168:59,1,55,0|8,1:0|0:0,0:0:0:0:
209,35,12579,2,0,P|191:101|179:167,1,110,0|0,1:0|1:0,0:0:0:0:
203,193,13093,1,8,0:0:0:0:
125,260,13436,2,0,P|96:255|63:250,2,55,0|0|8,1:0|1:0|0:0,0:0:0:0:
161,301,13950,1,0,1:0:0:0:
161,301,14122,6,0,P|216:291|270:287,1,110,2|8,1:2|0:0,0:0:0:0:
376,256,14808,2,0,P|362:298|359:330,2,55,0|2|10,1:0|1:2|0:0,0:0:0:0:
396,204,15322,2,0,P|407:157|369:91,1,110,2|2,1:2|1:2,0:0:0:0:
346,60,15836,1,10,0:0:0:0:
346,60,16008,1,10,0:0:0:0:
267,136,16350,2,0,P|236:120|200:117,1,55,10|10,0:0|0:0,0:0:0:0:
172,83,16693,1,10,0:0:0:0:
172,83,16865,6,0,P|111:131|103:177,2,110,6|8|0,1:2|0:0|1:0,0:0:0:0:
269,31,17893,1,10,0:0:0:0:
269,31,18065,2,0,P|321:43|384:34,1,110,6|0,1:2|1:0,0:0:0:0:
421,4,18579,1,8,0:0:0:0:
475,98,18922,1,2,1:2:0:0:
475,98,19093,2,0,P|458:125|445:157,1,55,2|10,1:2|0:0,0:0:0:0:
414,194,19436,1,2,1:2:0:0:
414,194,19608,6,0,B|429:228|445:247|445:247|435:292|428:315,1,110,6|8,1:2|0:0,0:0:0:0:
349,365,20293,2,0,P|309:359|276:358,2,55,0|8|8,1:0|0:0|0:0,0:0:0:0:
385,323,20808,2,0,B|401:275|421:253|421:253|409:226|401:212,1,110,6|10,1:2|0:0,0:0:0:0:
347,133,21493,2,0,P|340:98|380:36,1,110,8|4,0:3|0:3,0:0:0:0:
377,37,22008,1,4,0:3:0:0:
263,80,22350,6,0,B|215:90|198:95|198:95|165:74|147:68,2,110,6|2|2,1:2|0:0|0:0,0:0:0:0:
335,163,23379,1,2,0:0:0:0:
335,163,23550,2,0,P|354:201|341:266,1,110,2|2,0:0|0:0,0:0:0:0:
306,308,24065,1,2,0:0:0:0:
219,239,24408,2,0,L|154:253,2,55,2|2|2,0:0|1:2|0:0,0:0:0:0:
239,187,24922,1,2,1:2:0:0:
239,187,25093,6,0,B|265:131|265:131|240:78,1,110,2|0,1:2|0:0,0:0:0:0:
161,14,25779,2,0,P|113:25|52:41,1,110,0|0,0:0|0:0,0:0:0:0:
8,140,26465,2,0,P|-6:195|26:253,1,110,2|0,0:0|0:0,0:0:0:0:
78,331,27150,2,0,P|145:318|210:311,1,110,2|2,0:0|0:0,0:0:0:0:
213,266,27665,1,0,1:0:0:0:
213,266,27836,6,0,P|262:260|318:289,1,110,2|0,1:2|0:0,0:0:0:0:
345,331,28350,1,2,0:0:0:0:
400,198,28865,2,0,B|410:163|446:116|446:116|418:73|396:57,1,165,2|0,1:2|0:0,0:0:0:0:
355,31,29550,2,0,P|329:44|284:50,1,55,2|2,0:0|0:0,0:0:0:0:
251,32,29893,2,0,P|190:22|140:69,1,110,2|2,0:0|0:0,0:0:0:0:
106,147,30579,6,0,P|116:201|127:260,2,110,2|0|2,1:2|0:0|0:0,0:0:0:0:
36,61,31608,1,6,1:2:0:0:
331,260,32808,1,0,1:0:0:0:
331,260,32979,2,0,L|317:191,1,55,8|0,0:0|1:0,0:0:0:0:
311,151,33322,6,0,B|399:125|381:193|479:157|479:156,1,165,6|2,1:2|0:0,0:0:0:0:
510,118,34008,2,0,P|526:57|486:18,1,110,2|2,0:0|1:2,0:0:0:0:
447,4,34522,1,2,0:0:0:0:
362,74,34865,1,2,0:0:0:0:
362,74,35036,2,0,B|322:58|294:46|294:46|250:56,1,110,2|2,0:0|0:0,0:0:0:0:
224,97,35550,2,0,P|231:125|237:164,2,55,2|10|2,1:2|0:0|0:0,0:0:0:0:
180,62,36065,6,0,P|146:45|72:48,1,110,2|0,1:2|0:0,0:0:0:0:
27,74,36579,2,0,P|24:131|18:205,1,110,2|2,1:2|0:0,0:0:0:0:
41,234,37093,1,2,1:2:0:0:
145,198,37436,2,0,P|170:240|163:311,2,110,2|0|2,0:0|0:0|0:0,0:0:0:0:
137,147,38293,1,0,1:0:0:0:
137,147,38465,2,0,P|138:110|155:78,1,55,10|0,0:0|0:0,0:0:0:0:
166,42,38808,6,0,P|206:25|292:48,1,110,2|0,1:2|0:0,0:0:0:0:
308,72,39322,1,2,1:2:0:0:
219,210,39836,2,0,B|244:247|261:319|261:319|299:272,1,165,6|2,1:2|0:0,0:0:0:0:
365,201,40693,2,0,P|404:182|478:205,1,110,2|2,0:0|1:2,0:0:0:0:
508,232,41208,2,0,B|490:261|475:290,1,55,10|2,0:0|0:0,0:0:0:0:
458,328,41550,6,0,P|410:306|341:299,1,110,2|2,1:2|0:0,0:0:0:0:
307,328,42065,2,0,P|264:344|196:338,1,110,2|0,1:2|0:0,0:0:0:0:
146,330,42579,1,10,0:0:0:0:
85,238,42922,1,0,1:0:0:0:
85,238,43093,2,0,L|91:179,1,55,8|8,0:0|0:0,0:0:0:0:
133,148,43436,2,0,L|127:89,1,55,8|8,0:0|0:0,0:0:0:0:
105,42,43779,2,0,P|76:36|44:40,2,55,8|4|4,0:3|0:3|0:3,0:0:0:0:
153,67,44293,6,0,P|197:74|266:33,1,110,6|0,1:2|0:0,0:0:0:0:
291,5,44808,1,2,1:2:0:0:
291,5,44979,2,0,P|279:67|270:128,1,110,10|0,0:0|0:0,0:0:0:0:
238,218,45665,2,0,P|205:214|177:212,1,55,2|10,1:2|0:0,0:0:0:0:
138,180,46008,2,0,P|130:143|129:67,1,110,2|10,1:2|0:0,0:0:0:0:
28,116,46693,2,0,P|31:161|31:194,1,55,2|2,1:2|1:2,0:0:0:0:
44,224,47036,6,0,P|27:292|24:341,1,110,2|0,1:2|1:0,0:0:0:0:
125,288,47722,2,0,B|172:299|221:331|221:331|291:293,1,165,10|10,0:0|0:0,0:0:0:0:
305,272,48408,2,0,P|336:267|380:268,2,55,0|8|2,1:2|0:0|1:2,0:0:0:0:
235,193,49093,1,10,0:0:0:0:
235,193,49265,2,0,P|211:179|170:169,2,55,8|6|10,0:0|1:2|0:0,0:0:0:0:
277,157,49779,6,0,P|320:135|389:134,2,110,6|2|10,1:2|1:2|0:0,0:0:0:0:
195,230,50808,2,0,P|206:300|212:360,1,110,2|0,0:0|1:0,0:0:0:0:
248,383,51322,1,8,0:0:0:0:
248,383,51493,2,0,B|193:364|193:364|157:365|122:369,1,110,2|10,1:2|0:0,0:0:0:0:
83,272,52179,2,0,L|94:211,1,55,2|8,1:2|0:0,0:0:0:0:
102,163,52522,6,0,P|147:129|209:143,1,110,4|2,1:2|1:2,0:0:0:0:
277,59,53208,2,0,P|340:56|405:52,1,110,10|2,0:0|0:0,0:0:0:0:
499,62,53893,1,2,1:2:0:0:
499,62,54065,2,0,P|514:122|484:182,1,110,8|0,0:0|0:0,0:0:0:0:
455,200,54579,2,0,P|460:237|475:274,1,55,10|8,0:0|0:0,0:0:0:0:
495,300,54922,2,0,P|493:331|481:367,1,55,10|8,0:0|0:0,0:0:0:0:
432,364,55265,5,2,0:0:0:0:
107,48,57836,6,0,B|138:100|145:151|145:151|196:113,1,165,6|8,1:2|1:2,0:0:0:0:
273,47,58693,1,10,1:2:0:0:
347,127,59036,1,10,1:2:0:0:
286,219,59379,6,0,P|296:256|301:288,2,55,10|0|0,0:0|1:0|1:0,0:0:0:0:
248,178,59893,2,0,P|216:194|142:189,1,110,2|0,1:2|0:0,0:0:0:0:
102,151,60408,2,0,P|107:123|129:90,2,55,10|0|0,0:0|1:0|1:0,0:0:0:0:
105,206,60922,2,0,P|118:239|133:323,1,110,2|0,1:2|1:0,0:0:0:0:
101,357,61436,2,0,B|196:303|172:383|272:349,1,165,10|8,0:0|0:0,0:0:0:0:
299,317,62122,6,0,P|344:300|418:333,1,110,6|10,1:2|0:0,0:0:0:0:
497,262,62808,2,0,P|487:312|486:338,2,55,2|2|10,1:2|1:2|0:0,0:0:0:0:
466,216,63322,1,2,1:2:0:0:
466,216,63493,2,0,P|478:166|432:112,2,110,2|10|2,1:2|0:0|1:2,0:0:0:0:
386,292,64522,1,10,0:0:0:0:
308,214,64865,6,0,P|252:185|189:202,1,110,0|8,1:0|0:0,0:0:0:0:
134,108,65550,2,0,P|126:81|117:55,1,55,0|0,1:0|1:0,0:0:0:0:
93,5,65893,1,10,0:0:0:0:
25,91,66236,2,0,P|15:132|16:163,1,55,0|0,1:0|1:0,0:0:0:0:
43,191,66579,2,0,P|81:224|86:299,1,110,8|2,0:0|1:2,0:0:0:0:
65,329,67093,2,0,P|46:348|13:370,2,55,8|10|10,0:0|0:0|0:0,0:0:0:0:
118,315,67608,6,0,B|156:327|183:339|183:339|208:330|228:324,2,110,6|8|2,1:2|0:0|1:2,0:0:0:0:
61,220,68636,1,10,0:0:0:0:
132,135,68979,2,0,P|147:73|118:19,2,110,0|8|0,1:0|0:0|1:0,0:0:0:0:
99,179,69836,2,0,P|79:216|76:242,1,55,10|8,0:0|0:0,0:0:0:0:
105,275,70179,6,0,P|151:294|217:263,1,110,14|2,0:0|1:2,0:0:0:0:
249,241,70693,2,0,P|289:225|359:254,1,110,10|10,0:0|0:0,0:0:0:0:
387,286,71208,1,8,0:3:0:0:
439,303,71379,1,4,0:3:0:0:
483,271,71550,2,0,P|496:237|452:156,1,110,6|2,1:2|1:2,0:0:0:0:
434,129,72065,1,10,0:0:0:0:
478,28,72408,1,2,1:2:0:0:
369,46,72750,1,8,0:0:0:0:
369,46,72922,1,8,0:0:0:0:
369,46,73093,6,0,P|330:89|340:151,1,110,6|10,1:2|0:0,0:0:0:0:
403,222,73779,2,0,P|429:228|456:231,2,55,2|2|10,1:2|1:2|0:0,0:0:0:0:
384,276,74293,1,2,0:0:0:0:
384,276,74465,2,0,P|360:292|324:308,1,55,2|0,1:2|1:0,0:0:0:0:
285,324,74808,2,0,P|244:309|175:302,2,110,10|2|10,0:0|1:2|0:0,0:0:0:0:
324,219,75836,6,0,P|346:159|326:99,1,110,0|8,1:0|0:0,0:0:0:0:
253,43,76522,2,0,P|288:32|311:26,2,55,0|0|10,1:0|1:0|0:0,0:0:0:0:
172,118,77208,1,0,1:0:0:0:
172,118,77379,2,0,B|182:159|197:177|197:177|185:207|185:232,1,110,8|2,0:0|1:2,0:0:0:0:
166,272,77893,2,0,P|191:317|256:315,1,110,10|8,0:0|0:3,0:0:0:0:
327,248,78579,6,0,L|318:185,2,55,12|2|0,0:0|1:2|1:0,0:0:0:0:
373,277,79093,2,0,P|416:282|473:231,1,110,10|2,0:0|0:0,0:0:0:0:
476,189,79608,2,0,P|504:182|530:176,2,55,10|2|0,0:0|1:2|1:0,0:0:0:0:
443,144,80122,2,0,P|386:114|329:123,1,110,10|0,0:0|1:0,0:0:0:0:
297,150,80636,1,12,0:0:0:0:
232,60,80979,1,8,0:0:0:0:
232,60,81150,6,0,B|193:72|164:85|164:85|133:70|110:67,1,110,6|2,1:2|1:2,0:0:0:0:
80,44,81665,1,10,0:0:0:0:
27,140,82008,2,0,L|38:204,2,55,2|0|8,1:2|1:0|0:0,0:0:0:0:
50,90,82522,2,0,B|108:75|108:75|161:88,1,110,6|10,1:2|0:0,0:0:0:0:
209,101,83036,1,10,0:0:0:0:
274,189,83379,2,0,L|262:257,1,55,10|8,0:0|0:0,0:0:0:0:
229,286,83722,2,0,L|241:354,1,55,10|10,0:0|0:0,0:0:0:0:
289,367,84065,5,6,1:2:0:0:
138,122,95379,6,0,L|159:238,1,110,6|0,1:2|1:0,0:0:0:0:
199,263,95893,1,2,0:0:0:0:
199,263,96064,2,0,P|261:236|316:248,1,110,2|2,1:2|1:2,0:0:0:0:
387,311,96750,2,0,B|404:277|421:261|421:261|418:227|404:202,1,110,0|2,1:0|1:2,0:0:0:0:
363,113,97436,2,0,P|374:86|392:68,2,55,2|2|10,1:2|0:0|0:0,0:0:0:0:
320,147,97950,1,0,0:0:0:0:
320,147,98121,6,0,P|282:132|201:125,1,110,2|0,1:2|1:0,0:0:0:0:
134,47,98807,1,0,1:0:0:0:
58,127,99150,1,0,1:0:0:0:
131,208,99493,2,0,P|104:253|92:325,2,110,0|0|2,1:0|1:0|1:2,0:0:0:0:
221,144,100521,2,0,P|248:140|285:140,1,55,10|2,1:2|0:0,0:0:0:0:
330,136,100864,6,0,P|382:110|441:117,1,110,6|0,1:2|1:0,0:0:0:0:
486,123,101379,2,0,P|491:167|487:248,1,110,2|0,0:0|0:0,0:0:0:0:
479,286,101893,1,2,1:2:0:0:
387,224,102236,1,0,1:0:0:0:
310,303,102579,2,0,P|331:341|338:365,2,55,2|2|2,1:2|0:0|1:2,0:0:0:0:
242,215,103264,1,10,0:0:0:0:
146,269,103607,6,0,B|96:255|52:283|52:283|8:277|0:239,1,165,2|2,1:2|0:0,0:0:0:0:
31,198,104293,1,2,1:2:0:0:
23,91,104636,2,0,P|11:67|-3:35,2,55,10|8|0,0:0|0:0|0:0,0:0:0:0:
357,96,106350,6,0,P|339:148|318:215,1,110,6|8,1:2|0:0,0:0:0:0:
297,249,106864,1,2,1:2:0:0:
297,249,107036,2,0,P|304:284|304:323,2,55,2|0|2,1:2|1:0|0:0,0:0:0:0:
256,211,107550,2,0,P|182:193|135:222,1,110,10|2,0:0|1:2,0:0:0:0:
115,245,108064,1,10,0:0:0:0:
56,151,108407,2,0,P|59:119|70:85,2,55,2|2|10,1:2|1:2|0:0,0:0:0:0:
19,192,108921,1,2,0:0:0:0:
19,192,109093,6,0,P|32:249|33:309,1,110,2|8,1:2|0:0,0:0:0:0:
118,370,109779,1,2,1:2:0:0:
118,370,109950,2,0,P|165:352|235:355,1,110,2|8,1:2|0:0,0:0:0:0:
300,272,110636,1,0,1:0:0:0:
300,272,110807,2,0,P|276:227|264:213,1,55,8|2,0:0|1:2,0:0:0:0:
241,179,111150,2,0,P|252:140|272:117,2,55,2|2|10,1:2|1:2|0:0,0:0:0:0:
209,224,111664,1,8,0:0:0:0:
166,258,111836,6,0,P|138:252|95:247,1,55,10|8,0:0|0:0,0:0:0:0:
77,205,112179,2,0,P|50:210|22:214,2,55,8|10|8,0:0|0:0|0:0,0:0:0:0:
157,129,112864,2,0,B|128:66|164:8|164:8|213:36,1,165,12|2,0:0|1:2,0:0:0:0:
235,66,113550,1,8,0:0:0:0:
336,24,113893,1,8,0:3:0:0:
414,100,114236,1,14,0:0:0:0:
344,185,114579,6,0,B|310:237|310:237|334:304,1,110,6|2,1:2|1:2,0:0:0:0:
339,335,115093,2,0,P|392:319|446:324,1,110,10|2,0:0|1:2,0:0:0:0:
498,339,115607,1,14,0:0:0:0:
467,233,115950,2,0,P|469:200|480:168,1,55,0|0,1:0|1:0,0:0:0:0:
491,126,116293,2,0,P|489:93|478:61,1,55,8|8,0:0|0:0,0:0:0:0:
446,30,116636,2,0,P|413:32|381:43,2,55,8|4|10,0:3|0:3|0:0,0:0:0:0:
385,121,117321,6,0,B|346:179|346:240|346:240|388:232,1,165,6|2,1:2|1:2,0:0:0:0:
436,218,118007,2,0,P|464:227|506:301,1,110,10|0,0:0|0:0,0:0:0:0:
422,364,118693,1,0,1:0:0:0:
422,364,118864,2,0,P|369:355|312:354,1,110,10|0,0:0|0:0,0:0:0:0:
267,321,119379,2,0,P|211:310|165:344,1,110,10|2,0:0|1:2,0:0:0:0:
123,368,119893,1,2,1:2:0:0:
123,368,120064,6,0,P|112:310|89:260,1,110,2|0,1:2|1:0,0:0:0:0:
69,155,120750,2,0,B|126:158|160:187|160:187|194:190|233:165,1,165,10|10,0:0|0:0,0:0:0:0:
266,135,121436,1,0,1:0:0:0:
266,135,121607,2,0,P|260:90|251:65,2,55,10|2|0,0:0|1:2|0:0,0:0:0:0:
316,156,122121,2,0,P|347:177|336:229,2,82.5,10|8|10,0:0|0:0|0:0,0:0:0:0:
313,100,122807,6,0,P|332:52|402:52,1,110,6|2,1:2|1:2,0:0:0:0:
466,116,123493,1,10,0:0:0:0:
425,210,123836,1,2,0:0:0:0:
425,210,124007,2,0,P|433:272|436:334,1,110,8|8,0:0|0:0,0:0:0:0:
401,362,124521,1,2,1:2:0:0:
318,288,124864,1,10,0:0:0:0:
231,356,125207,2,0,P|191:352|160:346,1,55,2|8,1:2|0:0,0:0:0:0:
134,313,125550,6,0,P|112:245|136:200,1,110,4|2,1:2|1:2,0:0:0:0:
194,125,126236,2,0,P|245:138|316:138,1,110,10|2,0:0|0:0,0:0:0:0:
293,252,126921,1,2,1:2:0:0:
293,252,127093,2,0,L|307:367,1,110,8|0,0:0|0:0,0:0:0:0:
253,378,127607,2,0,P|227:365|198:358,1,55,10|8,0:0|0:0,0:0:0:0:
163,318,127950,2,0,P|120:323|89:339,1,55,10|8,0:0|0:0,0:0:0:0:
64,358,128293,5,2,0:0:0:0:
154,120,130350,6,0,B|158:83|174:44,2,55,8|8|4,0:0|0:3|0:3,0:0:0:0:
120,163,130864,2,0,P|144:256|150:293,1,110,6|0,1:2|0:0,0:0:0:0:
120,318,131379,1,8,1:2:0:0:
220,361,131721,1,8,1:2:0:0:
308,296,132064,1,8,1:2:0:0:
405,346,132407,6,0,P|455:354|511:307,1,110,6|10,1:2|0:0,0:0:0:0:
468,218,133093,2,0,P|460:179|444:145,1,55,2|2,1:2|1:2,0:0:0:0:
420,121,133436,2,0,P|428:82|444:48,1,55,10|2,0:0|0:0,0:0:0:0:
464,22,133779,1,2,1:2:0:0:
356,45,134121,2,0,P|311:57|240:29,2,110,10|2|10,0:0|1:2|0:0,0:0:0:0:
302,141,135150,6,0,B|315:174|328:200|328:200|322:235|321:267,1,110,0|8,1:0|0:0,0:0:0:0:
246,325,135836,2,0,L|169:312,2,55,0|0|10,1:0|0:0|0:0,0:0:0:0:
331,255,136521,2,0,L|408:242,1,55,0|0,1:0|1:0,0:0:0:0:
429,213,136864,2,0,P|442:155|404:109,1,110,8|2,0:0|1:2,0:0:0:0:
322,56,137550,2,0,P|310:105|305:132,1,55,8|8,0:0|0:0,0:0:0:0:
295,162,137893,5,4,1:2:0:0:
206,96,138236,2,0,P|156:102|93:114,1,110,8|2,0:0|1:2,0:0:0:0:
25,196,138921,2,0,P|75:202|138:214,1,110,10|0,0:0|1:0,0:0:0:0:
243,225,139607,2,0,P|232:279|226:333,1,110,8|0,0:0|1:0,0:0:0:0:
193,384,140121,2,0,P|225:370|253:368,1,55,10|8,0:0|0:0,0:0:0:0:
281,322,140464,6,0,P|323:303|386:338,1,110,14|2,0:0|1:2,0:0:0:0:
423,360,140979,2,0,P|458:361|510:302,1,110,10|10,0:0|0:0,0:0:0:0:
458,213,141664,1,4,0:3:0:0:
461,157,141836,2,0,L|473:39,1,110,6|2,1:2|1:2,0:0:0:0:
430,11,142350,1,10,0:0:0:0:
362,98,142693,1,2,1:2:0:0:
275,24,143036,2,0,L|207:17,1,55,8|8,0:0|0:0,0:0:0:0:
177,53,143379,6,0,P|146:91|159:163,1,110,6|10,1:2|0:0,0:0:0:0:
209,241,144064,1,2,1:2:0:0:
209,241,144236,2,0,P|201:278|201:316,2,55,2|10|2,1:2|0:0|0:0,0:0:0:0:
229,189,144750,2,0,P|262:170|339:198,2,110,2|10|2,1:2|0:0|1:2,0:0:0:0:
283,285,145779,1,10,0:0:0:0:
198,355,146121,6,0,L|64:337,1,110,0|8,1:0|0:0,0:0:0:0:
57,294,146636,1,0,1:0:0:0:
57,294,146807,2,0,P|61:262|78:233,1,55,0|0,1:0|1:0,0:0:0:0:
99,194,147150,2,0,P|95:162|78:133,1,55,10|0,0:0|0:0,0:0:0:0:
58,93,147493,2,0,P|63:39|119:13,1,110,0|0,1:0|1:0,0:0:0:0:
200,73,148179,2,0,B|234:78|275:93|275:93|320:72|322:72,1,110,10|8,0:0|0:3,0:0:0:0:
353,55,148693,1,4,0:3:0:0:
404,35,148864,6,0,L|463:48,2,55,12|2|0,0:0|1:2|1:0,0:0:0:0:
395,89,149379,2,0,L|369:207,1,110,10|2,0:0|0:0,0:0:0:0:
342,243,149893,2,0,P|335:278|341:321,2,55,10|2|0,0:0|1:2|1:0,0:0:0:0:
309,198,150407,2,0,P|257:186|196:228,1,110,10|0,0:0|1:0,0:0:0:0:
177,256,150921,1,12,0:0:0:0:
93,184,151264,1,8,0:0:0:0:
93,184,151436,6,0,P|69:233|69:288,1,110,6|2,1:2|1:2,0:0:0:0:
82,341,151950,1,10,0:0:0:0:
186,307,152293,2,0,P|166:283|142:267,2,55,2|0|8,1:2|1:0|0:0,0:0:0:0:
224,346,152807,2,0,P|272:356|329:316,1,110,6|10,1:2|0:0,0:0:0:0:
357,283,153321,1,10,0:0:0:0:
306,185,153664,2,0,L|301:130,1,55,10|8,0:0|0:0,0:0:0:0:
258,95,154007,2,0,L|263:40,1,55,10|10,0:0|0:0,0:0:0:0:
310,12,154350,6,0,P|352:3|416:56,1,110,6|0,1:2|1:0,0:0:0:0:
421,89,154864,2,0,L|400:213,1,110,14|0,0:0|0:0,0:0:0:0:
392,251,155379,1,10,0:0:0:0:
253,341,155893,2,0,P|200:330|136:326,1,110,14|8,0:0|0:0,0:0:0:0:
114,279,156407,2,0,P|108:249|112:205,1,55,2|8,1:2|0:0,0:0:0:0:
123,171,156750,2,0,P|129:141|125:97,1,55,8|4,0:3|0:3,0:0:0:0:
108,65,157093,5,12,0:0:0:0:
210,25,157436,2,0,P|239:18|271:17,2,55,10|10|10,0:0|0:0|0:0,0:0:0:0:
166,59,157950,2,0,P|138:57|111:50,2,55,10|10|10,0:0|0:0|0:0,0:0:0:0:
196,105,158464,6,0,P|215:143|222:192,2,82.5,14|10|10,0:0|0:0|0:0,0:0:0:0:
166,59,159150,2,0,B|138:73|114:84|114:84|88:70|69:64,2,82.5,8|4|10,0:3|0:3|0:0,0:0:0:0:
209,25,159836,6,0,P|262:9|330:88,1,165,6|0,1:2|1:0,0:0:0:0:
321,135,160521,1,8,0:0:0:0:
409,274,161036,1,8,0:0:0:0:
409,274,161207,2,0,P|352:269|286:256,1,110,0|2,1:0|0:0,0:0:0:0:
216,186,161893,2,0,P|159:191|93:204,1,110,10|8,0:0|0:0,0:0:0:0:
76,246,162407,1,0,1:0:0:0:
76,246,162579,6,0,P|64:205|35:138,1,110,14|0,0:0|1:0,0:0:0:0:
7,97,163093,2,0,P|29:50|95:49,1,110,14|0,0:0|0:0,0:0:0:0:
130,68,163607,2,0,P|171:79|227:48,1,110,6|8,1:2|0:0,0:0:0:0:
258,2,164121,1,6,1:2:0:0:
258,2,164293,1,8,0:0:0:0:
334,81,164636,2,0,P|319:113|305:195,1,110,8|10,0:3|0:0,0:0:0:0:
328,236,165150,1,10,0:0:0:0:
328,236,165321,6,0,P|343:268|357:350,1,110,6|10,1:2|0:0,0:0:0:0:
252,304,166007,2,0,P|221:311|185:322,2,55,2|2|10,1:2|0:0|0:0,0:0:0:0:
252,248,166521,2,0,P|258:194|220:138,1,110,6|0,0:0|0:0,0:0:0:0:
189,110,167036,1,10,0:0:0:0:
247,16,167379,1,0,1:0:0:0:
332,84,167721,1,8,0:0:0:0:
428,32,168064,6,0,P|470:42|496:116,1,110,6|10,1:2|0:0,0:0:0:0:
447,195,168750,2,0,P|418:242|427:309,1,110,2|10,1:2|0:0,0:0:0:0:
459,334,169264,1,2,0:0:0:0:
459,334,169436,2,0,B|425:333|402:327|402:327|354:348|354:348|330:338|290:335,1,165,2|2,1:2|0:0,0:0:0:0:
246,325,170121,1,2,1:2:0:0:
167,248,170464,2,0,P|126:253|101:263,1,55,8|10,0:0|0:0,0:0:0:0:
61,277,170807,6,0,B|45:236|12:177|12:177|65:197,1,165,6|10,1:2|0:0,0:0:0:0:
148,127,171664,1,2,1:2:0:0:
92,31,172007,2,0,P|146:24|207:24,1,110,14|10,0:0|0:0,0:0:0:0:
256,20,172521,2,0,P|303:38|315:101,2,110,2|8|4,1:2|0:3|0:3,0:0:0:0:
210,120,173550,6,0,P|224:176|237:238,1,110,14|4,1:2|0:3,0:0:0:0:
218,279,174064,2,0,P|253:242|319:247,1,110,14|4,1:2|0:3,0:0:0:0:
358,267,174579,1,10,0:0:0:0:
412,271,174750,2,0,P|453:272|498:217,1,110,14|14,0:0|0:0,0:0:0:0:
473,173,175264,1,2,1:2:0:0:
496,123,175436,1,14,0:0:0:0:
424,39,175779,1,10,0:0:0:0:
424,39,175950,1,10,0:0:0:0:
329,94,176293,5,6,1:2:0:0:
170,157,187264,6,0,P|186:213|198:271,1,110,6|0,1:2|1:0,0:0:0:0:
174,371,187950,1,0,1:0:0:0:
86,303,188293,2,0,P|69:250|85:195,1,110,2|0,1:2|1:0,0:0:0:0:
108,150,188807,2,0,P|109:111|63:44,1,110,2|0,0:0|1:0,0:0:0:0:
25,24,189321,2,0,P|119:32|135:30,1,110,2|10,1:2|0:0,0:0:0:0:
244,28,190007,6,0,P|282:26|336:85,1,110,2|0,1:2|1:0,0:0:0:0:
347,124,190521,1,2,0:0:0:0:
215,224,191036,2,0,P|238:263|250:327,1,110,2|0,1:2|1:0,0:0:0:0:
208,361,191550,2,0,P|262:340|319:346,1,110,2|0,0:0|1:0,0:0:0:0:
364,364,192064,1,2,1:2:0:0:
435,280,192407,1,10,0:0:0:0:
380,184,192750,6,0,L|395:67,2,110,6|0|0,1:2|1:0|1:0,0:0:0:0:
283,238,193779,2,0,L|289:292,1,55,2|2,1:2|0:0,0:0:0:0:
296,346,194121,1,0,1:0:0:0:
195,300,194464,1,2,1:2:0:0:
103,361,194807,1,2,1:2:0:0:
27,280,195150,1,10,0:0:0:0:
87,188,195493,6,0,P|103:128|66:78,1,110,14|2,1:2|1:2,0:0:0:0:
11,3,196179,1,2,1:2:0:0:
96,71,196521,1,2,1:2:0:0:
193,16,196864,2,0,L|250:24,1,55,10|10,1:2|0:0,0:0:0:0:
285,63,197207,2,0,L|339:55,2,55,10|10|10,1:2|0:0|1:2,0:0:0:0:
266,114,197721,2,0,L|211:106,2,55,10|10|10,0:0|1:2|0:2,0:0:0:0:
303,154,198236,1,0,0:0:0:0:
194,295,198921,5,2,0:0:0:0:
99,135,199607,6,0,P|143:144|207:109,1,110,6|10,1:2|0:0,0:0:0:0:
285,46,200293,1,2,1:2:0:0:
285,46,200464,2,0,P|251:33|214:28,2,55,2|10|2,1:2|0:0|0:0,0:0:0:0:
330,78,200979,2,0,P|354:108|347:184,2,110,2|10|2,1:2|0:0|1:2,0:0:0:0:
235,134,202007,1,10,0:0:0:0:
133,90,202350,6,0,L|153:214,1,110,0|8,1:0|0:0,0:0:0:0:
217,286,203036,2,0,L|207:348,2,55,0|0|10,1:0|1:0|0:0,0:0:0:0:
314,275,203721,2,0,L|306:221,1,55,0|0,1:0|1:0,0:0:0:0:
296,166,204064,2,0,P|328:135|396:152,1,110,10|2,0:0|1:2,0:0:0:0:
467,222,204750,1,8,0:0:0:0:
499,117,205093,6,0,L|477:8,2,110,6|8|2,1:2|0:0|1:2,0:0:0:0:
422,196,206121,1,10,0:0:0:0:
422,196,206293,2,0,P|451:225|457:294,1,110,2|2,0:0|0:0,0:0:0:0:
434,341,206807,1,8,0:0:0:0:
334,294,207150,1,0,1:0:0:0:
241,353,207493,1,8,0:0:0:0:
241,353,207664,6,0,P|184:350|121:330,1,110,14|2,0:0|1:2,0:0:0:0:
102,289,208179,2,0,P|94:240|141:185,1,110,10|10,0:0|0:0,0:0:0:0:
164,152,208693,1,8,0:3:0:0:
187,102,208864,1,4,0:3:0:0:
215,54,209036,2,0,B|268:33|268:33|335:50,1,110,14|2,0:2|1:2,0:0:0:0:
366,75,209550,1,10,0:0:0:0:
458,14,209893,1,10,0:0:0:0:
458,14,210064,1,8,0:0:0:0:
500,176,210579,6,0,L|480:300,1,110,6|10,1:2|0:0,0:0:0:0:
447,327,211093,1,0,1:0:0:0:
447,327,211264,2,0,P|415:328|379:336,2,55,2|2|10,1:2|1:2|0:0,0:0:0:0:
357,253,211950,2,0,P|305:249|262:302,1,110,2|10,1:2|0:0,0:0:0:0:
208,381,212636,1,2,1:2:0:0:
131,302,212979,1,10,0:0:0:0:
164,197,213321,6,0,P|159:148|102:103,1,110,0|8,1:0|0:0,0:0:0:0:
60,12,214007,2,0,P|98:19|131:23,2,55,0|0|10,1:2|1:0|0:0,0:0:0:0:
14,112,214693,2,0,P|7:151|3:183,1,55,0|8,1:0|0:0,0:0:0:0:
38,209,215036,2,0,P|58:240|34:318,1,110,0|10,1:0|0:0,0:0:0:0:
15,355,215550,1,8,0:3:0:0:
15,355,215721,2,0,P|55:351|89:349,1,55,8|4,0:3|0:3,0:0:0:0:
114,317,216064,6,0,P|184:324|243:327,1,110,12|0,0:0|1:0,0:0:0:0:
258,283,216579,2,0,P|303:268|377:307,1,110,10|2,0:0|0:0,0:0:0:0:
399,326,217093,2,0,P|386:355|381:382,2,55,10|2|0,0:0|1:2|1:0,0:0:0:0:
441,290,217607,2,0,P|458:236|414:179,1,110,10|0,0:0|1:0,0:0:0:0:
394,152,218121,1,12,0:0:0:0:
434,53,218464,1,8,0:0:0:0:
434,53,218636,6,0,L|313:66,1,110,6|2,1:2|1:2,0:0:0:0:
270,74,219150,1,10,0:0:0:0:
176,16,219493,2,0,L|115:9,2,55,2|0|8,1:2|1:0|0:0,0:0:0:0:
213,56,220007,2,0,P|242:103|214:167,1,110,6|10,1:2|0:0,0:0:0:0:
195,196,220521,1,10,0:0:0:0:
250,290,220864,1,10,0:0:0:0:
183,378,221207,1,10,0:0:0:0:
97,309,221550,6,0,L|112:192,1,110,14|0,1:2|1:0,0:0:0:0:
146,157,222064,2,0,L|131:40,1,110,14|0,0:0|1:0,0:0:0:0:
88,13,222579,2,0,B|144:35|144:35|202:20,1,110,14|0,0:0|1:0,0:0:0:0:
244,4,223093,2,0,P|284:7|332:63,1,110,14|0,0:0|1:0,0:0:0:0:
352,106,223607,1,14,0:0:0:0:
295,200,223950,1,10,0:0:0:0:
381,268,224293,6,0,B|421:279|449:289|449:289|482:278|509:275,1,110,14|0,1:2|1:0,0:0:0:0:
500,225,224807,2,0,P|494:170|478:117,1,110,14|0,1:2|1:0,0:0:0:0:
448,71,225321,2,0,P|409:48|342:68,1,110,14|0,0:0|1:0,0:0:0:0:
252,118,226007,2,0,P|256:148|260:181,2,55,2|2|10,1:2|1:2|0:0,0:0:0:0:
208,84,226521,1,4,0:3:0:0:
208,84,226693,2,0,P|171:81|138:72,1,55,8|4,0:3|0:3,0:0:0:0:
98,82,227036,6,0,P|87:120|81:156,2,55,14|0|0,0:0|1:0|1:0,0:0:0:0:
79,29,227550,1,10,0:0:0:0:
182,157,228064,2,0,P|221:152|256:149,2,55,14|0|0,0:0|1:0|1:0,0:0:0:0:
134,127,228579,1,10,0:0:0:0:
216,44,228921,1,0,1:0:0:0:
216,44,229093,2,0,B|250:53|276:68|276:68|306:56|339:53,1,110,12|8,0:0|0:0,0:0:0:0:
370,34,229607,6,0,P|411:31|470:78,1,110,6|2,1:2|1:2,0:0:0:0:
498,113,230121,1,10,0:0:0:0:
430,199,230464,2,0,P|438:237|446:267,2,55,2|2|8,1:2|1:2|0:0,0:0:0:0:
387,163,230979,2,0,P|330:160|299:213,1,110,6|10,1:2|0:0,0:0:0:0:
301,253,231493,2,0,P|317:284|331:366,1,110,10|10,0:0|0:0,0:0:0:0:
404,274,232179,1,8,0:0:0:0:
499,278,232521,6,0,B|508:323|519:355|519:355|496:379|492:381,1,110,6|8,1:2|0:0,0:0:0:0:
406,315,233207,1,0,1:2:0:0:
406,315,233379,2,0,P|377:320|344:325,1,55,0|8,1:0|0:0,0:0:0:0:
308,357,233721,2,0,B|281:317|281:317|296:244,1,110,0|0,1:0|1:0,0:0:0:0:
313,205,234236,1,8,0:0:0:0:
387,124,234579,2,0,P|416:129|449:134,2,55,0|0|8,1:0|1:0|0:0,0:0:0:0:
351,83,235093,1,0,1:0:0:0:
351,83,235264,6,0,P|296:93|242:97,1,110,2|8,1:2|0:0,0:0:0:0:
136,128,235950,2,0,P|150:86|153:54,2,55,0|2|10,1:0|1:2|0:0,0:0:0:0:
116,180,236464,2,0,P|105:227|143:293,1,110,2|2,1:2|1:2,0:0:0:0:
166,324,236979,1,10,0:0:0:0:
166,324,237150,1,8,0:0:0:0:
245,248,237493,2,0,P|276:264|312:267,1,55,10|10,0:0|0:0,0:0:0:0:
340,301,237836,1,10,0:0:0:0:
340,301,238007,6,0,P|401:253|409:207,2,110,6|8|0,1:2|0:0|1:0,0:0:0:0:
243,353,239036,1,10,0:0:0:0:
243,353,239207,2,0,B|211:331|186:302|186:302|153:324|151:322,1,110,6|0,1:2|1:0,0:0:0:0:
119,359,239721,1,8,0:0:0:0:
37,286,240064,1,2,1:2:0:0:
37,286,240236,2,0,P|54:259|67:227,1,55,2|10,1:2|0:0,0:0:0:0:
98,190,240579,1,2,1:2:0:0:
98,190,240750,6,0,B|83:156|67:137|67:137|77:92|84:69,1,110,6|10,1:2|0:0,0:0:0:0:
163,19,241436,2,0,P|203:25|236:26,2,55,10|10|10,0:0|0:0|0:0,0:0:0:0:
124,58,241950,2,0,P|129:129|136:192,1,110,6|10,1:2|0:0,0:0:0:0:
177,199,242464,1,2,1:2:0:0:
177,199,242636,2,0,P|174:234|171:266,1,55,8|8,0:3|0:3,0:0:0:0:
226,349,243150,2,0,P|258:358|287:359,1,55,8|8,0:0|0:0,0:0:0:0:
301,308,243493,6,0,P|336:285|408:305,1,110,6|0,1:2|0:0,0:0:0:0:
420,355,244007,1,2,1:2:0:0:
420,355,244179,2,0,P|426:304|414:228,1,110,14|12,0:0|0:0,0:0:0:0:
389,206,244693,1,10,0:0:0:0:
389,206,244864,6,0,P|395:165|425:126,2,82.5,14|14|14,0:0|0:0|0:0,0:0:0:0:
345,239,245550,2,0,P|306:254|257:247,2,82.5,2|2|2,1:2|1:2|1:2,0:0:0:0:
253,69,246921,5,2,0:0:0:0:
