osu file format v14

[General]
AudioFilename: audio.mp3
AudioLeadIn: 0
PreviewTime: 61754
Countdown: 0
SampleSet: Soft
StackLeniency: 0.7
Mode: 0
LetterboxInBreaks: 0
WidescreenStoryboard: 1

[Editor]
Bookmarks: 11379,22350,44293,62122,84065,94350,106350,117321,132407,165321,176293,199607,221550,232521,246921
DistanceSpacing: 1
BeatDivisor: 4
GridSize: 4
TimelineZoom: 4.399998

[Metadata]
Title:Nisemono no Koi ni Sayounara with Wakeshima Kanon
TitleUnicode:偽物の恋にさようなら with 分島花音
Artist:ASCA
ArtistUnicode:ASCA
Creator:timemon
Version:Meyrink's Extra
Source:
Tags:大倉明日香 Okura Asuka -[ Hinoao ]- Meyrink Japanese 百歌繚乱 Hyakka Ryoran Naoki Chiba Kyou Tomohide Rock
BeatmapID:2337943
BeatmapSetID:1055201

[Difficulty]
HPDrainRate:6
CircleSize:4
OverallDifficulty:8
ApproachRate:9.3
SliderMultiplier:1.8
SliderTickRate:1

[Events]
//Background and Video events
0,0,"1280453.jpg",0,0
//Break Periods
//Storyboard Layer 0 (Background)
//Storyboard Layer 1 (Fail)
//Storyboard Layer 2 (Pass)
//Storyboard Layer 3 (Foreground)
//Storyboard Layer 4 (Overlay)
//Storyboard Sound Samples

[TimingPoints]
408,342.857142857143,4,2,1,60,1,0
408,-133.333333333333,4,2,1,60,0,0
8636,-100,4,2,1,60,0,0
10522,-76.9230769230769,4,2,1,70,0,0
10950,-100,4,2,1,70,0,0
22350,-133.333333333333,4,2,1,55,0,0
31608,-181.818181818182,4,2,1,55,0,0
32808,-133.333333333333,4,2,1,55,0,0
39836,-133.333333333333,4,2,1,60,0,0
40350,-133.333333333333,4,2,1,55,0,0
44293,-111.111111111111,4,2,1,60,0,0
57836,-100,4,2,1,70,0,0
62122,-100,4,2,1,80,0,1
72065,-83.3333333333333,4,2,1,80,0,1
72750,-100,4,2,1,80,0,0
73093,-100,4,2,1,80,0,1
84065,-100,4,2,1,70,0,0
93665,-83.3333333333333,4,2,1,70,0,0
94865,-100,4,2,1,70,0,0
95379,342.857142857143,4,2,1,60,1,0
95379,-133.333333333333,4,2,1,60,0,0
106350,-100,4,2,1,60,0,0
116979,-100,4,2,1,60,0,0
117321,-111.111111111111,4,2,1,60,0,0
128293,-133.333333333333,4,2,1,60,0,0
130350,-100,4,2,1,60,0,0
130864,-100,4,2,1,70,0,0
132407,-100,4,2,1,80,0,1
143036,-100,4,2,1,80,0,0
143379,-100,4,2,1,80,0,1
154350,-90.9090909090909,4,2,1,70,0,0
155379,-90.9090909090909,4,2,1,65,0,0
155893,-90.9090909090909,4,2,1,65,0,0
157093,-100,4,2,1,65,0,0
157436,-100,4,2,1,50,0,0
157779,-100,4,2,1,60,0,0
158121,-100,4,2,1,70,0,0
158464,-83.3333333333333,4,2,1,70,0,0
159836,-100,4,2,1,70,0,0
162579,-90.9090909090909,4,2,1,70,0,0
163093,-90.9090909090909,4,2,1,65,0,0
165321,-100,4,2,1,65,0,0
176293,-133.333333333333,4,2,1,65,0,0
187093,-133.333333333333,4,2,1,45,0,0
187264,-133.333333333333,4,2,1,65,0,0
195493,-100,4,2,1,65,0,0
196864,-100,4,2,1,65,0,0
198921,-133.333333333333,4,2,1,65,0,0
199607,-100,4,2,1,65,0,1
210064,-100,4,2,1,65,0,0
210579,-100,4,2,1,65,0,1
221379,-100,4,2,1,65,0,0
221550,-100,4,2,1,65,0,1
227036,-100,4,2,1,65,0,0
232521,-100,4,2,1,65,0,1
232693,-100,4,2,1,65,0,0
244864,-83.3333333333333,4,2,1,65,0,0
246921,-100,4,2,1,65,0,0

[Colours]
Combo1 : 148,202,235
Combo2 : 203,194,220
Combo3 : 168,215,210
Combo4 : 221,174,186

[HitObjects]
57,118,408,6,0,P|91:114|124:106,1,67.5000025749208,2|2,1:2|0:0,0:0:0:0:
215,76,750,1,2,0:0:0:0:
215,76,922,1,2,0:0:0:0:
322,174,1093,2,0,P|289:166|255:163,1,67.5000025749208,0|0,0:0|0:0,0:0:0:0:
139,184,1436,2,0,P|111:243|133:305,1,135.000005149842,0|0,0:0|0:0,0:0:0:0:
245,362,1950,5,0,0:0:0:0:
245,362,2122,2,0,L|238:293,1,67.5000025749208,0|0,0:0|0:0,0:0:0:0:
227,191,2465,1,0,0:0:0:0:
355,258,2636,1,2,1:2:0:0:
325,162,2808,1,2,0:0:0:0:
263,274,2979,1,2,1:2:0:0:
361,352,3150,6,0,P|425:337|499:331,1,135.000005149842,0|2,1:0|0:0,0:0:0:0:
512,192,3665,2,0,P|444:197|379:212,1,135.000005149842,2|0,0:0|0:0,0:0:0:0:
335,116,4179,1,0,0:0:0:0:
335,116,4350,1,0,0:0:0:0:
410,58,4522,6,0,P|422:89|426:122,1,67.5000025749208,2|0,0:0|0:0,0:0:0:0:
290,252,4865,2,0,P|285:218|273:187,1,67.5000025749208,2|2,0:0|0:0,0:0:0:0:
206,98,5208,1,0,0:0:0:0:
206,98,5379,1,0,1:0:0:0:
329,22,5550,2,0,P|297:35|264:38,1,67.5000025749208,2|0,0:0|1:0,0:0:0:0:
110,99,5893,5,2,1:2:0:0:
178,19,6065,1,2,0:0:0:0:
222,146,6236,1,2,0:0:0:0:
53,188,6408,2,0,B|136:175|136:175|153:187|163:218,1,135.000005149842,2|0,0:0|0:0,0:0:0:0:
235,359,6922,2,0,P|244:292|256:225,2,135.000005149842,0|0|0,0:0|0:0|0:0,0:0:0:0:
87,307,7779,2,0,P|122:301|154:298,1,67.5000025749208,0|0,0:0|0:0,0:0:0:0:
323,234,8122,2,0,P|288:228|256:225,1,67.5000025749208,2|2,1:2|0:0,0:0:0:0:
210,109,8465,1,2,1:2:0:0:
248,321,8636,6,0,P|292:315|337:311,1,90,12|0,0:0|0:0,0:0:0:0:
408,125,8979,2,0,P|363:129|318:135,1,90,8|0,0:0|0:0,0:0:0:0:
209,214,9322,1,8,0:0:0:0:
384,234,9493,1,8,0:0:0:0:
226,77,9665,1,8,0:0:0:0:
143,280,9836,1,10,0:0:0:0:
142,285,9922,1,10,0:0:0:0:
140,289,10008,5,6,1:2:0:0:
298,190,10179,2,0,L|310:144,1,45,10|8,0:0|0:0,0:0:0:0:
341,353,10350,2,0,L|289:361,1,45,10|8,0:0|0:0,0:0:0:0:
151,329,10522,6,0,P|158:250|170:154,1,175.499991966248,2|0,1:2|0:0,0:0:0:0:
175,125,10865,1,10,0:0:0:0:
306,23,11036,1,8,0:3:0:0:
348,35,11122,1,8,0:3:0:0:
376,70,11208,1,4,0:3:0:0:
381,114,11293,1,4,0:3:0:0:
360,153,11379,6,0,B|319:181|267:178|267:178|291:214|289:268,1,180,6|8,1:2|0:0,0:0:0:0:
107,260,11893,1,0,1:0:0:0:
107,260,11979,1,0,1:0:0:0:
107,260,12065,2,0,P|152:247|195:241,1,90,0|0,1:0|1:0,0:0:0:0:
319,338,12408,1,8,0:0:0:0:
228,84,12579,6,0,P|177:155|194:241,1,180,0|0,1:0|1:0,0:0:0:0:
301,182,13093,1,8,0:0:0:0:
398,346,13265,1,0,1:0:0:0:
398,346,13350,1,0,1:0:0:0:
398,345,13436,2,0,P|392:300|383:256,1,90,0|0,1:0|1:0,0:0:0:0:
507,99,13779,2,0,P|498:143|492:187,1,90,8|0,0:0|1:0,0:0:0:0:
363,25,14122,5,2,1:2:0:0:
414,185,14293,1,2,0:0:0:0:
213,164,14465,1,8,0:0:0:0:
345,125,14636,1,2,1:2:0:0:
345,125,14722,1,0,1:0:0:0:
345,125,14808,1,0,1:0:0:0:
309,289,14979,1,2,1:2:0:0:
127,200,15150,1,10,0:0:0:0:
327,205,15322,6,0,P|237:212|148:225,1,180,2|2,1:2|1:2,0:0:0:0:
62,137,15836,1,10,0:0:0:0:
165,315,16008,1,10,0:0:0:0:
223,157,16179,1,2,0:0:0:0:
25,256,16350,1,10,0:0:0:0:
25,256,16436,1,10,0:0:0:0:
25,256,16522,1,10,0:0:0:0:
133,50,16693,2,0,L|146:102,1,45,10|10,0:0|0:0,0:0:0:0:
149,199,16865,6,0,P|157:108|167:15,1,180,6|8,1:2|0:0,0:0:0:0:
238,241,17379,1,0,1:0:0:0:
238,241,17465,1,0,1:0:0:0:
238,241,17550,2,0,P|282:233|327:229,1,90,0|0,1:0|1:0,0:0:0:0:
257,103,17893,1,10,0:0:0:0:
379,285,18065,6,0,P|289:272|200:266,1,180,6|0,1:2|1:0,0:0:0:0:
420,182,18579,1,8,0:0:0:0:
462,304,18750,1,2,1:2:0:0:
462,304,18836,1,2,1:2:0:0:
462,304,18922,1,2,1:2:0:0:
477,113,19093,1,2,1:2:0:0:
292,181,19265,1,10,0:0:0:0:
385,304,19436,1,2,1:2:0:0:
269,90,19608,6,0,B|155:114|155:114|132:99|117:62,1,180,6|8,1:2|0:0,0:0:0:0:
24,177,20122,1,0,1:0:0:0:
19,179,20208,1,0,1:0:0:0:
15,180,20293,1,0,1:0:0:0:
202,240,20465,1,8,0:0:0:0:
207,242,20550,1,8,0:0:0:0:
211,243,20636,1,8,0:0:0:0:
191,43,20808,6,0,P|268:2|352:28,1,180,6|10,1:2|0:0,0:0:0:0:
383,40,21236,1,10,0:0:0:0:
383,40,21322,1,2,1:2:0:0:
263,186,21493,2,0,P|266:141|278:97,1,90,8|0,0:3|1:0,0:0:0:0:
357,281,21836,1,4,0:3:0:0:
357,280,22008,2,0,P|289:279|224:296,1,135,4|0,0:3|0:0,0:0:0:0:
164,249,22350,6,0,P|149:313|189:365,1,135.000005149842,6|0,1:2|0:0,0:0:0:0:
419,329,23036,2,0,P|434:265|394:213,1,135.000005149842,2|2,0:0|0:0,0:0:0:0:
302,194,23550,6,0,P|305:143|333:63,1,135.000005149842,2|2,0:0|0:0,0:0:0:0:
469,32,24065,2,0,P|453:63|444:95,1,67.5000025749208,2|0,0:0|0:0,0:0:0:0:
394,213,24408,2,0,P|428:208|463:206,1,67.5000025749208,2|2,0:0|1:2,0:0:0:0:
430,315,24750,2,0,P|396:318|362:322,1,67.5000025749208,2|2,0:0|1:2,0:0:0:0:
254,254,25093,6,0,P|191:238|138:278,1,135.000005149842,2|0,1:2|0:0,0:0:0:0:
0,169,25779,2,0,P|33:170|65:180,1,67.5000025749208,0|0,0:0|0:0,0:0:0:0:
230,96,26122,2,0,P|196:97|164:107,1,67.5000025749208,0|0,0:0|0:0,0:0:0:0:
79,184,26465,6,0,P|91:250|101:317,2,135.000005149842,2|0|2,0:0|0:0|0:0,0:0:0:0:
195,232,27322,1,0,1:0:0:0:
129,373,27493,2,0,P|131:339|135:305,1,67.5000025749208,2|0,0:0|1:0,0:0:0:0:
224,141,27836,6,0,P|289:133|343:171,1,135.000005149842,2|0,1:2|0:0,0:0:0:0:
489,179,28350,2,0,P|422:185|356:198,1,135.000005149842,2|0,0:0|0:0,0:0:0:0:
291,80,28865,6,0,P|357:67|424:61,1,135.000005149842,2|0,1:2|0:0,0:0:0:0:
504,130,29379,1,0,0:0:0:0:
394,212,29550,2,0,P|426:212|461:219,1,67.5000025749208,2|2,0:0|0:0,0:0:0:0:
380,316,29893,2,0,P|347:317|314:324,1,67.5000025749208,2|0,0:0|1:0,0:0:0:0:
296,330,30150,1,0,1:0:0:0:
296,330,30236,1,2,0:0:0:0:
267,216,30408,1,0,1:0:0:0:
214,278,30579,1,2,1:2:0:0:
214,278,30750,6,0,P|219:210|231:144,1,135.000005149842,2|2,0:0|0:0,0:0:0:0:
129,48,31265,2,0,P|119:80|112:113,1,67.5000025749208,2|2,0:0|0:0,0:0:0:0:
104,259,31608,6,0,B|166:252|214:278|214:278|213:238|222:202|222:202|279:199|325:225,1,297.000009063721,6|0,1:2|0:0,0:0:0:0:
380,328,32808,1,0,1:0:0:0:
380,328,32979,2,0,P|346:333|313:340,1,67.5000025749208,8|0,0:0|1:0,0:0:0:0:
325,225,33322,6,0,P|317:158|348:100,1,135.000005149842,6|0,1:2|0:0,0:0:0:0:
468,127,33836,1,2,0:0:0:0:
468,127,34008,2,0,P|475:193|444:251,1,135.000005149842,2|2,0:0|1:2,0:0:0:0:
388,345,34522,2,0,P|319:334|253:330,1,135.000005149842,2|2,0:0|0:0,0:0:0:0:
186,246,35036,1,2,0:0:0:0:
320,144,35379,2,0,P|287:151|253:153,1,67.5000025749208,2|2,0:0|1:2,0:0:0:0:
119,236,35722,2,0,P|152:238|185:245,1,67.5000025749208,10|2,0:0|0:0,0:0:0:0:
272,332,36065,6,0,P|336:311|402:316,1,135.000005149842,2|0,1:2|0:0,0:0:0:0:
512,200,36579,2,0,B|500:218|469:227|469:227|388:209,1,135.000005149842,2|2,1:2|0:0,0:0:0:0:
298,110,37093,1,2,1:2:0:0:
298,110,37436,6,0,P|233:96|177:131,1,135.000005149842,2|0,0:0|0:0,0:0:0:0:
24,107,37950,1,2,0:0:0:0:
23,107,38122,2,0,P|55:95|88:88,1,67.5000025749208,2|0,0:0|1:0,0:0:0:0:
129,273,38465,2,0,P|134:239|142:206,1,67.5000025749208,10|0,0:0|0:0,0:0:0:0:
339,288,38808,6,0,P|287:247|221:253,1,135.000005149842,2|0,1:2|0:0,0:0:0:0:
58,301,39322,1,2,1:2:0:0:
58,301,39836,2,0,P|124:290|191:283,1,135.000005149842,6|0,1:2|0:0,0:0:0:0:
313,182,40350,2,0,P|281:177|245:175,1,67.5000025749208,2|0,0:0|0:0,0:0:0:0:
117,131,40693,2,0,P|111:68|148:6,1,135.000005149842,2|2,0:0|1:2,0:0:0:0:
215,90,41208,1,10,0:0:0:0:
215,90,41379,1,2,0:0:0:0:
262,272,41550,6,0,P|296:215|290:148,1,135.000005149842,2|2,1:2|0:0,0:0:0:0:
145,230,42065,1,2,1:2:0:0:
246,361,42236,2,0,P|278:354|312:349,1,67.5000025749208,2|0,0:0|0:0,0:0:0:0:
155,195,42579,2,0,P|144:259|138:329,1,135.000005149842,10|0,0:0|1:0,0:0:0:0:
249,264,43093,5,8,0:0:0:0:
249,264,43179,1,8,0:0:0:0:
249,264,43265,1,8,0:0:0:0:
211,122,43436,1,8,0:0:0:0:
93,223,43608,1,8,0:0:0:0:
291,170,43779,1,8,0:3:0:0:
166,38,43950,1,4,0:3:0:0:
183,210,44122,1,4,0:3:0:0:
356,127,44293,6,0,B|399:150|448:149|448:149|422:170|420:212,1,161.999995056153,6|0,1:2|0:0,0:0:0:0:
339,293,44808,1,2,1:2:0:0:
310,205,44979,2,0,P|293:284|283:364,1,161.999995056153,10|0,0:0|0:0,0:0:0:0:
229,141,45665,2,0,P|217:179|208:219,1,80.9999975280763,2|10,1:2|0:0,0:0:0:0:
159,323,46008,2,0,P|86:306|-2:298,2,161.999995056153,2|10|2,1:2|0:0|1:2,0:0:0:0:
104,212,46865,1,2,1:2:0:0:
238,227,47036,6,0,P|276:157|258:80,1,161.999995056153,2|0,1:2|1:0,0:0:0:0:
38,116,47722,2,0,B|45:156|77:172|77:172|172:147,1,161.999995056153,10|0,0:0|0:0,0:0:0:0:
317,215,48236,1,10,0:0:0:0:
317,215,48408,2,0,P|277:218|238:227,1,80.9999975280763,0|10,1:2|0:0,0:0:0:0:
235,59,48750,2,0,P|274:67|314:70,1,80.9999975280763,2|0,1:2|0:0,0:0:0:0:
412,144,49093,1,10,0:0:0:0:
372,269,49265,1,8,0:0:0:0:
316,166,49436,1,6,1:2:0:0:
478,201,49608,1,10,0:0:0:0:
387,353,49779,6,0,P|348:345|308:340,1,80.9999975280763,6|0,1:2|0:0,0:0:0:0:
154,249,50122,2,0,P|193:239|233:234,1,80.9999975280763,2|0,1:2|0:0,0:0:0:0:
373,91,50465,2,0,P|357:170|345:250,1,161.999995056153,10|2,0:0|0:0,0:0:0:0:
209,337,50979,1,8,0:0:0:0:
209,337,51150,2,0,P|204:296|199:256,1,80.9999975280763,0|8,1:0|0:0,0:0:0:0:
98,100,51493,2,0,P|102:140|107:180,1,80.9999975280763,2|0,1:2|0:0,0:0:0:0:
40,286,51836,2,0,P|118:267|199:256,1,161.999995056153,10|2,0:0|1:2,0:0:0:0:
366,178,52350,1,8,0:0:0:0:
366,178,52436,1,8,0:0:0:0:
366,178,52522,6,0,P|302:133|230:163,1,161.999995056153,4|2,1:2|1:2,0:0:0:0:
48,283,53208,2,0,P|88:285|127:294,1,80.9999975280763,10|0,0:0|0:0,0:0:0:0:
253,330,53550,2,0,P|293:328|332:319,1,80.9999975280763,2|8,0:0|0:0,0:0:0:0:
445,236,53893,1,2,1:2:0:0:
445,236,54065,2,0,P|434:150|420:76,1,161.999995056153,8|0,0:0|0:0,0:0:0:0:
290,48,54579,1,10,0:0:0:0:
207,251,54750,1,8,0:0:0:0:
354,172,54922,1,10,0:0:0:0:
133,125,55093,1,8,0:0:0:0:
250,156,55265,5,2,0:0:0:0:
256,192,55350,12,0,56979,0:0:0:0:
89,260,57322,5,8,0:0:0:0:
273,195,57493,1,0,1:0:0:0:
124,66,57665,1,4,0:3:0:0:
214,254,57836,2,0,P|283:241|351:238,1,135,6|8,1:2|0:0,0:0:0:0:
459,159,58179,5,8,0:0:0:0:
471,118,58265,1,8,0:0:0:0:
464,76,58350,1,8,1:2:0:0:
440,42,58436,1,8,0:0:0:0:
403,22,58522,1,8,0:0:0:0:
360,21,58608,1,8,0:0:0:0:
322,38,58693,6,0,L|329:83,1,45,10|8,1:2|0:0,0:0:0:0:
347,237,58865,2,0,L|299:228,1,45,10|8,0:0|0:0,0:0:0:0:
173,139,59036,2,0,L|187:185,1,45,10|8,1:2|0:0,0:0:0:0:
226,335,59208,2,0,L|181:327,1,45,10|8,0:0|0:0,0:0:0:0:
37,301,59379,5,10,0:0:0:0:
227,248,59550,1,0,1:0:0:0:
66,125,59722,1,0,1:0:0:0:
181,327,59893,2,0,B|224:329|260:358|260:358|274:312|305:276,1,180,2|0,1:2|0:0,0:0:0:0:
361,166,60408,5,10,0:0:0:0:
394,350,60579,1,0,1:0:0:0:
227,248,60750,1,0,1:0:0:0:
418,92,60922,2,0,P|396:179|382:268,1,180,2|0,1:2|1:0,0:0:0:0:
381,268,61350,1,0,1:0:0:0:
381,268,61436,1,10,0:0:0:0:
248,118,61608,2,0,L|292:109,1,45,8|8,0:0|0:0,0:0:0:0:
295,291,61779,2,0,L|305:247,1,45,8|8,1:2|0:0,0:0:0:0:
146,164,61950,2,0,L|135:207,1,45,8|8,0:0|0:0,0:0:0:0:
193,356,62122,6,0,P|259:340|370:324,1,180,6|10,1:2|0:0,0:0:0:0:
247,201,62636,1,2,1:2:0:0:
247,201,62722,1,2,1:2:0:0:
247,201,62808,1,2,1:2:0:0:
108,297,62979,1,2,1:2:0:0:
188,91,63150,1,10,0:0:0:0:
210,279,63322,1,2,0:2:0:0:
23,201,63493,6,0,P|67:195|110:183,1,90,2|0,1:2|1:0,0:0:0:0:
380,109,63836,2,0,P|335:103|292:91,1,90,10|0,0:0|0:0,0:0:0:0:
256,71,64093,1,0,1:0:0:0:
256,70,64179,2,0,L|272:158,1,90,2|0,1:2|1:0,0:0:0:0:
151,357,64522,2,0,P|134:316|135:271,1,90,10|0,0:0|0:0,0:0:0:0:
383,328,64865,6,0,P|318:272|235:294,1,180,0|8,1:0|0:0,0:0:0:0:
159,164,65379,1,0,1:0:0:0:
159,164,65465,1,0,1:0:0:0:
159,164,65550,1,0,1:0:0:0:
350,207,65722,1,0,1:0:0:0:
302,0,65893,2,0,P|287:42|280:86,1,90,10|0,0:0|0:0,0:0:0:0:
445,89,66236,5,0,1:0:0:0:
257,178,66408,1,0,1:0:0:0:
435,294,66579,1,8,0:0:0:0:
354,114,66750,1,2,1:2:0:0:
354,114,66836,1,2,1:2:0:0:
354,114,66922,1,2,1:2:0:0:
247,271,67093,6,0,P|223:274|201:280,1,45,8|8,0:0|0:0,0:0:0:0:
399,193,67265,2,0,P|421:196|443:201,1,45,8|8,0:0|0:0,0:0:0:0:
338,355,67436,2,0,L|345:310,1,45,8|8,0:0|0:0,0:0:0:0:
273,105,67608,6,0,P|264:149|257:193,1,90,6|0,1:2|0:0,0:0:0:0:
120,355,67950,2,0,P|112:310|103:266,1,90,8|2,0:0|1:2,0:0:0:0:
120,181,68208,1,2,1:2:0:0:
120,181,68293,2,0,P|77:186|32:203,1,90,2|0,1:2|0:0,0:0:0:0:
214,268,68636,1,10,0:0:0:0:
146,86,68808,6,0,P|223:45|307:70,1,180,2|2,0:0|0:0,0:0:0:0:
431,56,69322,1,8,0:0:0:0:
374,239,69493,1,10,0:0:0:0:
374,239,69579,1,8,0:0:0:0:
374,239,69665,1,0,1:0:0:0:
202,158,69836,1,10,0:0:0:0:
202,158,69922,1,8,0:0:0:0:
202,158,70008,1,8,0:0:0:0:
450,133,70179,6,0,P|383:134|317:147,1,135,14|0,0:0|0:0,0:0:0:0:
282,159,70522,1,2,1:2:0:0:
141,44,70693,2,0,P|184:33|229:27,1,90,10|10,0:0|1:2,0:0:0:0:
274,22,70950,1,10,0:0:0:0:
274,22,71036,1,10,0:0:0:0:
201,198,71208,2,0,P|195:176|193:153,1,45,8|8,0:3|0:3,0:0:0:0:
356,236,71379,2,0,P|353:258|348:280,1,45,4|4,0:3|0:3,0:0:0:0:
248,364,71550,6,0,P|253:296|270:231,1,135,6|0,1:2|0:0,0:0:0:0:
290,202,71893,1,2,1:2:0:0:
115,105,72065,2,0,P|182:65|257:90,1,161.999995056153,10|8,0:0|0:0,0:0:0:0:
269,113,72408,2,0,L|108:127,1,161.999995056153,2|0,1:2|0:0,0:0:0:0:
0,260,72750,2,0,L|44:266,1,45,8|8,0:0|0:0,0:0:0:0:
203,206,72922,2,0,L|159:200,1,45,8|8,0:0|0:0,0:0:0:0:
133,384,73093,6,0,P|220:365|310:357,1,180,6|10,1:2|0:0,0:0:0:0:
396,167,73608,1,2,1:2:0:0:
396,167,73693,1,2,1:2:0:0:
396,167,73779,1,2,1:2:0:0:
227,284,73950,1,2,1:2:0:0:
424,368,74122,1,10,0:0:0:0:
288,174,74293,1,2,0:0:0:0:
310,356,74465,6,0,P|315:311|327:268,1,90,2|0,1:2|1:0,0:0:0:0:
207,108,74808,2,0,P|195:151|189:195,1,90,10|0,0:0|0:0,0:0:0:0:
188,229,75065,1,0,1:0:0:0:
188,229,75150,1,2,1:2:0:0:
330,107,75322,1,0,1:0:0:0:
245,309,75493,2,0,P|201:311|156:318,1,90,10|0,0:0|0:0,0:0:0:0:
2,166,75836,6,0,P|68:110|152:133,1,180,0|8,1:0|0:0,0:0:0:0:
257,275,76350,1,0,1:0:0:0:
257,275,76436,1,0,1:0:0:0:
257,275,76522,1,0,1:0:0:0:
89,198,76693,1,0,1:0:0:0:
323,161,76865,2,0,P|278:165|234:174,1,90,10|0,0:0|0:0,0:0:0:0:
131,276,77208,5,0,1:0:0:0:
253,55,77379,1,8,0:0:0:0:
313,252,77550,1,0,1:0:0:0:
100,121,77722,1,2,1:2:0:0:
100,121,77808,1,2,1:2:0:0:
100,121,77893,1,10,0:0:0:0:
39,282,78065,6,0,P|44:260|52:238,1,45,8|8,0:3|0:3,0:0:0:0:
234,173,78236,2,0,P|226:194|220:216,1,45,8|8,0:3|0:3,0:0:0:0:
131,367,78408,2,0,P|152:361|174:359,1,45,4|4,0:3|0:3,0:0:0:0:
320,361,78579,5,12,0:0:0:0:
123,223,78750,1,2,1:2:0:0:
347,122,78922,1,0,1:0:0:0:
245,306,79093,2,0,B|244:252|220:217|220:217|262:225|302:198,1,180,10|2,0:0|0:0,0:0:0:0:
232,106,79608,5,10,0:0:0:0:
383,282,79779,1,2,1:2:0:0:
445,101,79950,1,0,1:0:0:0:
246,14,80122,2,0,P|259:102|268:192,1,180,10|0,0:0|1:0,0:0:0:0:
274,232,80522,2,0,L|263:260,2,30,0|0|12,1:0|1:0|0:0,0:0:0:0:
361,97,80808,1,2,1:2:0:0:
157,136,80979,1,8,0:0:0:0:
200,345,81150,6,0,B|251:336|251:336|328:350|328:350|378:342,1,180,6|2,1:2|1:2,0:0:0:0:
389,175,81665,1,10,0:0:0:0:
490,302,81836,1,2,1:2:0:0:
490,302,81922,1,2,1:2:0:0:
490,302,82008,1,2,1:2:0:0:
301,232,82179,1,0,1:0:0:0:
462,114,82350,1,8,0:0:0:0:
377,342,82522,6,0,P|310:333|243:329,1,135,6|0,1:2|0:0,0:0:0:0:
204,326,82865,1,10,0:0:0:0:
68,159,83036,2,0,P|112:151|157:146,1,90,10|2,0:0|1:2,0:0:0:0:
319,42,83379,1,10,0:0:0:0:
354,68,83465,1,8,0:0:0:0:
371,110,83550,1,8,0:0:0:0:
364,154,83636,1,8,0:0:0:0:
336,188,83722,6,0,P|313:185|291:183,1,45,10|8,0:0|0:0,0:0:0:0:
154,63,83893,2,0,P|176:60|198:58,1,45,10|10,0:0|0:0,0:0:0:0:
158,229,84065,6,0,B|132:269|133:305|133:305|91:274|42:276,1,180,6|8,1:2|0:0,0:0:0:0:
11,122,84579,1,0,1:0:0:0:
11,122,84665,1,0,1:0:0:0:
11,122,84750,2,0,L|99:137,1,90,0|0,1:0|1:0,0:0:0:0:
281,145,85093,1,8,0:0:0:0:
192,349,85265,6,0,P|184:259|173:170,1,180,0|0,1:0|1:0,0:0:0:0:
293,49,85779,1,8,0:0:0:0:
363,195,85950,1,0,1:0:0:0:
363,195,86036,1,0,1:0:0:0:
362,195,86122,2,0,P|317:186|273:181,1,90,0|0,1:0|1:0,0:0:0:0:
87,284,86465,2,0,P|131:275|175:270,1,90,8|0,0:0|1:0,0:0:0:0:
213,92,86808,5,2,1:2:0:0:
314,278,86979,1,2,0:0:0:0:
358,105,87150,1,8,0:0:0:0:
165,182,87322,1,2,1:2:0:0:
165,182,87408,1,0,1:0:0:0:
165,182,87493,1,0,1:0:0:0:
259,357,87665,1,2,1:2:0:0:
373,196,87836,1,10,0:0:0:0:
132,95,88008,6,0,P|74:160|96:243,1,180,2|2,1:2|1:2,0:0:0:0:
275,141,88522,1,10,0:0:0:0:
190,323,88693,1,10,0:0:0:0:
165,182,88865,1,2,0:0:0:0:
331,311,89036,1,10,0:0:0:0:
331,311,89122,1,10,0:0:0:0:
331,311,89208,1,10,0:0:0:0:
425,111,89379,2,0,L|380:106,1,45,10|10,0:0|0:0,0:0:0:0:
275,141,89550,6,0,P|366:127|453:116,1,180,6|8,1:2|0:0,0:0:0:0:
182,34,90065,1,0,1:0:0:0:
182,34,90150,1,0,1:0:0:0:
182,34,90236,2,0,P|174:79|168:122,1,90,0|0,1:0|1:0,0:0:0:0:
355,159,90579,1,10,0:0:0:0:
207,300,90750,6,0,B|198:271|173:254|173:254|54:280,1,180,6|0,1:2|1:0,0:0:0:0:
6,160,91265,1,8,0:0:0:0:
68,47,91436,1,2,1:2:0:0:
68,47,91522,1,2,1:2:0:0:
68,47,91608,2,0,L|158:55,1,90,2|2,1:2|1:2,0:0:0:0:
274,185,91950,1,10,0:0:0:0:
274,185,92036,1,10,0:0:0:0:
274,184,92122,2,0,P|251:186|229:191,1,45,10|10,1:2|0:0,0:0:0:0:
54,279,92293,5,6,1:2:0:0:
168,132,92465,1,10,0:0:0:0:
168,132,92550,1,10,0:0:0:0:
168,132,92636,1,10,0:0:0:0:
216,344,92808,1,6,1:2:0:0:
39,192,92979,6,0,P|61:193|83:198,1,45,8|0,1:2|1:0,0:0:0:0:
288,259,93150,2,0,P|266:264|244:266,1,45,2|0,1:2|1:0,0:0:0:0:
108,367,93322,2,0,L|121:278,1,90,10|2,1:2|1:2,0:0:0:0:
365,192,93665,6,0,P|312:177|259:170,1,107.999996704102,14|0,0:0|0:0,0:0:0:0:
252,84,93922,2,0,P|305:91|357:104,1,107.999996704102,10|0,0:0|0:0,0:0:0:0:
431,54,94179,1,10,0:0:0:0:
439,251,94350,6,0,P|391:276|338:274,1,107.999996704102,14|0,1:2|0:0,0:0:0:0:
286,357,94608,2,0,P|238:331|185:334,1,107.999996704102,10|0,1:2|0:0,0:0:0:0:
108,289,94865,1,10,1:2:0:0:
108,289,95379,6,0,P|78:290|42:299,1,67.5000025749208,6|2,1:2|0:0,0:0:0:0:
41,167,95721,2,0,P|74:168|107:177,1,67.5000025749208,0|2,1:0|0:0,0:0:0:0:
230,244,96064,1,2,1:2:0:0:
230,244,96236,1,0,0:0:0:0:
224,36,96407,6,0,P|183:87|187:153,1,135.000005149842,2|0,1:2|1:0,0:0:0:0:
313,310,96921,1,2,0:0:0:0:
313,309,97093,2,0,L|323:242,1,67.5000025749208,2|0,1:2|1:0,0:0:0:0:
329,208,97350,1,0,1:0:0:0:
329,208,97436,5,2,1:2:0:0:
220,274,97607,1,2,0:0:0:0:
272,113,97779,1,10,0:0:0:0:
120,187,97950,1,2,0:0:0:0:
294,304,98121,6,0,P|226:310|160:323,1,135.000005149842,2|0,1:2|1:0,0:0:0:0:
4,246,98636,2,0,L|70:257,1,67.5000025749208,2|0,0:0|1:0,0:0:0:0:
186,122,98979,2,0,P|197:153|203:186,1,67.5000025749208,2|0,0:0|1:0,0:0:0:0:
245,355,99321,1,2,0:0:0:0:
245,355,99493,6,0,P|250:321|262:290,1,67.5000025749208,0|2,1:0|0:0,0:0:0:0:
423,169,99836,2,0,L|356:180,1,67.5000025749208,0|2,1:0|1:2,0:0:0:0:
321,190,100093,1,2,1:2:0:0:
321,190,100179,1,2,1:2:0:0:
398,304,100350,1,2,1:2:0:0:
398,304,100436,1,2,1:2:0:0:
398,304,100521,1,10,1:2:0:0:
246,184,100693,1,2,0:0:0:0:
158,348,100864,6,0,P|92:338|22:334,1,135.000005149842,6|0,1:2|1:0,0:0:0:0:
0,206,101379,1,2,0:0:0:0:
0,206,101550,2,0,L|66:197,1,67.5000025749208,0|0,1:0|0:0,0:0:0:0:
208,233,101893,6,0,P|235:172|223:107,1,135.000005149842,2|0,1:2|1:0,0:0:0:0:
98,16,102407,1,2,0:0:0:0:
149,156,102579,1,2,1:2:0:0:
269,32,102750,1,2,1:2:0:0:
269,32,102836,1,2,1:2:0:0:
269,32,102921,1,2,1:2:0:0:
154,76,103093,1,0,0:0:0:0:
303,145,103264,1,10,0:0:0:0:
163,306,103607,6,0,P|225:285|284:315,1,135.000005149842,2|0,1:2|1:0,0:0:0:0:
436,354,104121,1,2,0:0:0:0:
436,354,104293,2,0,P|434:320|429:286,1,67.5000025749208,2|2,1:2|0:0,0:0:0:0:
399,149,104636,1,10,0:0:0:0:
364,125,104721,1,8,0:0:0:0:
324,121,104807,1,8,0:0:0:0:
284,133,104893,1,8,0:0:0:0:
260,165,104979,1,0,0:0:0:0:
285,316,105150,5,2,0:0:0:0:
144,284,105321,1,2,0:0:0:0:
330,225,105493,1,2,0:0:0:0:
126,96,105921,6,0,L|148:91,1,22.5000008583069,0|0,1:0|1:0,0:0:0:0:
211,342,106350,6,0,P|221:275|232:208,1,135,6|0,1:2|0:0,0:0:0:0:
239,175,106693,1,8,0:0:0:0:
70,237,106864,1,2,1:2:0:0:
70,237,106950,1,2,1:2:0:0:
70,237,107036,1,2,1:2:0:0:
123,107,107207,1,0,1:0:0:0:
181,300,107379,1,2,0:0:0:0:
331,173,107550,6,0,B|392:174|438:139|438:139|428:172|441:204,1,180,10|2,0:0|1:2,0:0:0:0:
379,357,108064,1,10,0:0:0:0:
254,237,108236,1,2,0:0:0:0:
360,80,108407,1,2,1:2:0:0:
359,253,108579,1,2,1:2:0:0:
168,207,108750,1,10,0:0:0:0:
326,157,108921,1,2,0:0:0:0:
264,355,109093,6,0,P|176:338|86:330,1,180,2|8,1:2|0:0,0:0:0:0:
254,207,109607,1,2,1:2:0:0:
254,207,109693,1,2,1:2:0:0:
254,207,109779,1,2,1:2:0:0:
101,125,109950,1,2,1:2:0:0:
170,288,110121,1,2,0:0:0:0:
348,146,110293,6,0,B|345:112|321:92|321:92|204:114,1,180,8|0,0:0|1:0,0:0:0:0:
48,221,110807,1,8,0:0:0:0:
81,37,110979,1,2,1:2:0:0:
81,37,111064,1,2,1:2:0:0:
81,37,111150,2,0,P|93:80|101:127,1,90,2|2,1:2|1:2,0:0:0:0:
122,324,111493,1,10,0:0:0:0:
276,192,111664,1,8,0:0:0:0:
276,192,111750,1,8,0:0:0:0:
276,192,111836,5,10,0:0:0:0:
72,218,112007,2,0,P|51:209|28:208,2,45,8|8|8,0:0|0:0|0:0,0:0:0:0:
281,338,112350,1,10,0:0:0:0:
207,106,112521,2,0,P|195:172|185:239,1,135,8|0,0:0|0:0,0:0:0:0:
193,325,112864,6,0,P|280:306|370:298,1,180,12|0,0:0|0:0,0:0:0:0:
421,171,113379,1,2,1:2:0:0:
471,324,113550,2,0,L|481:265,2,60,8|8|8,0:0|0:0|0:0,0:0:0:0:
361,357,113893,2,0,L|371:298,2,60,8|8|8,0:3|0:3|0:3,0:0:0:0:
282,228,114236,2,0,P|238:237|193:242,1,90,14|2,0:0|0:0,0:0:0:0:
73,103,114579,6,0,P|135:42|219:61,1,180,6|2,1:2|1:2,0:0:0:0:
407,106,115093,2,0,P|317:94|228:88,1,180,10|2,0:0|1:2,0:0:0:0:
58,204,115607,2,0,B|82:231|87:266|87:266|131:239|193:241,1,180,14|0,0:0|1:0,0:0:0:0:
310,177,116121,5,0,1:0:0:0:
248,325,116293,1,8,0:0:0:0:
174,162,116464,1,8,0:0:0:0:
371,260,116636,1,8,0:3:0:0:
327,54,116807,1,4,0:3:0:0:
242,231,116979,1,10,0:0:0:0:
509,146,117321,6,0,B|407:125|407:125|386:146|392:180,1,161.999995056153,6|0,1:2|0:0,0:0:0:0:
458,310,117836,1,2,1:2:0:0:
458,310,118007,2,0,P|379:294|299:283,1,161.999995056153,10|0,0:0|0:0,0:0:0:0:
171,99,118693,2,0,P|211:102|251:110,1,80.9999975280763,0|10,1:0|0:0,0:0:0:0:
368,191,119036,2,0,P|411:125|394:48,2,161.999995056153,2|10|2,1:2|0:0|1:2,0:0:0:0:
240,215,119893,1,2,1:2:0:0:
283,354,120064,6,0,P|274:273|266:192,1,161.999995056153,2|0,1:2|1:0,0:0:0:0:
33,329,120750,2,0,P|99:285|177:298,1,161.999995056153,10|0,0:0|0:0,0:0:0:0:
266,192,121264,1,10,0:0:0:0:
266,192,121436,2,0,P|228:182|187:178,1,80.9999975280763,0|10,1:0|0:0,0:0:0:0:
274,59,121779,2,0,P|314:54|353:44,1,80.9999975280763,2|0,1:2|0:0,0:0:0:0:
477,121,122121,2,0,P|496:178|488:238,1,121.499996292114,10|8,0:0|0:0,0:0:0:0:
471,275,122464,1,6,1:2:0:0:
367,185,122636,1,10,0:0:0:0:
272,359,122807,6,0,P|273:318|278:278,1,80.9999975280763,6|0,1:2|0:0,0:0:0:0:
360,104,123150,2,0,P|365:144|366:184,1,80.9999975280763,2|0,1:2|0:0,0:0:0:0:
289,293,123493,2,0,P|214:282|126:279,1,161.999995056153,10|2,0:0|0:0,0:0:0:0:
249,141,124007,1,8,0:0:0:0:
249,141,124179,6,0,P|209:143|169:150,1,80.9999975280763,0|8,1:0|0:0,0:0:0:0:
49,36,124521,2,0,P|89:38|129:45,1,80.9999975280763,2|0,1:2|0:0,0:0:0:0:
317,74,124864,2,0,P|300:136|289:237,1,161.999995056153,10|2,0:0|1:2,0:0:0:0:
171,377,125379,1,8,0:0:0:0:
171,377,125464,1,8,0:0:0:0:
170,376,125550,6,0,P|127:309|153:235,1,161.999995056153,4|2,1:2|1:2,0:0:0:0:
347,62,126236,2,0,P|308:65|264:71,1,80.9999975280763,10|0,0:0|0:0,0:0:0:0:
164,146,126579,2,0,P|123:142|83:136,1,80.9999975280763,2|8,0:0|0:0,0:0:0:0:
34,299,126921,5,2,1:2:0:0:
34,299,127093,2,0,P|98:254|174:273,1,161.999995056153,8|0,0:0|0:0,0:0:0:0:
273,361,127607,1,10,0:0:0:0:
239,141,127779,1,8,0:0:0:0:
398,270,127950,1,10,0:0:0:0:
174,273,128121,1,8,0:0:0:0:
303,229,128293,5,2,0:0:0:0:
256,192,128379,12,0,130007,0:0:0:0:
72,268,130350,5,8,0:0:0:0:
226,145,130521,1,8,0:3:0:0:
235,344,130693,1,4,0:3:0:0:
394,228,130864,6,0,P|326:232|259:242,1,135,6|8,1:2|0:0,0:0:0:0:
129,110,131207,5,8,0:0:0:0:
156,75,131293,1,8,0:0:0:0:
195,54,131379,1,8,1:2:0:0:
240,52,131464,1,8,0:0:0:0:
281,69,131550,1,8,0:0:0:0:
315,103,131636,1,8,0:0:0:0:
323,147,131721,6,0,L|314:192,1,45,10|8,1:2|0:0,0:0:0:0:
164,259,131893,2,0,P|141:261|119:265,1,45,10|10,0:0|0:0,0:0:0:0:
302,362,132064,2,0,L|293:317,1,45,10|10,1:2|0:0,0:0:0:0:
221,137,132236,2,0,P|217:159|215:181,1,45,10|10,0:0|0:0,0:0:0:0:
40,288,132407,6,0,P|129:287|217:308,1,180,6|10,1:2|0:0,0:0:0:0:
405,200,132921,1,2,1:2:0:0:
405,200,133007,1,2,1:2:0:0:
405,200,133093,1,2,1:2:0:0:
257,242,133264,1,2,1:2:0:0:
336,383,133436,1,10,0:0:0:0:
297,159,133607,1,2,0:0:0:0:
87,281,133779,6,0,P|133:272|177:269,1,90,2|0,1:2|1:0,0:0:0:0:
354,83,134121,2,0,P|309:74|264:71,1,90,10|0,0:0|0:0,0:0:0:0:
226,69,134379,1,0,1:0:0:0:
226,68,134464,2,0,P|209:110|203:155,1,90,2|0,1:2|1:0,0:0:0:0:
410,256,134807,2,0,P|365:247|321:244,1,90,10|0,0:0|0:0,0:0:0:0:
109,107,135150,6,0,P|179:54|265:71,1,180,0|8,1:0|0:0,0:0:0:0:
403,169,135664,1,0,1:0:0:0:
403,169,135750,1,0,1:0:0:0:
403,169,135836,1,0,1:0:0:0:
226,231,136007,1,0,1:0:0:0:
336,366,136179,2,0,P|343:321|347:276,1,90,10|0,0:0|0:0,0:0:0:0:
280,137,136521,5,0,1:0:0:0:
172,322,136693,1,0,1:0:0:0:
309,213,136864,1,8,0:0:0:0:
102,142,137036,1,2,1:2:0:0:
102,142,137121,1,2,1:2:0:0:
102,142,137207,1,2,1:2:0:0:
41,360,137379,6,0,P|63:356|85:356,1,45,8|8,0:0|0:0,0:0:0:0:
216,220,137550,2,0,P|193:219|171:216,1,45,8|8,0:0|0:0,0:0:0:0:
28,196,137721,2,0,P|30:218|34:240,1,45,8|8,0:0|0:0,0:0:0:0:
189,353,137893,6,0,P|234:345|280:341,1,90,4|0,1:2|0:0,0:0:0:0:
347,118,138236,2,0,P|302:122|257:129,1,90,8|2,0:0|1:2,0:0:0:0:
225,136,138493,1,2,1:2:0:0:
225,136,138579,1,2,1:2:0:0:
355,241,138750,1,2,0:0:0:0:
136,189,138921,1,10,0:0:0:0:
313,18,139093,6,0,P|302:107|293:196,1,180,2|2,0:0|0:0,0:0:0:0:
153,107,139607,1,8,0:0:0:0:
247,281,139779,1,10,0:0:0:0:
247,281,139864,1,8,0:0:0:0:
247,281,139950,1,0,1:0:0:0:
222,51,140121,1,10,0:0:0:0:
222,51,140207,1,8,0:0:0:0:
222,51,140293,1,8,0:0:0:0:
19,200,140464,6,0,P|85:189|153:183,1,135,14|0,0:0|0:0,0:0:0:0:
188,179,140807,1,2,1:2:0:0:
330,346,140979,2,0,P|285:339|240:337,1,90,10|10,0:0|1:2,0:0:0:0:
207,336,141236,1,10,0:0:0:0:
207,336,141321,1,10,0:0:0:0:
426,232,141493,2,0,P|404:234|382:240,1,45,8|8,0:3|0:3,0:0:0:0:
263,115,141664,2,0,P|284:108|307:106,1,45,4|4,0:3|0:3,0:0:0:0:
512,141,141836,6,0,P|444:145|377:158,1,135,6|0,1:2|0:0,0:0:0:0:
345,171,142179,1,2,1:2:0:0:
183,318,142350,2,0,L|192:228,1,90,10|2,0:0|1:2,0:0:0:0:
195,201,142607,1,2,1:2:0:0:
195,201,142693,1,2,1:2:0:0:
309,359,142864,1,0,1:0:0:0:
345,171,143036,2,0,L|339:215,1,45,8|8,0:0|0:0,0:0:0:0:
471,309,143207,2,0,L|465:264,1,45,8|8,0:0|0:0,0:0:0:0:
424,86,143379,6,0,B|412:53|382:33|382:33|335:66|275:55,1,180,6|10,1:2|0:0,0:0:0:0:
117,130,143893,1,2,1:2:0:0:
117,130,143979,1,2,1:2:0:0:
117,130,144064,1,2,1:2:0:0:
262,195,144236,1,2,1:2:0:0:
188,2,144407,1,10,0:0:0:0:
25,141,144579,1,2,0:0:0:0:
285,104,144750,6,0,P|241:95|197:91,1,90,2|0,1:2|1:0,0:0:0:0:
0,241,145093,2,0,P|44:244|88:253,1,90,10|0,0:0|0:0,0:0:0:0:
127,265,145350,1,0,1:0:0:0:
127,264,145436,2,0,P|137:307|139:352,1,90,2|0,1:2|1:0,0:0:0:0:
356,203,145779,2,0,P|312:206|268:215,1,90,10|0,0:0|0:0,0:0:0:0:
43,170,146121,6,0,P|25:86|79:18,1,180,0|8,1:0|0:0,0:0:0:0:
235,35,146636,1,0,1:0:0:0:
235,35,146721,1,0,1:0:0:0:
235,35,146807,2,0,L|220:123,1,90,0|0,1:0|1:0,0:0:0:0:
359,322,147150,2,0,L|373:234,1,90,10|0,0:0|0:0,0:0:0:0:
322,124,147493,5,0,1:0:0:0:
239,279,147664,1,8,0:0:0:0:
131,170,147836,1,0,1:0:0:0:
186,361,148007,1,2,1:2:0:0:
186,361,148093,1,2,1:2:0:0:
186,361,148179,1,10,0:0:0:0:
28,284,148350,6,0,P|49:277|72:275,1,45,8|8,0:3|0:3,0:0:0:0:
275,194,148521,2,0,P|253:188|231:186,1,45,8|8,0:3|0:3,0:0:0:0:
80,54,148693,2,0,P|82:76|88:97,1,45,4|4,0:3|0:3,0:0:0:0:
158,242,148864,5,12,0:0:0:0:
259,83,149036,1,2,1:2:0:0:
54,178,149207,1,0,1:0:0:0:
191,348,149379,2,0,P|197:258|208:168,1,180,10|2,0:0|0:0,0:0:0:0:
360,72,149893,5,10,0:0:0:0:
278,238,150064,1,2,1:2:0:0:
447,302,150236,1,0,1:0:0:0:
180,218,150407,2,0,P|269:204|358:194,1,180,10|0,0:0|1:0,0:0:0:0:
394,196,150807,2,0,L|404:229,2,30,0|0|12,1:0|1:0|0:0,0:0:0:0:
217,101,151093,1,2,1:2:0:0:
408,23,151264,1,8,0:0:0:0:
266,203,151436,6,0,B|221:216|207:242|207:242|171:197|113:196,1,180,6|2,1:2|1:2,0:0:0:0:
38,99,151950,1,10,0:0:0:0:
119,306,152121,1,2,1:2:0:0:
119,306,152207,1,2,1:2:0:0:
119,306,152293,1,2,1:2:0:0:
183,113,152464,1,0,1:0:0:0:
0,241,152636,1,8,0:0:0:0:
224,365,152807,6,0,P|216:297|208:230,1,135,6|0,1:2|0:0,0:0:0:0:
200,196,153150,1,10,0:0:0:0:
37,321,153321,1,10,0:0:0:0:
84,116,153493,1,2,1:2:0:0:
160,310,153664,2,0,P|181:314|203:322,1,45,10|8,0:0|0:0,0:0:0:0:
326,184,153836,2,0,P|305:177|283:172,1,45,8|8,0:0|0:0,0:0:0:0:
335,342,154007,2,0,L|326:297,1,45,10|8,0:0|0:0,0:0:0:0:
426,142,154179,2,0,L|434:186,1,45,10|10,0:0|0:0,0:0:0:0:
469,308,154350,6,0,P|473:207|481:110,1,198.000006042481,6|0,1:2|1:0,0:0:0:0:
278,41,154864,2,0,B|312:64|346:63|346:63|309:127|326:186,1,198.000006042481,14|0,0:0|0:0,0:0:0:0:
146,294,155379,2,0,B|169:267|243:275|243:275|204:242|203:191,1,198.000006042481,10|0,0:0|1:0,0:0:0:0:
35,57,155893,1,14,0:0:0:0:
93,216,156064,1,0,1:0:0:0:
239,116,156236,1,8,0:0:0:0:
239,116,156321,1,8,0:0:0:0:
239,116,156407,1,2,1:2:0:0:
145,292,156579,6,0,P|120:294|97:302,1,49.5000015106202,8|8,0:0|0:0,0:0:0:0:
129,84,156750,2,0,P|134:108|137:132,1,49.5000015106202,8|8,0:3|0:3,0:0:0:0:
306,219,156921,2,0,P|281:213|257:211,1,49.5000015106202,4|4,0:3|0:3,0:0:0:0:
5,232,157093,6,0,P|48:220|93:215,1,90,12|0,0:0|0:0,0:0:0:0:
262,312,157436,1,10,0:0:0:0:
226,87,157607,1,10,0:0:0:0:
414,138,157779,1,10,0:0:0:0:
187,249,157950,1,10,0:0:0:0:
383,370,158121,1,10,0:0:0:0:
313,133,158293,1,10,0:0:0:0:
107,300,158464,6,0,P|53:307|1:320,1,107.999996704102,14|0,0:0|0:0,0:0:0:0:
0,196,158721,2,0,P|52:209|105:215,1,107.999996704102,10|0,0:0|0:0,0:0:0:0:
169,129,158979,1,10,0:0:0:0:
307,310,159150,1,8,0:3:0:0:
340,284,159236,1,8,0:3:0:0:
356,244,159321,1,4,0:3:0:0:
352,200,159407,1,4,0:3:0:0:
328,164,159493,1,8,0:0:0:0:
237,9,159664,5,10,0:0:0:0:
237,9,159750,1,10,0:0:0:0:
237,8,159836,2,0,L|248:143,1,135,6|0,1:2|1:0,0:0:0:0:
252,183,160179,1,2,0:0:0:0:
42,122,160350,1,0,1:0:0:0:
120,327,160521,2,0,L|130:192,1,135,8|0,0:0|0:0,0:0:0:0:
133,155,160864,1,2,0:0:0:0:
360,284,161036,5,8,0:0:0:0:
360,284,161121,1,8,0:0:0:0:
360,284,161207,2,0,B|354:258|338:247|338:247|248:261,1,135,0|0,1:0|1:0,0:0:0:0:
211,270,161550,1,2,0:0:0:0:
391,127,161721,1,0,1:0:0:0:
391,127,161807,1,0,1:0:0:0:
391,127,161893,1,10,0:0:0:0:
216,37,162064,2,0,L|169:46,2,45,2|0|8,1:2|1:0|0:0,0:0:0:0:
335,202,162407,1,0,1:0:0:0:
103,161,162579,6,0,B|119:132|141:120|141:120|291:143,1,198.000006042481,14|0,0:0|1:0,0:0:0:0:
487,262,163093,2,0,L|387:276,1,99.0000030212403,14|0,0:0|1:0,0:0:0:0:
335,202,163350,2,0,L|432:188,1,99.0000030212403,8|0,0:0|0:0,0:0:0:0:
475,115,163607,1,6,1:2:0:0:
343,339,163779,1,8,0:0:0:0:
343,339,163864,1,8,0:0:0:0:
343,339,163950,1,8,0:0:0:0:
211,140,164121,5,6,1:2:0:0:
388,275,164293,1,8,0:0:0:0:
330,50,164464,1,0,1:0:0:0:
122,223,164636,5,8,0:3:0:0:
122,223,164721,1,8,0:3:0:0:
121,223,164807,2,0,P|146:217|170:216,1,49.5000015106202,4|4,0:3|0:3,0:0:0:0:
373,143,164979,1,8,0:0:0:0:
373,143,165064,1,8,0:0:0:0:
373,143,165150,2,0,P|348:137|324:136,1,49.5000015106202,8|8,0:0|0:0,0:0:0:0:
278,312,165321,6,0,P|273:267|266:222,1,90,6|0,1:2|0:0,0:0:0:0:
216,29,165664,1,10,0:0:0:0:
169,215,165836,1,2,1:2:0:0:
169,215,165921,1,2,1:2:0:0:
169,215,166007,1,2,1:2:0:0:
85,105,166179,1,2,0:0:0:0:
151,321,166350,1,10,0:0:0:0:
310,176,166521,6,0,P|223:184|130:192,1,180,6|0,0:0|0:0,0:0:0:0:
0,361,167036,2,0,P|44:363|89:368,1,90,10|2,0:0|0:0,0:0:0:0:
280,258,167379,1,0,1:0:0:0:
280,258,167464,1,8,0:0:0:0:
280,258,167550,2,0,L|231:263,1,45,0|0,1:0|0:0,0:0:0:0:
51,281,167721,1,8,0:0:0:0:
107,71,167893,2,0,L|115:116,1,45,2|2,0:0|0:0,0:0:0:0:
140,244,168064,5,6,3:2:0:0:
144,257,168150,1,0,3:0:0:0:
148,270,168236,1,0,3:0:0:0:
151,283,168321,1,0,3:0:0:0:
157,308,168407,5,2,3:2:0:0:
198,291,168493,1,0,3:0:0:0:
223,255,168579,1,0,3:0:0:0:
225,211,168664,1,0,3:0:0:0:
203,172,168750,5,2,3:2:0:0:
176,137,168836,1,0,3:0:0:0:
169,93,168921,1,0,3:0:0:0:
183,51,169007,1,0,3:0:0:0:
215,20,169093,5,2,3:2:0:0:
258,8,169179,1,0,3:0:0:0:
302,17,169264,1,0,3:0:0:0:
336,46,169350,1,0,3:0:0:0:
344,92,169436,5,0,3:0:0:0:
120,224,169607,1,2,0:0:0:0:
263,100,169779,1,8,0:0:0:0:
308,280,169950,1,2,1:2:0:0:
308,280,170036,1,2,1:2:0:0:
308,280,170121,1,2,1:2:0:0:
23,221,170293,5,8,0:0:0:0:
31,183,170379,1,8,0:0:0:0:
56,151,170464,1,8,0:0:0:0:
90,131,170550,1,8,0:0:0:0:
128,127,170636,1,8,0:0:0:0:
167,138,170721,1,8,0:0:0:0:
197,162,170807,5,6,1:2:0:0:
217,342,170979,1,10,0:0:0:0:
217,342,171064,1,10,0:0:0:0:
217,342,171150,2,0,L|226:296,1,45,10|10,0:0|0:0,0:0:0:0:
271,125,171321,1,10,0:0:0:0:
271,125,171664,5,2,1:2:0:0:
454,212,171836,1,10,0:0:0:0:
454,212,171921,1,10,0:0:0:0:
453,212,172007,2,0,P|409:216|359:225,1,90,14|0,0:0|1:0,0:0:0:0:
219,272,172350,5,10,0:0:0:0:
380,122,172521,1,2,1:2:0:0:
194,33,172693,1,8,0:3:0:0:
286,200,172864,1,4,0:3:0:0:
100,114,173036,1,4,0:3:0:0:
100,114,173121,1,4,0:3:0:0:
100,114,173207,2,0,P|144:118|189:125,1,90,4|0,0:3|0:0,0:0:0:0:
330,278,173550,5,14,1:2:0:0:
360,254,173636,1,0,1:0:0:0:
376,217,173721,1,8,0:3:0:0:
373,177,173807,1,8,0:3:0:0:
351,143,173893,1,4,0:3:0:0:
123,204,174064,5,14,1:2:0:0:
129,244,174150,1,0,1:0:0:0:
134,284,174236,1,8,0:3:0:0:
140,324,174321,1,8,0:3:0:0:
144,364,174407,1,4,0:3:0:0:
278,113,174579,5,10,0:0:0:0:
278,113,174664,1,10,0:0:0:0:
278,113,174750,2,0,P|233:117|188:124,1,90,14|2,0:0|1:2,0:0:0:0:
23,237,175093,1,14,0:0:0:0:
252,275,175264,1,2,1:2:0:0:
157,19,175436,2,0,P|146:109|139:199,1,180,14|10,0:0|0:0,0:0:0:0:
238,362,175950,1,10,0:0:0:0:
238,362,176293,6,0,P|205:354|171:352,1,67.5000025749208,6|0,1:2|0:0,0:0:0:0:
185,264,176636,2,0,P|218:266|251:274,1,67.5000025749208,0|0,1:0|0:0,0:0:0:0:
400,201,176979,2,0,P|366:203|333:211,1,67.5000025749208,0|0,1:0|0:0,0:0:0:0:
214,138,177321,2,0,P|201:73|240:20,2,135.000005149842,2|0|0,1:2|1:0|1:0,0:0:0:0:
315,344,178350,2,0,P|320:285|335:203,1,135.000005149842,2|8,1:2|1:2,0:0:0:0:
116,284,179036,6,0,P|120:250|125:217,1,67.5000025749208,2|0,1:2|0:0,0:0:0:0:
24,87,179379,2,0,P|57:80|90:76,1,67.5000025749208,0|0,1:0|0:0,0:0:0:0:
237,150,179721,2,0,P|203:143|170:139,1,67.5000025749208,0|0,1:0|0:0,0:0:0:0:
364,233,180064,2,0,P|297:242|231:257,2,135.000005149842,2|0|0,1:2|1:0|1:0,0:0:0:0:
512,100,181093,2,0,P|455:65|386:89,1,135.000005149842,2|8,1:2|1:2,0:0:0:0:
370,105,181521,1,8,0:0:0:0:
370,105,181607,1,8,0:0:0:0:
458,285,181779,6,0,P|457:220|446:149,1,135.000005149842,2|0,1:2|1:0,0:0:0:0:
288,54,182293,1,2,0:0:0:0:
288,53,182464,2,0,P|279:85|278:119,1,67.5000025749208,0|0,1:0|0:0,0:0:0:0:
151,238,182807,2,0,P|183:228|213:213,1,67.5000025749208,2|0,1:2|0:0,0:0:0:0:
382,264,183150,2,0,P|357:240|329:222,1,67.5000025749208,0|2,1:0|0:0,0:0:0:0:
96,178,183493,6,0,P|68:237|93:299,1,135.000005149842,0|2,1:0|1:2,0:0:0:0:
330,123,184179,1,10,1:2:0:0:
330,123,184521,6,0,P|265:126|196:131,1,135.000005149842,2|0,1:2|1:0,0:0:0:0:
66,51,185036,1,0,0:0:0:0:
66,51,185207,2,0,P|99:54|132:59,1,67.5000025749208,0|0,1:0|0:0,0:0:0:0:
222,218,185550,2,0,P|188:212|155:209,1,67.5000025749208,0|0,1:0|0:0,0:0:0:0:
0,347,185893,6,0,B|9:323|28:312|28:312|120:330,1,135.000005149842,2|0,1:2|1:0,0:0:0:0:
261,371,186407,1,8,0:0:0:0:
222,218,186579,1,8,0:3:0:0:
358,288,186750,1,8,0:3:0:0:
189,310,186921,1,4,0:3:0:0:
269,142,187093,1,4,1:2:0:0:
429,260,187264,6,0,P|371:251|293:244,1,135.000005149842,6|0,1:2|1:0,0:0:0:0:
126,147,187779,1,2,1:2:0:0:
126,147,187864,1,0,1:0:0:0:
126,147,187950,2,0,P|156:136|196:134,1,67.5000025749208,0|0,1:0|1:0,0:0:0:0:
380,171,188293,6,0,P|396:107|361:51,1,135.000005149842,2|0,1:2|1:0,0:0:0:0:
173,42,188807,2,0,P|139:44|107:55,1,67.5000025749208,2|0,0:0|1:0,0:0:0:0:
13,172,189150,1,0,1:0:0:0:
13,172,189236,1,0,1:0:0:0:
13,172,189321,2,0,P|16:205|23:238,1,67.5000025749208,2|0,1:2|0:0,0:0:0:0:
102,325,189664,1,10,0:0:0:0:
102,325,189836,1,2,0:0:0:0:
172,224,190007,6,0,P|235:205|290:242,1,135.000005149842,2|0,1:2|1:0,0:0:0:0:
463,260,190521,1,2,1:2:0:0:
463,260,190607,1,0,1:0:0:0:
463,260,190693,2,0,P|427:263|390:272,1,67.5000025749208,0|0,1:0|0:0,0:0:0:0:
366,149,191036,6,0,P|372:81|381:14,1,135.000005149842,2|0,1:2|1:0,0:0:0:0:
194,177,191550,2,0,P|226:169|260:167,1,67.5000025749208,2|0,0:0|1:0,0:0:0:0:
292,355,191893,1,0,1:0:0:0:
292,355,191979,1,0,1:0:0:0:
292,355,192064,2,0,P|296:321|302:288,1,67.5000025749208,2|0,1:2|0:0,0:0:0:0:
204,110,192407,2,0,P|197:143|193:176,1,67.5000025749208,10|0,0:0|0:0,0:0:0:0:
180,340,192750,6,0,P|112:327|42:320,1,135.000005149842,6|0,1:2|1:0,0:0:0:0:
10,204,193264,1,0,0:0:0:0:
203,110,193436,2,0,P|170:112|136:117,1,67.5000025749208,0|0,1:0|0:0,0:0:0:0:
106,227,193779,1,2,1:2:0:0:
279,184,193950,1,2,0:0:0:0:
189,308,194121,6,0,P|192:274|198:241,1,67.5000025749208,0|0,1:0|0:0,0:0:0:0:
295,95,194464,1,2,1:2:0:0:
373,210,194636,1,0,1:0:0:0:
373,210,194721,1,0,1:0:0:0:
373,210,194807,1,2,1:2:0:0:
202,146,194979,1,0,0:0:0:0:
434,103,195150,1,10,1:2:0:0:
434,103,195493,6,0,P|421:197|414:283,1,180,14|2,1:2|1:2,0:0:0:0:
278,241,196007,1,2,0:0:0:0:
338,373,196179,1,2,1:2:0:0:
389,172,196350,1,2,0:0:0:0:
176,237,196521,1,2,1:2:0:0:
266,83,196693,1,10,0:0:0:0:
333,295,196864,5,10,1:2:0:0:
83,240,197036,1,10,0:0:0:0:
297,163,197207,1,10,1:2:0:0:
210,369,197379,1,10,0:0:0:0:
102,124,197550,1,10,1:2:0:0:
381,139,197721,1,10,0:0:0:0:
191,274,197893,1,10,1:2:0:0:
241,22,198064,1,10,0:2:0:0:
241,22,198921,6,0,B|256:78|226:140|226:140|281:108|335:110,1,236.250009012223,2|0,0:0|0:0,0:0:0:0:
376,109,199607,6,0,P|286:99|196:91,1,180,6|10,1:2|0:0,0:0:0:0:
62,209,200121,1,2,1:2:0:0:
62,209,200207,1,2,1:2:0:0:
62,209,200293,1,2,1:2:0:0:
148,22,200464,1,2,1:2:0:0:
284,175,200636,1,10,0:0:0:0:
76,118,200807,1,2,0:0:0:0:
208,320,200979,6,0,L|215:230,1,90,2|0,1:2|1:0,0:0:0:0:
68,28,201321,2,0,L|76:118,1,90,10|0,0:0|0:0,0:0:0:0:
82,156,201579,1,0,1:0:0:0:
81,156,201664,2,0,P|124:145|169:139,1,90,2|0,1:2|1:0,0:0:0:0:
392,308,202007,2,0,P|349:297|304:291,1,90,10|0,0:0|0:0,0:0:0:0:
284,11,202350,6,0,P|270:99|261:189,1,180,0|8,1:0|0:0,0:0:0:0:
97,259,202864,1,0,1:0:0:0:
97,259,202950,1,0,1:0:0:0:
97,259,203036,1,0,1:0:0:0:
149,110,203207,1,0,1:0:0:0:
195,352,203379,2,0,P|200:307|212:263,1,90,10|0,0:0|0:0,0:0:0:0:
322,113,203721,5,0,1:0:0:0:
148,198,203893,1,0,1:0:0:0:
322,312,204064,1,10,0:0:0:0:
214,122,204236,1,2,1:2:0:0:
214,122,204321,1,2,1:2:0:0:
214,122,204407,1,2,1:2:0:0:
409,205,204579,6,0,P|386:205|364:210,1,45,8|8,0:0|0:0,0:0:0:0:
194,332,204750,2,0,P|216:332|238:337,1,45,8|8,0:0|0:0,0:0:0:0:
274,179,204921,2,0,P|279:201|280:224,1,45,8|8,0:0|0:0,0:0:0:0:
367,377,205093,6,0,P|372:332|383:288,1,90,6|0,1:2|0:0,0:0:0:0:
470,130,205436,2,0,P|425:125|381:113,1,90,8|2,0:0|1:2,0:0:0:0:
357,106,205693,1,2,1:2:0:0:
357,106,205779,1,2,1:2:0:0:
244,28,205950,1,2,0:0:0:0:
279,226,206121,1,10,0:0:0:0:
75,171,206293,6,0,P|142:115|225:139,1,180,2|2,0:0|0:0,0:0:0:0:
319,329,206807,1,8,0:0:0:0:
162,205,206979,1,10,0:0:0:0:
162,205,207064,1,8,0:0:0:0:
162,205,207150,1,0,1:0:0:0:
360,110,207321,1,10,0:0:0:0:
360,110,207407,1,8,0:0:0:0:
360,110,207493,1,8,0:0:0:0:
218,318,207664,6,0,P|152:307|84:301,1,135,14|0,0:0|0:0,0:0:0:0:
49,297,208007,1,2,1:2:0:0:
174,84,208179,2,0,P|168:129|164:174,1,90,10|10,0:0|1:2,0:0:0:0:
162,205,208436,1,10,0:0:0:0:
162,205,208521,1,10,0:0:0:0:
34,98,208693,6,0,P|55:92|78:90,1,45,8|8,0:3|0:3,0:0:0:0:
297,175,208864,2,0,P|274:177|252:182,1,45,4|4,0:3|0:3,0:0:0:0:
94,314,209036,2,0,P|139:316|183:325,1,90,14|8,0:0|0:0,0:0:0:0:
327,369,209379,5,2,1:2:0:0:
332,97,209550,1,10,0:0:0:0:
367,123,209636,1,8,0:0:0:0:
385,164,209721,1,8,0:0:0:0:
379,208,209807,1,8,0:0:0:0:
351,243,209893,1,10,0:0:0:0:
117,187,210064,1,8,0:0:0:0:
117,187,210579,6,0,P|206:179|296:174,1,180,6|10,1:2|0:0,0:0:0:0:
423,44,211093,1,2,1:2:0:0:
423,44,211179,1,2,1:2:0:0:
423,44,211264,1,2,1:2:0:0:
351,243,211436,1,2,1:2:0:0:
278,83,211607,1,10,0:0:0:0:
478,167,211779,1,2,0:0:0:0:
381,337,211950,6,0,P|336:332|291:330,1,90,2|0,1:2|1:0,0:0:0:0:
122,203,212293,2,0,P|166:201|211:195,1,90,10|0,0:0|0:0,0:0:0:0:
246,185,212550,1,0,1:0:0:0:
246,185,212636,2,0,L|233:97,1,90,2|0,1:2|1:0,0:0:0:0:
16,36,212979,2,0,L|30:125,1,90,10|0,0:0|0:0,0:0:0:0:
69,325,213321,6,0,B|86:305|140:302|140:302|116:269|122:202,1,180,0|8,1:0|0:0,0:0:0:0:
187,54,213836,1,0,1:2:0:0:
187,54,213921,1,0,1:2:0:0:
187,54,214007,1,0,1:2:0:0:
235,237,214179,1,0,1:0:0:0:
33,215,214350,2,0,P|77:207|122:202,1,90,10|0,0:0|0:0,0:0:0:0:
294,123,214693,5,0,1:0:0:0:
202,326,214864,1,8,0:0:0:0:
401,266,215036,1,0,1:0:0:0:
188,157,215207,1,2,1:2:0:0:
188,157,215293,1,2,1:2:0:0:
188,157,215379,1,10,0:0:0:0:
306,316,215550,6,0,P|311:337|313:360,1,45,8|8,0:3|0:3,0:0:0:0:
393,181,215721,2,0,P|371:186|348:188,1,45,8|8,0:3|0:3,0:0:0:0:
161,244,215893,2,0,P|183:245|205:251,1,45,4|4,0:3|0:3,0:0:0:0:
397,341,216064,5,12,0:0:0:0:
273,173,216236,1,2,1:2:0:0:
203,368,216407,1,0,1:0:0:0:
25,241,216579,2,0,P|113:246|205:251,1,180,10|2,0:0|0:0,0:0:0:0:
300,98,217093,5,10,0:0:0:0:
340,294,217264,1,2,1:2:0:0:
161,164,217436,1,0,1:0:0:0:
350,37,217607,2,0,B|329:153|329:153|359:135|393:141,1,180,10|0,0:0|1:0,0:0:0:0:
431,151,218007,2,0,L|460:157,2,30,0|0|12,1:0|1:0|0:0,0:0:0:0:
214,98,218293,1,2,1:2:0:0:
387,234,218464,1,8,0:0:0:0:
219,364,218636,6,0,P|210:274|201:184,1,180,6|2,1:2|1:2,0:0:0:0:
292,51,219150,1,10,0:0:0:0:
242,256,219321,1,2,1:2:0:0:
242,256,219407,1,2,1:2:0:0:
242,256,219493,1,2,1:2:0:0:
134,106,219664,1,0,1:0:0:0:
352,190,219836,1,8,0:0:0:0:
131,338,220007,6,0,P|198:341|264:353,1,135,6|0,1:2|0:0,0:0:0:0:
297,363,220350,1,10,0:0:0:0:
239,166,220521,1,10,0:0:0:0:
421,278,220693,1,2,1:2:0:0:
391,73,220864,2,0,L|384:117,1,45,8|8,0:0|0:0,0:0:0:0:
310,271,221036,2,0,L|303:226,1,45,8|8,0:0|0:0,0:0:0:0:
210,41,221207,2,0,L|217:85,1,45,8|8,0:0|0:0,0:0:0:0:
134,228,221379,2,0,L|141:183,1,45,8|8,0:0|0:0,0:0:0:0:
63,85,221550,5,14,1:2:0:0:
220,235,221721,1,0,1:0:0:0:
36,303,221893,1,0,1:0:0:0:
217,85,222064,5,14,0:0:0:0:
275,299,222236,1,0,1:0:0:0:
349,141,222407,1,0,1:0:0:0:
134,228,222579,5,14,0:0:0:0:
134,228,222664,1,8,0:0:0:0:
134,228,222750,1,0,1:2:0:0:
207,371,222921,1,0,1:0:0:0:
261,155,223093,5,14,0:0:0:0:
261,155,223179,1,8,0:0:0:0:
261,155,223264,1,0,1:0:0:0:
365,285,223436,1,0,1:0:0:0:
279,73,223607,6,0,L|285:42,3,30,14|0|0|0,0:0|1:0|1:0|1:0,0:0:0:0:
233,294,223950,1,10,0:0:0:0:
233,294,224293,5,14,1:2:0:0:
425,221,224464,1,0,1:0:0:0:
197,161,224636,1,0,1:0:0:0:
365,41,224807,5,14,1:2:0:0:
310,231,224979,1,0,1:0:0:0:
232,44,225150,1,0,1:0:0:0:
124,243,225321,5,14,0:0:0:0:
124,243,225407,1,8,0:0:0:0:
124,243,225493,1,0,1:0:0:0:
295,147,225664,5,0,1:0:0:0:
62,117,225836,1,8,0:0:0:0:
208,303,226007,1,2,1:2:0:0:
174,112,226179,1,2,1:2:0:0:
174,112,226264,1,2,1:2:0:0:
174,112,226350,1,10,0:0:0:0:
44,263,226521,6,0,P|21:266|0:270,1,45,4|4,0:3|0:3,0:0:0:0:
195,202,226693,2,0,P|217:205|240:210,1,45,8|8,0:3|0:3,0:0:0:0:
118,359,226864,2,0,L|123:311,1,45,4|4,0:3|0:3,0:0:0:0:
68,152,227036,5,14,0:0:0:0:
279,112,227207,1,0,1:0:0:0:
329,319,227379,1,0,1:0:0:0:
118,359,227550,1,10,0:0:0:0:
118,359,228064,5,14,0:0:0:0:
183,130,228236,1,0,1:0:0:0:
246,316,228407,1,0,1:0:0:0:
13,212,228579,1,10,0:0:0:0:
13,212,228921,6,0,L|8:244,3,30,0|0|0|12,1:0|1:0|1:0|0:0,0:0:0:0:
185,240,229264,1,2,1:2:0:0:
101,65,229436,1,8,0:0:0:0:
104,296,229607,6,0,P|193:282|283:275,1,180,6|2,1:2|1:2,0:0:0:0:
382,123,230121,2,0,P|338:118|293:117,1,90,10|2,0:0|1:2,0:0:0:0:
260,117,230379,1,2,1:2:0:0:
260,117,230464,1,2,1:2:0:0:
396,233,230636,1,2,1:2:0:0:
171,179,230807,1,8,0:0:0:0:
251,354,230979,6,0,B|282:356|308:343|308:343|291:220,1,180,6|10,1:2|0:0,0:0:0:0:
81,62,231493,2,0,P|125:67|169:75,1,90,10|0,0:0|1:0,0:0:0:0:
354,178,231836,1,10,0:0:0:0:
318,151,231921,1,8,0:0:0:0:
274,146,232007,1,8,0:0:0:0:
234,164,232093,1,8,0:0:0:0:
208,201,232179,1,8,0:0:0:0:
172,366,232350,5,8,0:0:0:0:
172,366,232436,1,8,0:0:0:0:
171,365,232521,2,0,B|202:339|210:296|210:296|247:334|300:326,1,180,6|8,1:2|0:0,0:0:0:0:
486,276,233036,1,0,1:2:0:0:
486,276,233121,1,0,1:2:0:0:
485,276,233207,2,0,P|441:268|397:262,1,90,0|0,1:2|1:0,0:0:0:0:
208,201,233550,1,8,0:0:0:0:
297,20,233721,6,0,P|348:90|335:177,1,180,0|0,1:0|1:0,0:0:0:0:
131,253,234236,1,8,0:0:0:0:
234,365,234407,1,0,1:0:0:0:
234,365,234493,1,0,1:0:0:0:
234,365,234579,2,0,P|238:320|244:275,1,90,0|0,1:0|1:0,0:0:0:0:
98,70,234921,2,0,P|91:114|87:159,1,90,8|0,0:0|1:0,0:0:0:0:
252,115,235264,5,2,1:2:0:0:
131,253,235436,1,2,0:0:0:0:
323,305,235607,1,8,0:0:0:0:
176,178,235779,1,2,1:2:0:0:
176,178,235864,1,0,1:0:0:0:
176,178,235950,1,0,1:0:0:0:
217,360,236121,1,2,1:2:0:0:
292,182,236293,1,10,0:0:0:0:
39,290,236464,6,0,P|128:280|218:275,1,180,2|2,1:2|1:2,0:0:0:0:
292,182,236979,1,10,0:0:0:0:
237,23,237150,1,10,0:0:0:0:
70,73,237321,1,2,0:0:0:0:
125,232,237493,1,10,0:0:0:0:
125,232,237579,1,10,0:0:0:0:
125,232,237664,1,10,0:0:0:0:
346,113,237836,2,0,L|302:107,1,45,10|10,0:0|0:0,0:0:0:0:
205,148,238007,6,0,P|294:141|384:134,1,180,6|8,1:2|0:0,0:0:0:0:
482,287,238521,1,0,1:0:0:0:
482,287,238607,1,0,1:0:0:0:
482,287,238693,2,0,P|437:282|392:279,1,90,0|0,1:0|1:0,0:0:0:0:
230,264,239036,1,10,0:0:0:0:
349,36,239207,6,0,P|333:124|324:214,1,180,6|0,1:2|1:0,0:0:0:0:
145,288,239721,1,8,0:0:0:0:
214,140,239893,1,2,1:2:0:0:
214,140,239979,1,2,1:2:0:0:
214,140,240064,1,2,1:2:0:0:
279,338,240236,1,2,1:2:0:0:
53,284,240407,1,10,0:0:0:0:
223,225,240579,1,2,1:2:0:0:
18,95,240750,6,0,P|62:98|107:104,1,90,6|0,1:2|0:0,0:0:0:0:
312,215,241093,2,0,P|267:218|222:224,1,90,10|2,0:0|1:2,0:0:0:0:
190,232,241350,1,2,1:2:0:0:
190,232,241436,1,10,0:0:0:0:
211,42,241607,1,10,0:0:0:0:
31,174,241779,6,0,P|53:177|75:181,1,45,10|10,0:0|0:0,0:0:0:0:
194,143,241950,2,0,P|171:230|158:319,1,180,6|10,1:2|0:0,0:0:0:0:
155,346,242379,1,10,0:0:0:0:
155,346,242464,1,2,1:2:0:0:
291,218,242636,1,8,0:3:0:0:
292,229,242721,1,8,0:3:0:0:
294,241,242807,1,8,0:3:0:0:
296,253,242893,1,8,0:3:0:0:
298,264,242979,1,4,0:3:0:0:
300,276,243064,1,4,0:3:0:0:
305,301,243150,5,8,0:0:0:0:
346,276,243236,1,8,0:0:0:0:
368,232,243321,1,8,0:0:0:0:
361,183,243407,1,8,0:0:0:0:
331,145,243493,5,6,1:2:0:0:
155,175,243664,1,8,0:0:0:0:
200,355,243836,2,0,P|204:311|212:266,1,90,2|2,0:0|1:2,0:0:0:0:
264,69,244179,1,14,0:0:0:0:
73,206,244350,1,2,1:2:0:0:
73,206,244436,1,0,1:0:0:0:
73,206,244521,1,12,0:0:0:0:
306,177,244693,2,0,P|284:171|262:167,1,45,10|10,0:0|0:0,0:0:0:0:
212,265,244864,6,0,P|265:272|317:284,1,107.999996704102,14|0,0:2|0:0,0:0:0:0:
312,369,245121,2,0,P|259:356|206:349,1,107.999996704102,14|0,0:2|0:0,0:0:0:0:
119,298,245379,1,14,0:2:0:0:
148,77,245550,6,0,P|170:125|170:178,1,107.999996704102,2|0,1:2|0:0,0:0:0:0:
73,206,245807,2,0,P|50:157|50:104,1,107.999996704102,2|0,1:2|0:0,0:0:0:0:
78,19,246064,1,2,1:2:0:0:
78,19,246921,5,2,0:0:0:0:
