osu file format v14

[General]
AudioFilename: audio.mp3
AudioLeadIn: 0
PreviewTime: 61754
Countdown: 0
SampleSet: Soft
StackLeniency: 0.7
Mode: 0
LetterboxInBreaks: 0
WidescreenStoryboard: 1

[Editor]
Bookmarks: 155354,156554,162468,164096,182268
DistanceSpacing: 0.8
BeatDivisor: 4
GridSize: 32
TimelineZoom: 1

[Metadata]
Title:Nisemono no Koi ni Sayounara with Wakeshima Kanon
TitleUnicode:偽物の恋にさようなら with 分島花音
Artist:ASCA
ArtistUnicode:ASCA
Creator:timemon
Version:Hard
Source:
Tags:大倉明日香 Okura Asuka -[ Hinoao ]- Meyrink Japanese 百歌繚乱 Hyakka Ryoran Naoki Chiba Kyou Tomohide Rock
BeatmapID:2208363
BeatmapSetID:1055201

[Difficulty]
HPDrainRate:6
CircleSize:4
OverallDifficulty:6.5
ApproachRate:8
SliderMultiplier:1.4
SliderTickRate:1

[Events]
//Background and Video events
0,0,"1280453.jpg",0,0
//Break Periods
2,176493,186514
//Storyboard Layer 0 (Background)
//Storyboard Layer 1 (Fail)
//Storyboard Layer 2 (Pass)
//Storyboard Layer 3 (Foreground)
//Storyboard Layer 4 (Overlay)
//Storyboard Sound Samples

[TimingPoints]
408,342.857142857143,4,2,1,50,1,0
408,-125,4,2,1,50,0,0
8636,-100,4,2,1,60,0,0
10522,-83.3333333333333,4,2,1,70,0,0
10779,-83.3333333333333,4,2,1,5,0,0
10865,-83.3333333333333,4,2,1,70,0,0
10950,-100,4,2,1,70,0,0
21236,-100,4,2,1,70,0,0
22265,-100,4,2,1,5,0,0
22350,-125,4,2,1,55,0,0
31608,-200,4,2,1,55,0,0
32808,-125,4,2,1,55,0,0
33322,-125,4,2,1,55,0,0
39836,-111.111111111111,4,2,1,55,0,0
40350,-125,4,2,1,55,0,0
44293,-125,4,2,1,60,0,0
49779,-125,4,2,1,60,0,0
55265,-125,4,2,1,60,0,0
56979,-125,4,2,1,5,0,0
57322,-125,4,2,1,60,0,0
57836,-100,4,2,1,70,0,0
58179,-125,4,2,1,70,0,0
62122,-100,4,2,1,80,0,1
70179,-100,4,2,1,80,0,1
70436,-100,4,2,1,5,0,1
70522,-100,4,2,1,80,0,1
70865,-100,4,2,1,80,0,1
71550,-83.3333333333333,4,2,1,80,0,1
71808,-83.3333333333333,4,2,1,5,0,1
71893,-83.3333333333333,4,2,1,80,0,1
72065,-100,4,2,1,80,0,1
72750,-83.3333333333333,4,2,1,80,0,0
73093,-100,4,2,1,80,0,1
81408,-100,4,2,1,5,0,1
81493,-100,4,2,1,80,0,1
82779,-100,4,2,1,5,0,1
82865,-100,4,2,1,80,0,1
84065,-100,4,2,1,70,0,0
92808,-83.3333333333333,4,2,1,70,0,0
93150,-100,4,2,1,70,0,0
93665,-83.3333333333333,4,2,1,70,0,0
93836,-83.3333333333333,4,2,1,5,0,0
93922,-83.3333333333333,4,2,1,70,0,0
94093,-83.3333333333333,4,2,1,5,0,0
94179,-83.3333333333333,4,2,1,70,0,0
94522,-83.3333333333333,4,2,1,5,0,0
94608,-83.3333333333333,4,2,1,70,0,0
94779,-83.3333333333333,4,2,1,5,0,0
94865,-83.3333333333333,4,2,1,70,0,0
95379,342.857142857143,4,2,1,50,1,0
95379,-125,4,2,1,50,0,0
106350,-100,4,2,1,70,0,0
113550,-125,4,2,1,70,0,0
114236,-100,4,2,1,70,0,0
114579,-100,4,2,1,70,0,0
115864,-100,4,2,1,5,0,0
115950,-100,4,2,1,70,0,0
116979,-125,4,2,1,70,0,0
117321,-125,4,2,1,60,0,0
122807,-125,4,2,1,60,0,0
128293,-125,4,2,1,60,0,0
130007,-125,4,2,1,5,0,0
130350,-125,4,2,1,60,0,0
130864,-100,4,2,1,70,0,0
131379,-100,4,2,1,70,0,0
131721,-100,4,2,1,70,0,0
132064,-100,4,2,1,70,0,0
132407,-100,4,2,1,80,0,1
140721,-100,4,2,1,5,0,1
140807,-100,4,2,1,80,0,1
142093,-100,4,2,1,5,0,1
142179,-100,4,2,1,80,0,1
143036,-100,4,2,1,80,0,0
143379,-100,4,2,1,80,0,1
151693,-100,4,2,1,5,0,1
151779,-100,4,2,1,80,0,1
153064,-100,4,2,1,5,0,1
153150,-100,4,2,1,80,0,1
154350,-100,4,2,1,70,0,0
155379,-100,4,2,1,70,0,0
155893,-100,4,2,1,70,0,0
157093,-100,4,2,1,70,0,0
157436,-100,4,2,1,50,0,0
157779,-100,4,2,1,60,0,0
158121,-100,4,2,1,70,0,0
158464,-100,4,2,1,70,0,0
158636,-100,4,2,1,5,0,0
158721,-100,4,2,1,70,0,0
158893,-100,4,2,1,5,0,0
158979,-100,4,2,1,70,0,0
159836,-125,4,2,1,70,0,0
162579,-100,4,2,1,70,0,0
163093,-100,4,2,1,70,0,0
163607,-100,4,2,1,70,0,0
165321,-100,4,2,1,70,0,0
170807,-100,4,2,1,70,0,0
172350,-100,4,2,1,70,0,0
174750,-100,4,2,1,70,0,0
175093,-100,4,2,1,70,0,0
175693,-100,4,2,1,5,0,0
175779,-100,4,2,1,70,0,0
176293,-111.111111111111,4,2,1,60,0,0
187093,-111.111111111111,4,2,1,40,0,0
187264,-111.111111111111,4,2,1,60,0,0
196864,-111.111111111111,4,2,1,70,0,0
198921,-111.111111111111,4,2,1,40,0,0
199607,-100,4,2,1,80,0,1
207664,-100,4,2,1,80,0,1
207921,-100,4,2,1,5,0,1
208007,-100,4,2,1,80,0,1
209293,-100,4,2,1,5,0,1
209379,-100,4,2,1,80,0,1
210064,-100,4,2,1,80,0,0
210579,-100,4,2,1,80,0,1
218893,-100,4,2,1,5,0,1
218979,-100,4,2,1,80,0,1
220264,-100,4,2,1,5,0,1
220350,-100,4,2,1,80,0,1
221379,-100,4,2,1,80,0,0
221550,-90.9090909090909,4,2,1,80,0,1
225664,-100,4,2,1,80,0,1
227036,-100,4,2,1,70,0,0
229864,-100,4,2,1,5,0,0
229950,-100,4,2,1,70,0,0
231236,-100,4,2,1,5,0,0
231321,-100,4,2,1,70,0,0
232521,-100,4,2,1,70,0,1
232693,-100,4,2,1,70,0,0
240750,-100,4,2,1,70,0,0
243493,-100,4,2,1,70,0,0
244864,-83.3333333333333,4,2,1,70,0,0
245036,-83.3333333333333,4,2,1,5,0,0
245121,-83.3333333333333,4,2,1,70,0,0
245293,-83.3333333333333,4,2,1,5,0,0
245379,-83.3333333333333,4,2,1,70,0,0
245721,-83.3333333333333,4,2,1,5,0,0
245807,-83.3333333333333,4,2,1,70,0,0
245979,-83.3333333333333,4,2,1,5,0,0
246064,-83.3333333333333,4,2,1,70,0,0
246921,-83.3333333333333,4,2,1,70,0,0
247607,-83.3333333333333,4,2,1,60,0,0
248293,-83.3333333333333,4,2,1,50,0,0
248979,-83.3333333333333,4,2,1,40,0,0
249664,-83.3333333333333,4,2,1,30,0,0
250350,-83.3333333333333,4,2,1,20,0,0
251036,-83.3333333333333,4,2,1,10,0,0

[Colours]
Combo1 : 148,202,235
Combo2 : 203,194,220
Combo3 : 168,215,210
Combo4 : 221,174,186

[HitObjects]
347,99,408,6,0,P|339:149|328:216,2,112,2|2|0,1:2|0:0|0:0,0:0:0:0:
292,27,1265,1,0,0:0:0:0:
224,85,1436,2,0,P|191:79|153:72,1,56,0|0,0:0|0:0,0:0:0:0:
68,173,1779,2,0,B|111:154|134:145|134:145|160:149|187:156,2,112,0|0|0,0:0|0:0|0:0,0:0:0:0:
99,257,2636,2,0,P|93:294|88:333,1,56,2|2,1:2|0:0,0:0:0:0:
27,376,2979,1,2,1:2:0:0:
166,354,3150,6,0,P|214:364|279:323,1,112,0|2,1:0|0:0,0:0:0:0:
225,257,3665,2,0,B|216:223|201:192|201:192|214:165|236:150,1,112,2|0,0:0|0:0,0:0:0:0:
294,99,4179,1,0,0:0:0:0:
469,210,4522,2,0,B|461:252|445:274|445:274|451:304|455:330,1,112,2|2,0:0|0:0,0:0:0:0:
378,366,5036,2,0,P|330:374|272:343,1,112,2|0,0:0|1:0,0:0:0:0:
313,265,5550,1,2,0:0:0:0:
255,196,5722,1,0,1:0:0:0:
314,129,5893,6,0,P|311:98|297:67,2,56,2|2|2,1:2|0:0|0:0,0:0:0:0:
255,196,6408,2,0,B|218:185|194:172|194:172|166:185|137:192,1,112,2|0,0:0|0:0,0:0:0:0:
87,252,6922,2,0,P|104:277|112:303,1,56,0|0,0:0|0:0,0:0:0:0:
8,270,7265,2,0,P|-2:236|28:158,2,112,0|0|0,0:0|0:0|0:0,0:0:0:0:
80,322,8122,2,0,B|120:320|160:314|158:314,1,56,2|2,1:2|0:0,0:0:0:0:
217,279,8465,1,2,1:2:0:0:
175,175,8636,6,0,P|166:140|153:102,1,70,12|0,0:0|0:0,0:0:0:0:
272,38,8979,2,0,P|260:71|252:105,1,70,8|0,0:0|0:0,0:0:0:0:
319,177,9322,1,8,0:0:0:0:
389,109,9493,1,8,0:0:0:0:
457,179,9665,1,8,0:0:0:0:
409,264,9836,1,10,0:0:0:0:
409,264,9922,1,10,0:0:0:0:
409,264,10008,1,6,1:2:0:0:
467,342,10179,2,0,L|456:378,3,35,10|8|8|8,0:0|0:0|0:0|0:0,0:0:0:0:
475,320,10522,1,2,1:2:0:0:
255,352,10865,5,10,0:0:0:0:
222,257,11036,2,0,L|228:220,3,35,8|8|4|4,0:3|0:3|0:3|0:3,0:0:0:0:
232,198,11379,6,0,P|263:161|351:169,1,140,6|8,1:2|0:0,0:0:0:0:
407,244,11893,1,0,1:0:0:0:
407,244,11979,1,0,1:0:0:0:
407,244,12065,2,0,P|401:289|406:332,2,70,0|0|8,1:0|1:0|0:0,0:0:0:0:
477,175,12579,2,0,P|486:119|414:47,1,140,0|0,1:0|1:0,0:0:0:0:
360,114,13093,2,0,P|324:106|285:95,1,70,8|0,0:0|0:0,0:0:0:0:
239,14,13436,1,0,1:0:0:0:
242,18,13608,1,0,1:0:0:0:
178,92,13779,2,0,P|186:128|197:167,1,70,8|0,0:0|1:0,0:0:0:0:
128,297,14122,5,2,1:2:0:0:
208,240,14293,2,0,P|250:223|345:261,1,140,2|2,0:0|0:0,0:0:0:0:
407,319,14808,2,0,P|364:343|320:353,2,70,0|2|10,1:0|1:2|0:0,0:0:0:0:
417,221,15322,2,0,B|424:181|436:155|436:155|417:125|395:88,1,140,2|2,1:2|1:2,0:0:0:0:
398,94,15750,1,2,1:2:0:0:
398,94,15836,1,10,0:0:0:0:
334,20,16008,1,10,0:0:0:0:
156,101,16350,2,0,L|120:95,2,35,10|10|10,0:0|0:0|0:0,0:0:0:0:
221,174,16693,1,10,0:0:0:0:
221,174,16779,1,10,0:0:0:0:
221,174,16865,6,0,P|207:256|201:332,2,140,6|8|0,1:2|0:0|1:0,0:0:0:0:
260,58,17722,2,0,P|223:73|191:84,1,70,0|10,1:0|0:0,0:0:0:0:
115,23,18065,2,0,B|89:51|54:70|54:70|73:102|78:135,1,140,6|0,1:2|1:0,0:0:0:0:
128,211,18579,1,8,0:0:0:0:
81,296,18750,1,2,0:0:0:0:
81,296,18836,1,2,1:2:0:0:
81,296,18922,2,0,P|74:334|82:377,2,70,2|2|10,1:2|1:2|0:0,0:0:0:0:
128,211,19436,1,2,1:2:0:0:
219,276,19608,6,0,B|254:287|282:316|282:316|312:325|354:283,1,140,6|8,1:2|0:0,0:0:0:0:
305,203,20122,2,0,L|313:161,2,35,0|0|0,1:0|1:0|1:0,0:0:0:0:
392,113,20465,1,8,0:0:0:0:
392,113,20550,1,8,0:0:0:0:
392,113,20636,1,8,0:0:0:0:
318,39,20808,6,0,B|282:60|243:101|243:101|203:72,1,140,6|10,1:2|0:0,0:0:0:0:
208,76,21236,1,10,0:0:0:0:
208,76,21322,1,2,1:2:0:0:
127,17,21493,2,0,P|87:63|99:143,1,140,8|4,0:3|0:3,0:0:0:0:
95,137,22008,1,4,0:3:0:0:
25,285,22350,6,0,B|64:297|94:316|94:316|131:297|148:294,2,112,6|2|2,1:2|0:0|0:0,0:0:0:0:
76,153,23379,1,2,0:0:0:0:
76,153,23550,2,0,P|67:102|24:35,1,112,2|2,0:0|0:0,0:0:0:0:
142,67,24065,2,0,B|182:63|204:44|204:44|223:43|261:57,1,112,2|2,0:0|0:0,0:0:0:0:
298,112,24579,1,2,1:2:0:0:
396,22,24922,1,2,1:2:0:0:
396,22,25093,6,0,B|406:51|419:67|419:67|405:83|408:129,2,112,2|0|0,1:2|0:0|0:0,0:0:0:0:
270,117,26122,1,0,0:0:0:0:
142,25,26465,2,0,P|113:69|117:139,2,112,2|0|2,0:0|0:0|0:0,0:0:0:0:
197,92,27322,2,0,P|236:86|264:78,1,56,0|2,1:0|0:0,0:0:0:0:
306,14,27665,1,0,1:0:0:0:
361,93,27836,6,0,P|381:136|352:212,1,112,2|0,1:2|0:0,0:0:0:0:
307,260,28350,2,0,B|303:256|292:287|288:326,1,56,2|0,0:0|0:0,0:0:0:0:
288,310,28865,2,0,P|243:288|143:340,1,168,2|0,1:2|0:0,0:0:0:0:
78,234,29550,2,0,P|69:207|48:181,2,56,2|2|2,0:0|0:0|0:0,0:0:0:0:
36,306,30065,1,0,1:0:0:0:
164,183,30408,1,0,1:0:0:0:
164,183,30579,6,0,P|222:182|289:158,1,112,2|0,1:2|0:0,0:0:0:0:
326,106,31093,2,0,P|317:76|301:49,2,56,2|2|2,0:0|0:0|0:0,0:0:0:0:
350,234,31608,1,6,1:2:0:0:
84,123,32808,5,0,1:0:0:0:
84,123,32979,2,0,P|101:151|109:179,1,56,8|0,0:0|1:0,0:0:0:0:
161,228,33322,6,0,P|141:301|130:360,1,112,6|0,1:2|0:0,0:0:0:0:
222,335,33836,1,2,0:0:0:0:
222,335,34008,2,0,P|257:326|340:323,1,112,2|2,0:0|1:2,0:0:0:0:
412,220,34522,2,0,B|375:236|358:249|358:249|330:230|304:221,1,112,2|2,0:0|0:0,0:0:0:0:
284,143,35036,2,0,P|291:114|302:83,1,56,2|0,0:0|0:0,0:0:0:0:
375,31,35379,2,0,P|382:60|393:91,2,56,2|2|10,0:0|1:2|0:0,0:0:0:0:
293,8,35893,1,2,0:0:0:0:
394,104,36065,6,0,P|431:108|486:54,1,112,2|0,1:2|0:0,0:0:0:0:
367,23,36579,2,0,B|333:16|300:8|300:8|267:19|239:28,1,112,2|2,1:2|0:0,0:0:0:0:
221,104,37093,2,0,L|243:220,2,112,2|2|0,1:2|0:0|0:0,0:0:0:0:
154,32,37950,1,2,0:0:0:0:
116,113,38122,2,0,P|86:103|53:90,1,56,2|0,0:0|1:0,0:0:0:0:
27,176,38465,2,0,P|17:202|8:228,1,56,10|0,0:0|0:0,0:0:0:0:
65,299,38808,6,0,B|108:317|131:331|131:331|161:312|186:306,1,112,2|0,1:2|0:0,0:0:0:0:
237,263,39322,2,0,B|261:249|293:253,1,56,2|0,1:2|0:0,0:0:0:0:
292,258,39836,6,0,B|329:267|370:293|370:293|412:271,1,125.999996154785,6|0,1:2|0:0,0:0:0:0:
372,190,40350,2,0,P|361:164|341:138,1,56,2|0,0:0|0:0,0:0:0:0:
411,83,40693,2,0,P|388:65|358:53,1,56,2|0,0:0|0:0,0:0:0:0:
292,0,41036,2,0,P|266:11|244:28,2,56,2|10|2,1:2|0:0|0:0,0:0:0:0:
363,54,41550,6,0,P|394:99|373:163,1,112,2|2,1:2|0:0,0:0:0:0:
314,231,42065,1,2,1:2:0:0:
314,231,42236,2,0,P|327:260|350:297,1,56,2|0,0:0|0:0,0:0:0:0:
425,371,42579,2,0,P|364:356|305:383,1,112,10|0,0:0|1:0,0:0:0:0:
239,310,43093,2,0,L|203:306,2,28,8|8|8,0:0|0:0|0:0,0:0:0:0:
287,234,43436,1,8,0:0:0:0:
241,156,43608,1,8,0:0:0:0:
306,77,43779,2,0,P|297:43|285:17,2,56,8|4|4,0:3|0:3|0:3,0:0:0:0:
380,164,44293,6,0,P|394:229|403:281,1,112,6|0,1:2|0:0,0:0:0:0:
480,328,44808,1,2,1:2:0:0:
480,328,44979,2,0,B|437:350|415:373|415:373|369:360,1,112,10|0,0:0|0:0,0:0:0:0:
383,364,45665,2,0,P|349:356|312:358,1,56,2|10,1:2|0:0,0:0:0:0:
264,268,46008,2,0,B|293:268|320:256|320:256|342:255|379:276,2,112,2|10|2,1:2|0:0|1:2,0:0:0:0:
204,335,46865,1,2,1:2:0:0:
147,259,47036,6,0,B|137:225|125:198|125:198|140:171|153:154,1,112,2|0,1:2|1:0,0:0:0:0:
90,31,47722,2,0,B|181:7|153:74|256:44,1,168,10|10,0:0|0:0,0:0:0:0:
333,8,48408,2,0,P|363:4|403:3,1,56,0|10,1:2|0:0,0:0:0:0:
439,76,48750,2,0,B|464:107|489:132|489:132|474:177,1,112,2|10,1:2|0:0,0:0:0:0:
428,243,49265,1,8,0:0:0:0:
428,243,49436,2,0,P|440:274|450:306,1,56,6|10,1:2|0:0,0:0:0:0:
320,357,49779,6,0,P|348:345|391:340,1,56,6|0,1:2|0:0,0:0:0:0:
303,251,50122,2,0,P|275:239|232:234,1,56,2|0,1:2|0:0,0:0:0:0:
152,270,50465,2,0,P|133:319|144:391,1,112,10|2,0:0|0:0,0:0:0:0:
56,305,50979,2,0,P|38:264|27:244,1,56,8|0,0:0|1:0,0:0:0:0:
100,195,51322,2,0,P|108:144|156:88,1,112,8|0,0:0|0:0,0:0:0:0:
187,20,51836,2,0,B|231:28|251:35|251:35|282:28|317:21,1,112,10|2,0:0|1:2,0:0:0:0:
354,102,52350,1,8,0:0:0:0:
354,102,52436,1,8,0:0:0:0:
354,102,52522,6,0,P|376:147|351:212,1,112,4|2,1:2|1:2,0:0:0:0:
235,320,53208,2,0,P|291:311|356:305,1,112,10|2,0:0|0:0,0:0:0:0:
406,368,53722,2,0,P|433:358|471:353,1,56,8|2,0:0|1:2,0:0:0:0:
499,270,54065,1,8,0:0:0:0:
395,212,54236,2,0,P|399:239|409:265,1,56,2|0,1:2|0:0,0:0:0:0:
470,158,54579,1,10,0:0:0:0:
407,93,54750,1,8,0:0:0:0:
329,137,54922,1,10,0:0:0:0:
276,64,55093,1,8,0:0:0:0:
342,3,55265,5,2,0:0:0:0:
42,118,57322,6,0,P|54:150|61:180,2,56,8|0|4,0:0|1:0|0:3,0:0:0:0:
120,58,57836,6,0,B|162:24|196:22|196:22|221:53|265:47,1,140,6|0,1:2|0:0,0:0:0:0:
306,117,58350,2,0,L|297:168,3,28,8|8|8|8,1:2|0:0|0:0|0:0,0:0:0:0:
266,187,58693,2,0,L|275:238,3,28,10|8|8|8,1:2|0:0|0:0|0:0,0:0:0:0:
298,257,59036,2,0,L|289:308,3,28,10|8|8|8,1:2|0:0|0:0|0:0,0:0:0:0:
261,325,59379,6,0,P|229:316|188:312,1,56,10|0,0:0|1:0,0:0:0:0:
101,283,59722,1,0,1:0:0:0:
172,217,59893,2,0,P|179:145|142:103,1,112,2|0,1:2|0:0,0:0:0:0:
157,7,60408,2,0,P|123:20|91:28,1,56,10|0,0:0|1:0,0:0:0:0:
28,87,60750,1,0,1:0:0:0:
158,114,60922,2,0,B|223:102|223:102|283:115,1,112,2|0,1:2|1:0,0:0:0:0:
267,111,61350,1,0,1:0:0:0:
267,111,61436,1,10,0:0:0:0:
369,51,61608,1,8,0:0:0:0:
369,51,61693,1,8,0:0:0:0:
369,51,61779,2,0,L|360:10,3,28,10|10|10|10,1:2|0:0|0:0|0:0,0:0:0:0:
402,85,62122,6,0,P|391:130|386:173,1,70,6|2,1:2|0:0,0:0:0:0:
348,291,62465,2,0,P|342:256|333:222,1,70,10|2,0:0|0:0,0:0:0:0:
273,129,62808,1,2,1:2:0:0:
212,243,62979,1,2,1:2:0:0:
160,151,63150,2,0,P|126:160|92:167,1,70,10|2,0:0|0:0,0:0:0:0:
142,32,63493,6,0,P|176:41|211:47,1,70,2|0,1:2|1:0,0:0:0:0:
160,152,63836,2,0,P|178:185|190:216,1,70,10|0,0:0|0:0,0:0:0:0:
284,250,64179,2,0,P|273:286|259:316,1,70,2|0,1:2|1:0,0:0:0:0:
176,375,64522,1,10,0:0:0:0:
176,375,64693,1,0,0:0:0:0:
92,297,64865,6,0,P|22:286|3:363,1,140,0|8,1:0|0:0,0:0:0:0:
47,199,65379,1,0,1:0:0:0:
47,199,65465,1,0,1:0:0:0:
47,199,65550,2,0,P|40:159|27:129,1,70,0|0,1:0|1:0,0:0:0:0:
154,224,65893,2,0,P|141:256|135:290,1,70,10|0,0:0|0:0,0:0:0:0:
256,262,66236,6,0,P|302:257|342:249,2,70,0|0|8,1:0|1:0|0:0,0:0:0:0:
236,144,66750,2,0,P|213:141|193:137,2,35,2|2|2,1:2|1:2|1:2,0:0:0:0:
334,59,67093,1,8,0:0:0:0:
334,59,67179,1,8,0:0:0:0:
334,59,67265,2,0,P|357:56|377:52,3,35,8|8|8|8,0:0|0:0|0:0|0:0,0:0:0:0:
405,88,67608,6,0,P|400:128|396:176,1,70,6|0,1:2|0:0,0:0:0:0:
341,301,67950,2,0,P|337:266|333:231,1,70,8|2,0:0|0:0,0:0:0:0:
431,269,68293,2,0,P|465:264|502:245,1,70,2|0,1:2|0:0,0:0:0:0:
419,179,68636,1,10,0:0:0:0:
419,179,68808,1,2,0:0:0:0:
325,252,68979,6,0,P|339:298|347:344,1,70,0|2,1:0|0:0,0:0:0:0:
229,254,69322,2,0,P|236:219|247:186,1,70,8|2,0:0|0:0,0:0:0:0:
297,110,69665,1,0,1:0:0:0:
238,31,69836,1,10,0:0:0:0:
249,23,69922,1,8,0:0:0:0:
261,16,70008,1,8,0:0:0:0:
171,90,70179,6,0,B|137:107|110:142|110:142|81:125|46:118,1,140,14|2,0:0|1:2,0:0:0:0:
55,120,70693,1,10,0:0:0:0:
27,20,70865,1,10,1:2:0:0:
27,20,70950,1,10,0:0:0:0:
27,20,71036,1,10,0:0:0:0:
88,86,71208,2,0,L|134:81,3,35,8|8|4|4,0:3|0:3|0:3|0:3,0:0:0:0:
55,120,71550,6,0,B|30:184|16:235|16:235|82:219,1,167.999994873047,6|2,1:2|1:2,0:0:0:0:
148,201,72065,2,0,P|195:210|233:227,1,70,10|0,0:0|0:0,0:0:0:0:
277,304,72408,2,0,P|244:315|209:320,1,70,2|0,1:2|1:0,0:0:0:0:
329,210,72750,1,8,0:0:0:0:
352,231,72836,1,8,0:0:0:0:
369,257,72922,1,8,0:0:0:0:
380,286,73008,1,8,0:0:0:0:
383,318,73093,5,6,1:2:0:0:
453,234,73265,1,2,0:0:0:0:
296,300,73436,2,0,P|259:292|213:279,1,70,10|0,0:0|0:0,0:0:0:0:
150,198,73779,2,0,P|183:188|218:181,2,70,2|2|10,1:2|1:2|0:0,0:0:0:0:
80,115,74293,1,2,0:0:0:0:
21,195,74465,6,0,B|10:255|-4:304|-4:304|29:282,1,140,2|10,1:2|0:0,0:0:0:0:
109,288,74979,1,0,0:0:0:0:
109,288,75150,2,0,P|152:277|191:263,1,70,2|0,1:2|1:0,0:0:0:0:
174,167,75493,2,0,P|207:177|241:186,1,70,10|0,0:0|0:0,0:0:0:0:
316,118,75836,6,0,P|348:93|436:132,1,140,0|8,1:0|0:0,0:0:0:0:
483,209,76350,1,0,0:0:0:0:
413,278,76522,2,0,P|392:314|393:351,1,70,0|0,1:0|1:0,0:0:0:0:
344,211,76865,2,0,P|306:199|272:189,1,70,10|0,0:0|0:0,0:0:0:0:
194,243,77208,5,0,1:0:0:0:
194,243,77379,1,8,0:0:0:0:
168,148,77550,2,0,P|162:109|178:72,1,70,0|2,1:0|1:2,0:0:0:0:
178,68,77808,1,2,1:2:0:0:
188,59,77893,1,10,0:0:0:0:
112,8,78065,2,0,L|71:-1,4,35,8|8|8|8|4,0:3|0:3|0:3|0:3|0:3,0:0:0:0:
188,59,78579,5,12,0:0:0:0:
262,21,78750,1,2,1:2:0:0:
321,81,78922,1,0,1:0:0:0:
391,36,79093,2,0,B|428:69|434:100|434:100|411:127|419:177,1,140,10|2,0:0|0:0,0:0:0:0:
436,253,79608,6,0,P|471:237|506:233,2,70,10|2|0,0:0|1:2|1:0,0:0:0:0:
360,305,80122,2,0,B|317:324|296:344|296:344|248:322|216:319,1,140,10|0,0:0|1:0,0:0:0:0:
235,322,80636,1,12,0:0:0:0:
211,222,80808,2,0,P|176:218|132:228,1,70,2|8,1:2|0:0,0:0:0:0:
44,261,81150,6,0,B|72:304|79:343|79:343|105:322|133:313,1,140,6|2,1:2|1:2,0:0:0:0:
142,224,81665,1,10,0:0:0:0:
88,142,81836,1,2,1:2:0:0:
88,142,81922,1,2,1:2:0:0:
88,142,82008,2,0,P|96:101|116:73,2,70,2|0|8,1:2|1:0|0:0,0:0:0:0:
204,113,82522,6,0,P|242:118|316:55,1,140,6|10,1:2|0:0,0:0:0:0:
222,32,83036,2,0,P|183:26|140:19,1,70,10|2,0:0|1:2,0:0:0:0:
74,105,83379,2,0,P|93:102|115:98,4,35,10|8|8|8|10,0:0|0:0|0:0|0:0|0:0,0:0:0:0:
159,181,83893,1,10,0:0:0:0:
159,181,83979,1,10,0:0:0:0:
159,181,84065,6,0,P|179:236|153:314,1,140,6|8,1:2|0:0,0:0:0:0:
89,364,84579,1,0,1:0:0:0:
82,280,84750,2,0,P|47:274|13:265,2,70,0|0|8,1:0|1:0|0:0,0:0:0:0:
186,336,85265,6,0,P|241:338|320:289,1,140,0|0,1:0|1:0,0:0:0:0:
249,222,85779,2,0,P|241:187|220:150,1,70,8|0,0:0|0:0,0:0:0:0:
296,89,86122,1,0,1:0:0:0:
237,11,86293,1,0,1:0:0:0:
335,13,86465,2,0,P|378:5|426:-7,1,70,8|0,0:0|1:0,0:0:0:0:
471,78,86808,5,2,1:2:0:0:
453,174,86979,2,0,P|450:228|452:273,1,70,2|8,0:0|0:0,0:0:0:0:
361,280,87322,1,2,1:2:0:0:
361,280,87408,1,0,1:0:0:0:
361,280,87493,2,0,P|363:314|363:349,2,70,0|2|10,1:0|1:2|0:0,0:0:0:0:
296,198,88008,6,0,B|237:214|216:222|216:222|202:210|168:191,1,140,2|2,1:2|1:2,0:0:0:0:
158,181,88436,1,2,1:2:0:0:
150,173,88522,1,10,0:0:0:0:
219,92,88693,2,0,P|181:88|133:80,1,70,10|0,0:0|0:0,0:0:0:0:
61,17,89036,2,0,P|80:15|104:11,2,35,10|10|10,0:0|0:0|0:0,0:0:0:0:
23,109,89379,1,10,0:0:0:0:
23,109,89465,1,10,0:0:0:0:
23,109,89550,6,0,P|32:176|43:253,2,140,6|8|0,1:2|0:0|1:0,0:0:0:0:
114,145,90408,1,0,1:0:0:0:
98,48,90579,1,10,0:0:0:0:
187,86,90750,2,0,B|238:108|266:94|266:94|284:70|322:70,1,140,6|0,1:2|1:0,0:0:0:0:
410,27,91265,2,0,P|390:97|376:171,1,140,8|2,0:0|1:2,0:0:0:0:
316,240,91779,1,2,1:2:0:0:
367,323,91950,1,10,0:0:0:0:
367,323,92036,1,10,0:0:0:0:
367,323,92122,1,10,1:2:0:0:
486,265,92293,5,6,1:2:0:0:
446,348,92465,2,0,L|452:391,2,35,10|10|10,0:0|0:0|0:0,0:0:0:0:
407,238,92808,2,0,B|379:188|403:126|403:126|344:177,1,167.999994873047,6|2,1:2|1:2,0:0:0:0:
288,238,93322,1,10,1:2:0:0:
252,127,93493,1,2,1:2:0:0:
168,200,93665,6,0,P|133:247|153:339,2,125.999996154785,14|10|10,0:0|0:0|0:0,0:0:0:0:
252,127,94350,2,0,B|284:150|305:171|305:171|334:161|368:157,2,125.999996154785,14|10|10,1:2|1:2|1:2,0:0:0:0:
252,127,95379,6,0,P|185:142|129:139,1,112,6|0,1:2|1:0,0:0:0:0:
87,83,95893,1,2,0:0:0:0:
36,142,96064,2,0,P|23:199|42:263,1,112,2|2,1:2|1:2,0:0:0:0:
105,286,96579,1,2,0:0:0:0:
29,358,96750,2,0,B|75:375|91:384|91:384|113:371|151:367,1,112,0|2,1:0|1:2,0:0:0:0:
216,323,97264,1,0,1:0:0:0:
216,323,97350,1,0,1:0:0:0:
216,323,97436,2,0,P|245:333|277:343,1,56,2|2,1:2|0:0,0:0:0:0:
325,270,97779,2,0,P|354:260|386:250,1,56,10|0,0:0|0:0,0:0:0:0:
268,204,98121,6,0,P|252:117|266:73,1,112,2|0,1:2|1:0,0:0:0:0:
306,33,98636,1,2,0:0:0:0:
364,87,98807,2,0,P|410:103|480:79,1,112,0|0,1:0|1:0,0:0:0:0:
485,172,99321,2,0,B|466:202|446:223|446:223|456:247|461:276,2,112,2|2|2,0:0|0:0|1:2,0:0:0:0:
469,87,100179,1,2,1:2:0:0:
402,128,100350,2,0,L|362:120,2,28,2|2|10,1:2|1:2|1:2,0:0:0:0:
192,68,100864,6,0,P|235:109|232:182,1,112,6|0,1:2|1:0,0:0:0:0:
190,220,101379,2,0,P|178:263|179:298,2,56,2|0|0,0:0|1:0|0:0,0:0:0:0:
121,161,101893,2,0,P|62:141|14:182,1,112,2|0,1:2|1:0,0:0:0:0:
19,306,102579,2,0,P|26:345|28:373,1,56,2|2,1:2|0:0,0:0:0:0:
108,312,102921,2,0,P|111:284|116:256,1,56,2|0,1:2|0:0,0:0:0:0:
193,300,103264,2,0,P|198:327|201:355,1,56,10|0,0:0|0:0,0:0:0:0:
255,243,103607,6,0,P|288:222|363:237,1,112,2|0,1:2|1:0,0:0:0:0:
409,291,104121,1,2,0:0:0:0:
481,261,104293,1,2,1:2:0:0:
503,186,104464,1,2,0:0:0:0:
453,124,104636,2,0,L|460:88,3,28,10|8|8|8,0:0|0:0|0:0|0:0,0:0:0:0:
462,74,104979,5,2,0:0:0:0:
88,65,105921,2,0,L|90:45,1,18.6666666666667,0|0,1:0|1:0,0:0:0:0:
99,139,106350,6,0,P|127:255|132:275,1,140,6|8,1:2|0:0,0:0:0:0:
200,345,106864,1,2,1:2:0:0:
200,345,107036,2,0,P|234:323|277:319,2,70,2|0|2,1:2|1:0|0:0,0:0:0:0:
138,263,107550,2,0,P|91:282|14:246,1,140,10|2,0:0|1:2,0:0:0:0:
59,169,108064,2,0,B|76:134|105:106|105:106|84:84|71:52,1,140,10|2,0:0|1:2,0:0:0:0:
140,5,108579,1,2,1:2:0:0:
201,68,108750,2,0,P|238:62|274:44,1,70,10|2,0:0|0:0,0:0:0:0:
363,14,109093,6,0,P|350:63|338:155,1,140,2|8,1:2|0:0,0:0:0:0:
426,120,109607,2,0,P|446:110|464:110,2,35,2|2|2,1:2|1:2|1:2,0:0:0:0:
421,201,109950,2,0,P|406:236|398:279,1,70,2|2,1:2|0:0,0:0:0:0:
444,343,110293,1,8,0:0:0:0:
228,233,110636,1,0,1:0:0:0:
271,317,110807,2,0,P|236:321|203:333,1,70,8|2,0:0|1:2,0:0:0:0:
132,276,111150,2,0,P|97:271|64:259,1,70,2|2,1:2|1:2,0:0:0:0:
18,181,111493,1,10,0:0:0:0:
105,124,111664,6,0,L|149:130,2,35,8|8|10,0:0|0:0|0:0,0:0:0:0:
25,59,112007,1,8,0:0:0:0:
19,38,112093,1,8,0:0:0:0:
10,18,112179,1,8,0:0:0:0:
115,38,112350,2,0,B|111:34|146:35|189:24,1,70,10|8,0:0|0:0,0:0:0:0:
182,25,112864,6,0,B|225:13|265:7|265:7|287:24|305:55,1,140,12|0,0:0|0:0,0:0:0:0:
262,142,113379,1,2,1:2:0:0:
333,245,113550,2,0,L|341:209,2,37.3333333333333,8|8|8,0:0|0:0|0:0,0:0:0:0:
275,299,113893,2,0,L|287:359,2,37.3333333333333,8|8|8,0:3|0:3|0:3,0:0:0:0:
205,255,114236,2,0,P|172:243|135:240,1,70,14|2,0:0|0:0,0:0:0:0:
54,330,114579,6,0,B|60:284|32:249|32:249|66:192,1,140,6|2,1:2|1:2,0:0:0:0:
20,115,115093,2,0,P|84:123|160:101,1,140,10|2,0:0|1:2,0:0:0:0:
232,47,115607,1,14,0:0:0:0:
381,182,115950,2,0,P|367:222|362:257,1,70,0|0,1:0|1:0,0:0:0:0:
290,323,116293,2,0,P|283:288|271:255,1,70,8|8,0:0|0:0,0:0:0:0:
209,154,116636,1,8,0:3:0:0:
209,154,116807,1,4,0:3:0:0:
156,260,116979,1,10,0:0:0:0:
38,42,117321,6,0,P|115:54|175:55,1,112,6|0,1:2|0:0,0:0:0:0:
261,15,117836,1,2,1:2:0:0:
216,95,118007,2,0,B|199:130|179:148|179:148|195:176|198:210,1,112,10|0,0:0|0:0,0:0:0:0:
334,233,118693,2,0,P|322:278|319:308,1,56,0|10,1:0|0:0,0:0:0:0:
391,345,119036,2,0,P|435:358|502:317,2,112,2|10|2,1:2|0:0|1:2,0:0:0:0:
440,256,119893,1,2,1:2:0:0:
440,256,120064,6,0,P|448:205|470:144,1,112,2|0,1:2|1:0,0:0:0:0:
331,10,120750,2,0,B|369:76|350:131|350:131|300:111,1,168,10|10,0:0|0:0,0:0:0:0:
239,58,121436,2,0,P|203:49|172:47,1,56,0|10,1:0|0:0,0:0:0:0:
72,119,121779,2,0,P|100:116|127:109,1,56,2|0,1:2|0:0,0:0:0:0:
28,50,122121,1,10,0:0:0:0:
46,195,122379,5,8,0:0:0:0:
46,195,122464,2,0,P|47:242|33:270,1,56,6|10,1:2|0:0,0:0:0:0:
105,322,122807,6,0,P|149:310|224:329,2,112,6|2|10,1:2|1:2|0:0,0:0:0:0:
41,197,123836,2,0,P|28:165|15:137,1,56,2|8,0:0|0:0,0:0:0:0:
107,122,124179,2,0,P|117:96|129:71,1,56,0|8,1:0|0:0,0:0:0:0:
191,16,124521,2,0,P|243:7|309:48,2,112,2|10|2,1:2|0:0|1:2,0:0:0:0:
235,98,125379,1,8,0:0:0:0:
235,98,125464,1,8,0:0:0:0:
235,98,125550,6,0,B|263:122|266:155|266:155|252:174|246:208,1,112,4|2,1:2|1:2,0:0:0:0:
153,289,126236,2,0,P|190:278|220:276,1,56,10|0,0:0|0:0,0:0:0:0:
295,279,126579,2,0,P|332:287|359:301,1,56,2|8,0:0|0:0,0:0:0:0:
428,348,126921,1,2,1:2:0:0:
470,270,127093,2,0,B|468:229|489:212|489:212|488:188|464:151,1,112,8|0,0:0|0:0,0:0:0:0:
413,99,127607,1,10,0:0:0:0:
360,171,127779,1,8,0:0:0:0:
288,117,127950,1,10,0:0:0:0:
228,183,128121,1,8,0:0:0:0:
263,265,128293,5,2,0:0:0:0:
92,92,130350,6,0,P|100:55|118:35,2,56,8|8|4,0:0|0:3|0:3,0:0:0:0:
39,181,130864,6,0,P|91:194|176:190,1,140,6|0,1:2|0:0,0:0:0:0:
298,120,131379,2,0,L|290:176,3,35,10|8|8|8,1:2|0:0|0:0|0:0,0:0:0:0:
272,195,131721,2,0,L|280:251,3,35,10|8|8|8,1:2|0:0|0:0|0:0,0:0:0:0:
304,266,132064,2,0,L|296:322,3,35,10|8|8|8,1:2|0:0|0:0|0:0,0:0:0:0:
257,334,132407,6,0,P|194:312|139:253,1,140,6|10,1:2|0:0,0:0:0:0:
179,168,132921,1,2,1:2:0:0:
179,168,133093,2,0,P|164:131|144:95,1,70,2|2,1:2|1:2,0:0:0:0:
62,191,133436,2,0,P|45:221|32:254,1,70,10|2,0:0|0:0,0:0:0:0:
136,282,133779,6,0,P|175:287|216:288,1,70,2|0,1:2|1:0,0:0:0:0:
293,212,134121,2,0,P|329:253|321:341,2,140,10|2|10,0:0|1:2|0:0,0:0:0:0:
231,134,134979,1,0,1:0:0:0:
231,134,135064,1,0,1:0:0:0:
231,134,135150,6,0,P|240:95|254:65,1,70,0|0,1:0|0:0,0:0:0:0:
336,17,135493,2,0,P|365:44|384:71,1,70,8|0,0:0|0:0,0:0:0:0:
344,159,135836,1,0,1:0:0:0:
344,159,136007,1,0,1:0:0:0:
443,132,136179,2,0,P|486:129|524:129,1,70,10|0,0:0|0:0,0:0:0:0:
421,214,136521,5,0,1:0:0:0:
465,301,136693,1,0,1:0:0:0:
395,370,136864,1,8,0:0:0:0:
326,299,137036,2,0,L|334:252,2,35,2|2|2,1:2|1:2|1:2,0:0:0:0:
221,341,137379,1,8,0:0:0:0:
221,341,137464,1,8,0:0:0:0:
221,341,137550,2,0,L|213:294,3,35,8|8|8|8,0:0|0:0|0:0|0:0,0:0:0:0:
184,265,137893,6,0,P|145:259|102:256,1,70,4|0,1:2|0:0,0:0:0:0:
52,164,138236,2,0,P|91:158|134:155,1,70,8|2,0:0|0:0,0:0:0:0:
195,91,138579,2,0,P|183:48|172:19,1,70,2|2,1:2|0:0,0:0:0:0:
295,90,138921,2,0,P|283:122|274:156,1,70,10|2,0:0|0:0,0:0:0:0:
216,236,139264,5,0,1:0:0:0:
306,277,139436,2,0,P|346:268|379:266,1,70,2|8,0:0|0:0,0:0:0:0:
461,181,139779,2,0,P|426:178|392:169,1,70,2|0,0:0|1:0,0:0:0:0:
421,78,140121,1,10,0:0:0:0:
430,59,140207,1,8,0:0:0:0:
445,44,140293,1,8,0:0:0:0:
316,84,140464,6,0,B|273:102|235:130|235:130|190:97|179:93,1,140,14|2,0:0|1:2,0:0:0:0:
129,30,140979,1,10,0:0:0:0:
80,114,141150,1,10,1:2:0:0:
80,114,141236,1,10,0:0:0:0:
80,114,141321,1,10,0:0:0:0:
141,189,141493,2,0,L|135:236,3,35,8|8|4|4,0:3|0:3|0:3|0:3,0:0:0:0:
100,254,141836,6,0,B|182:239|151:309|239:286,1,140,6|2,1:2|1:2,0:0:0:0:
309,233,142350,2,0,P|343:222|378:223,1,70,10|2,0:0|0:2,0:0:0:0:
472,248,142693,2,0,P|482:282|482:317,1,70,2|0,1:2|1:0,0:0:0:0:
404,377,143036,1,8,0:0:0:0:
378,369,143121,1,8,0:0:0:0:
352,365,143207,1,8,0:0:0:0:
326,362,143293,1,8,0:0:0:0:
300,362,143379,5,6,1:2:0:0:
338,271,143550,1,2,0:0:0:0:
282,190,143721,2,0,P|286:147|291:114,1,70,10|0,0:0|0:0,0:0:0:0:
377,75,144064,2,0,P|373:32|368:-1,2,70,2|2|10,1:2|1:2|0:0,0:0:0:0:
436,154,144579,1,2,0:0:0:0:
373,229,144750,6,0,P|351:281|357:317,1,70,2|0,1:2|1:0,0:0:0:0:
403,376,145093,2,0,P|438:367|480:362,1,70,10|0,0:0|0:0,0:0:0:0:
351,293,145436,2,0,P|316:284|274:279,1,70,2|0,1:2|1:0,0:0:0:0:
199,331,145779,1,10,0:0:0:0:
159,241,145950,1,0,1:0:0:0:
159,241,146036,1,0,1:0:0:0:
159,241,146121,6,0,P|142:184|194:119,1,140,0|8,1:0|0:0,0:0:0:0:
266,65,146636,1,0,1:0:0:0:
266,65,146807,2,0,L|335:78,1,70,0|0,1:0|1:0,0:0:0:0:
401,149,147150,2,0,L|470:136,1,70,10|0,0:0|0:0,0:0:0:0:
428,225,147493,5,0,1:0:0:0:
474,310,147664,1,8,0:0:0:0:
401,376,147836,1,0,1:0:0:0:
332,306,148007,2,0,L|291:315,2,35,2|2|10,1:2|1:2|0:0,0:0:0:0:
253,213,148350,2,0,L|294:222,4,35,8|8|8|8|4,0:3|0:3|0:3|0:3|0:3,0:0:0:0:
202,128,148864,5,12,0:0:0:0:
134,199,149036,1,2,1:2:0:0:
170,289,149207,1,0,1:0:0:0:
99,358,149379,2,0,P|52:366|-13:292,1,140,10|2,0:0|0:0,0:0:0:0:
42,224,149893,5,10,0:0:0:0:
2,134,150064,1,2,1:2:0:0:
53,50,150236,1,0,1:0:0:0:
147,76,150407,2,0,B|184:86|215:102|215:102|248:84|284:77,1,140,10|0,0:0|1:0,0:0:0:0:
348,9,150921,2,0,P|384:3|420:3,2,70,12|2|8,0:0|1:2|0:0,0:0:0:0:
406,105,151436,6,0,P|431:153|389:232,1,140,6|2,1:2|1:2,0:0:0:0:
325,292,151950,1,10,0:0:0:0:
273,209,152121,1,2,1:2:0:0:
273,209,152207,1,2,1:2:0:0:
273,209,152293,2,0,P|226:201|182:199,2,70,2|0|8,1:2|1:0|0:0,0:0:0:0:
140,123,152807,2,0,P|113:171|128:277,1,140,6|10,1:2|0:0,0:0:0:0:
174,333,153321,1,10,0:0:0:0:
174,333,153493,1,2,1:2:0:0:
89,374,153664,2,0,L|42:366,3,35,10|8|8|8,0:0|0:0|0:0|0:0,0:0:0:0:
34,365,154007,1,10,0:0:0:0:
15,257,154179,1,10,0:0:0:0:
15,257,154264,1,10,0:0:0:0:
15,257,154350,6,0,P|10:198|83:155,1,140,6|0,1:2|1:0,0:0:0:0:
187,142,154864,2,0,B|167:188|162:242|162:242|135:199,1,140,14|0,0:0|0:0,0:0:0:0:
134,330,155379,2,0,P|207:317|286:311,1,140,10|0,0:0|1:0,0:0:0:0:
342,242,155893,2,0,P|331:208|316:176,1,70,14|0,0:0|1:0,0:0:0:0:
283,84,156236,1,8,0:0:0:0:
292,65,156321,1,8,0:0:0:0:
303,47,156407,1,2,1:2:0:0:
201,52,156579,2,0,L|158:42,4,35,8|8|8|8|4,0:0|0:0|0:3|0:3|0:3,0:0:0:0:
303,47,157093,6,0,P|344:42|381:34,1,70,12|0,0:0|0:0,0:0:0:0:
499,134,157436,2,0,P|464:127|429:123,1,70,10|10,0:0|0:0,0:0:0:0:
349,190,157779,1,10,0:0:0:0:
349,190,157950,1,10,0:0:0:0:
424,280,158121,1,10,0:0:0:0:
424,280,158293,1,10,0:0:0:0:
316,364,158464,6,0,P|263:347|182:346,2,105,14|10|10,0:0|0:0|0:0,0:0:0:0:
293,262,159150,2,0,P|345:257|394:240,2,105,2|2|10,1:2|1:2|0:0,0:0:0:0:
262,236,159750,1,10,0:0:0:0:
262,236,159836,6,0,P|244:166|279:117,1,112,6|2,1:2|0:0,0:0:0:0:
306,69,160350,1,0,1:0:0:0:
239,27,160521,2,0,L|124:18,1,112,8|2,0:0|0:0,0:0:0:0:
63,87,161036,1,8,0:0:0:0:
63,87,161121,1,8,0:0:0:0:
63,87,161207,2,0,P|77:134|82:182,2,84,0|0|0,1:0|1:0|1:0,0:0:0:0:
127,18,161893,1,10,0:0:0:0:
31,12,162064,2,0,L|3:9,2,28,2|0|8,1:2|1:0|0:0,0:0:0:0:
127,18,162407,1,0,1:0:0:0:
70,105,162579,6,0,P|48:152|61:246,1,140,14|0,0:0|1:0,0:0:0:0:
146,178,163093,2,0,B|191:163|228:133|228:133|254:156|271:167,1,140,14|0,0:0|0:0,0:0:0:0:
327,237,163607,1,6,1:2:0:0:
396,166,163779,1,8,0:0:0:0:
396,166,163864,1,8,0:0:0:0:
396,166,163950,1,8,0:0:0:0:
457,242,164121,6,0,P|446:286|441:325,1,70,6|8,1:2|0:0,0:0:0:0:
327,237,164464,1,0,1:0:0:0:
396,166,164636,2,0,P|390:131|381:97,1,70,8|4,0:3|0:3,0:0:0:0:
318,22,164979,1,10,0:0:0:0:
230,101,165150,1,10,0:0:0:0:
230,101,165236,1,10,0:0:0:0:
230,101,165321,6,0,P|189:104|126:31,1,140,6|10,1:2|0:0,0:0:0:0:
112,167,165836,1,2,1:2:0:0:
112,167,165921,1,2,1:2:0:0:
112,167,166007,2,0,P|105:224|93:310,1,140,2|10,1:2|0:0,0:0:0:0:
180,379,166521,1,6,0:0:0:0:
241,302,166693,2,0,B|278:270|305:263|305:263|328:280|379:292,1,140,0|10,0:0|0:0,0:0:0:0:
453,344,167207,1,2,0:0:0:0:
453,344,167379,2,0,P|441:376|437:403,2,35,0|8|0,1:0|0:0|0:0,0:0:0:0:
448,228,167721,2,0,P|413:222|381:209,1,70,8|2,0:0|0:0,0:0:0:0:
452,97,168064,6,0,L|403:109,3,35,6|0|0|0,3:2|3:0|3:0|3:0,0:0:0:0:
390,65,168407,2,0,L|341:53,3,35,2|0|0|0,3:2|3:0|3:0|3:0,0:0:0:0:
319,87,168750,2,0,L|286:95,3,35,2|0|0|0,3:2|3:0|3:0|3:0,0:0:0:0:
256,51,169093,2,0,L|222:43,3,35,2|0|0|0,3:2|3:0|3:0|3:0,0:0:0:0:
186,40,169436,6,0,B|158:77|142:162|142:162|100:107|76:104,1,210,2|2,3:2|1:2,0:0:0:0:
85,107,170036,1,2,1:2:0:0:
85,107,170121,1,2,1:2:0:0:
67,19,170293,1,8,0:0:0:0:
67,19,170379,1,8,0:0:0:0:
67,19,170464,2,0,L|21:8,3,35,8|8|8|8,0:0|0:0|0:0|0:0,0:0:0:0:
10,7,170807,5,6,1:2:0:0:
93,115,170979,1,10,0:0:0:0:
113,110,171064,1,10,0:0:0:0:
133,105,171150,1,10,0:0:0:0:
2,172,171321,1,10,0:0:0:0:
121,312,171664,5,2,1:2:0:0:
195,247,171836,1,10,0:0:0:0:
195,247,171921,1,10,0:0:0:0:
195,247,172007,6,0,P|241:239|298:305,1,140,14|10,0:0|0:0,0:0:0:0:
403,359,172521,2,0,P|394:326|389:276,1,70,2|8,1:2|0:3,0:0:0:0:
479,273,172864,2,0,P|488:239|494:205,1,70,8|4,0:3|0:3,0:0:0:0:
469,169,173121,1,4,0:3:0:0:
469,169,173207,2,0,P|459:135|455:100,1,70,4|0,0:3|0:0,0:0:0:0:
413,21,173550,6,0,P|353:6|287:68,1,140,14|4,1:2|0:3,0:0:0:0:
201,72,174064,2,0,P|216:135|229:211,1,140,14|4,1:2|0:3,0:0:0:0:
341,190,174579,1,10,0:0:0:0:
341,190,174664,1,10,0:0:0:0:
341,190,174750,6,0,P|326:253|313:329,1,140,14|14,0:0|0:0,0:0:0:0:
434,276,175264,1,2,1:2:0:0:
434,276,175436,1,14,0:0:0:0:
207,346,175779,1,10,0:0:0:0:
207,346,175950,1,10,0:0:0:0:
341,190,176293,5,6,1:2:0:0:
188,139,187264,6,0,P|154:184|177:268,1,125.999996154785,6|0,1:2|1:0,0:0:0:0:
226,311,187779,2,0,P|257:302|289:296,2,62.9999980773926,2|0|0,1:2|1:0|1:0,0:0:0:0:
148,354,188293,2,0,P|102:365|30:308,1,125.999996154785,2|0,1:2|1:0,0:0:0:0:
8,148,188979,1,0,1:0:0:0:
80,98,189150,1,0,1:0:0:0:
80,98,189236,1,0,1:0:0:0:
80,98,189321,2,0,P|113:107|141:114,1,62.9999980773926,2|0,1:2|0:0,0:0:0:0:
175,32,189664,2,0,P|205:24|235:16,1,62.9999980773926,10|2,0:0|0:0,0:0:0:0:
304,71,190007,6,0,B|337:128|337:128|320:195,1,125.999996154785,2|0,1:2|1:0,0:0:0:0:
293,269,190521,1,2,0:0:0:0:
293,269,190693,2,0,P|237:264|178:331,2,125.999996154785,0|2|0,1:0|1:2|1:0,0:0:0:0:
356,331,191550,1,2,0:0:0:0:
356,331,191721,2,0,P|396:326|433:321,1,62.9999980773926,0|0,1:0|1:0,0:0:0:0:
489,239,192064,2,0,P|449:234|412:229,1,62.9999980773926,2|0,1:2|0:0,0:0:0:0:
361,136,192407,1,10,0:0:0:0:
361,136,192750,6,0,B|368:45|368:45|400:79,2,125.999996154785,6|0|0,1:2|1:0|1:0,0:0:0:0:
242,58,193779,1,2,1:2:0:0:
242,58,193950,2,0,P|185:79|173:154,1,125.999996154785,2|0,0:0|0:0,0:0:0:0:
208,216,194464,2,0,P|197:256|192:299,1,62.9999980773926,2|0,1:2|0:0,0:0:0:0:
120,361,194807,2,0,P|114:329|105:299,1,62.9999980773926,2|0,1:2|0:0,0:0:0:0:
44,236,195150,2,0,P|49:204|58:174,1,62.9999980773926,10|0,0:0|0:0,0:0:0:0:
55,73,195493,6,0,P|91:82|130:85,1,62.9999980773926,14|0,1:2|0:0,0:0:0:0:
236,0,195836,2,0,P|204:3|174:11,1,62.9999980773926,2|0,1:2|0:0,0:0:0:0:
248,96,196179,2,0,P|278:104|309:107,1,62.9999980773926,2|0,1:2|0:0,0:0:0:0:
407,5,196521,2,0,P|375:8|345:16,1,62.9999980773926,2|0,1:2|0:0,0:0:0:0:
427,99,196864,5,10,1:2:0:0:
473,174,197036,1,10,0:0:0:0:
427,249,197207,1,10,1:2:0:0:
471,325,197379,1,10,0:0:0:0:
394,367,197550,1,10,1:2:0:0:
326,310,197721,1,10,0:0:0:0:
248,352,197893,1,10,1:2:0:0:
170,309,198064,5,10,0:2:0:0:
107,85,198921,5,2,0:0:0:0:
107,85,199607,6,0,B|156:91|193:96|193:96|236:75|249:54,1,140,6|10,1:2|0:0,0:0:0:0:
312,3,200121,1,2,1:2:0:0:
312,3,200207,1,2,1:2:0:0:
312,3,200293,2,0,P|353:9|386:14,1,70,2|2,1:2|1:2,0:0:0:0:
444,104,200636,2,0,P|403:110|370:115,1,70,10|2,0:0|0:0,0:0:0:0:
319,195,200979,6,0,P|325:236|330:269,1,70,2|0,1:2|1:0,0:0:0:0:
421,295,201321,2,0,P|415:329|410:364,1,70,10|0,0:0|0:0,0:0:0:0:
329,264,201664,2,0,P|295:247|254:245,1,70,2|0,1:2|1:0,0:0:0:0:
421,295,202007,2,0,P|455:290|486:274,1,70,10|0,0:0|0:0,0:0:0:0:
421,195,202350,6,0,B|407:153|375:101|375:101|434:132,1,140,0|8,1:0|0:0,0:0:0:0:
477,49,202864,1,0,1:0:0:0:
477,49,202950,1,0,1:0:0:0:
477,49,203036,1,0,1:0:0:0:
371,23,203207,1,0,1:0:0:0:
371,23,203379,2,0,P|327:30|305:53,1,70,10|0,0:0|0:0,0:0:0:0:
260,131,203721,6,0,P|272:177|281:214,2,70,0|0|10,1:0|1:0|0:0,0:0:0:0:
191,50,204236,2,0,P|195:33|199:16,2,35,2|2|2,1:2|1:2|1:2,0:0:0:0:
102,111,204579,1,8,0:0:0:0:
102,111,204664,1,8,0:0:0:0:
102,111,204750,2,0,L|65:103,3,35,8|8|8|8,0:0|0:0|0:0|0:0,0:0:0:0:
124,153,205093,6,0,P|133:190|136:231,1,70,6|0,1:2|0:0,0:0:0:0:
178,327,205436,2,0,P|143:323|109:315,1,70,8|2,0:0|0:0,0:0:0:0:
230,243,205779,2,0,P|232:208|242:175,1,70,2|0,1:2|0:0,0:0:0:0:
328,268,206121,2,0,P|363:264|397:256,1,70,10|2,0:0|0:0,0:0:0:0:
385,165,206464,1,0,1:0:0:0:
337,78,206636,1,2,0:0:0:0:
433,91,206807,2,0,P|472:99|513:103,1,70,8|2,0:0|0:0,0:0:0:0:
417,4,207150,1,0,1:0:0:0:
337,78,207321,1,10,0:0:0:0:
337,78,207407,1,8,0:0:0:0:
337,78,207493,1,8,0:0:0:0:
261,4,207664,6,0,B|241:36|230:105|230:105|205:65,1,140,14|2,0:0|1:2,0:0:0:0:
144,4,208179,1,10,0:0:0:0:
38,77,208350,2,0,L|73:71,2,35,10|10|10,1:2|0:0|0:0,0:0:0:0:
105,163,208693,1,8,0:3:0:0:
105,163,208779,1,8,0:3:0:0:
105,163,208864,1,4,0:3:0:0:
105,163,208950,1,4,0:3:0:0:
105,163,209036,6,0,P|124:202|89:293,1,140,14|2,0:2|1:2,0:0:0:0:
12,379,209550,2,0,P|50:371|98:367,1,70,10|0,0:0|0:0,0:0:0:0:
187,315,209893,1,10,0:0:0:0:
102,251,210064,1,8,0:0:0:0:
102,251,210579,6,0,P|109:201|118:170,1,70,6|0,1:2|0:0,0:0:0:0:
16,58,210921,2,0,P|24:92|28:126,1,70,10|0,0:0|0:0,0:0:0:0:
191,98,211264,2,0,P|149:87|117:73,2,70,2|2|10,1:2|1:2|0:0,0:0:0:0:
270,39,211779,1,2,0:0:0:0:
334,112,211950,6,0,P|352:144|309:245,2,140,2|10|2,1:2|0:0|1:2,0:0:0:0:
270,39,212807,1,0,1:0:0:0:
270,39,212979,2,0,P|302:26|336:17,1,70,10|0,0:0|0:0,0:0:0:0:
426,94,213321,6,0,B|451:122|478:144|478:144|470:187|465:239,1,140,0|8,1:0|0:0,0:0:0:0:
422,298,213836,1,0,1:2:0:0:
422,298,213921,1,0,1:2:0:0:
422,298,214007,2,0,P|435:334|440:369,1,70,0|0,1:2|1:0,0:0:0:0:
316,307,214350,2,0,P|321:272|333:239,1,70,10|0,0:0|0:0,0:0:0:0:
356,122,214693,5,0,1:0:0:0:
268,166,214864,1,8,0:0:0:0:
190,105,215036,1,0,1:0:0:0:
190,105,215207,2,0,L|197:63,2,35,2|2|10,1:2|1:2|0:0,0:0:0:0:
121,176,215550,1,8,0:3:0:0:
123,193,215636,1,8,0:3:0:0:
125,210,215721,1,8,0:3:0:0:
127,228,215807,1,8,0:3:0:0:
129,245,215893,1,4,0:3:0:0:
90,334,216064,6,0,P|126:339|171:329,2,70,12|2|0,0:0|1:2|1:0,0:0:0:0:
129,245,216579,2,0,P|171:227|247:285,1,140,10|2,0:0|0:0,0:0:0:0:
348,354,217093,1,10,0:0:0:0:
325,258,217264,1,2,1:2:0:0:
379,176,217436,5,0,1:0:0:0:
304,112,217607,2,0,B|234:133|234:133|157:103,1,140,10|0,0:0|1:0,0:0:0:0:
109,32,218121,1,12,0:0:0:0:
109,32,218293,1,2,1:2:0:0:
51,110,218464,1,8,0:0:0:0:
107,197,218636,6,0,B|182:181|163:237|247:205,1,140,6|2,1:2|1:2,0:0:0:0:
331,166,219150,1,10,0:0:0:0:
394,240,219321,1,2,1:2:0:0:
394,240,219407,1,2,1:2:0:0:
394,240,219493,2,0,P|383:286|376:323,2,70,2|0|8,1:2|1:0|0:0,0:0:0:0:
483,167,220007,6,0,P|495:116|426:61,1,140,6|10,1:2|0:0,0:0:0:0:
348,105,220521,1,10,0:0:0:0:
303,17,220693,1,2,1:2:0:0:
223,74,220864,2,0,L|173:62,4,35,10|8|8|8|10,0:0|0:0|0:0|0:0|0:0,0:0:0:0:
262,184,221379,1,10,0:0:0:0:
262,184,221464,1,10,0:0:0:0:
262,184,221550,6,0,P|245:228|231:340,1,154.000004699707,14|0,1:2|1:0,0:0:0:0:
337,255,222064,2,0,B|375:270|416:299|416:299|450:279|500:270,1,154.000004699707,14|0,0:0|1:0,0:0:0:0:
430,179,222579,1,14,0:0:0:0:
430,179,222664,1,8,0:0:0:0:
430,179,222750,2,0,P|442:139|460:106,1,77.0000023498536,0|0,1:2|1:0,0:0:0:0:
372,35,223093,2,0,B|334:50|293:79|293:79|259:59|209:50,1,154.000004699707,14|0,0:0|1:0,0:0:0:0:
131,6,223607,2,0,P|86:31|87:120,1,115.50000352478,14|0,0:0|0:0,0:0:0:0:
53,114,223950,2,0,P|108:117|132:180,1,115.50000352478,10|0,0:0|0:0,0:0:0:0:
131,196,224293,6,0,B|114:253|105:308|105:308|66:266,1,154.000004699707,14|0,1:2|1:0,0:0:0:0:
178,369,224807,2,0,P|215:330|312:354,1,154.000004699707,14|0,1:2|1:0,0:0:0:0:
340,240,225321,1,14,0:0:0:0:
340,240,225407,1,8,0:0:0:0:
340,240,225493,1,0,1:0:0:0:
427,318,225664,1,0,1:0:0:0:
481,230,225836,6,0,P|471:195|460:156,1,70,8|2,0:0|1:2,0:0:0:0:
409,79,226179,2,0,P|414:61|419:42,2,35,2|2|10,1:2|1:2|0:0,0:0:0:0:
322,133,226521,1,4,0:3:0:0:
305,128,226607,1,4,0:3:0:0:
288,123,226693,1,8,0:3:0:0:
271,119,226779,1,8,0:3:0:0:
255,114,226864,1,4,0:3:0:0:
170,57,227036,6,0,P|174:22|211:-2,2,70,14|0|0,0:0|1:0|1:0,0:0:0:0:
90,162,227550,2,0,P|139:145|206:211,1,140,10|0,0:0|0:0,0:0:0:0:
146,336,228064,2,0,P|141:301|143:267,2,70,14|0|0,0:0|1:0|1:0,0:0:0:0:
254,296,228579,2,0,P|315:310|372:239,1,140,10|0,0:0|1:0,0:0:0:0:
391,176,229093,2,0,P|381:137|360:105,2,70,12|2|8,0:0|1:2|0:0,0:0:0:0:
290,42,229607,6,0,B|329:58|366:79|366:79|398:61|436:56,1,140,6|2,1:2|1:2,0:0:0:0:
492,24,230121,1,10,0:0:0:0:
388,187,230464,2,0,P|402:222|408:263,2,70,2|2|8,1:2|1:2|0:0,0:0:0:0:
303,238,230979,2,0,B|262:254|239:282|239:282|192:254|192:253|157:250,1,140,6|10,1:2|0:0,0:0:0:0:
123,176,231493,2,0,P|129:134|143:100,1,70,10|0,0:0|1:0,0:0:0:0:
262,71,231836,2,0,L|210:61,4,35,10|8|8|8|8,0:0|0:0|0:0|0:0|0:0,0:0:0:0:
280,186,232350,1,8,0:0:0:0:
280,186,232436,1,8,0:0:0:0:
280,186,232521,6,0,P|249:223|161:215,1,140,6|8,1:2|0:0,0:0:0:0:
105,140,233036,1,0,1:2:0:0:
105,140,233121,1,0,1:2:0:0:
105,140,233207,2,0,P|111:95|106:52,2,70,0|0|8,1:2|1:0|0:0,0:0:0:0:
35,209,233721,2,0,P|26:265|98:337,1,140,0|0,1:0|1:0,0:0:0:0:
152,270,234236,2,0,P|188:278|227:289,1,70,8|0,0:0|0:0,0:0:0:0:
273,370,234579,1,0,1:0:0:0:
273,370,234750,1,0,1:0:0:0:
334,292,234921,2,0,P|326:256|315:217,1,70,8|0,0:0|1:0,0:0:0:0:
384,87,235264,5,2,1:2:0:0:
304,144,235436,2,0,P|262:161|167:123,1,140,2|2,0:0|1:2,0:0:0:0:
105,65,235950,2,0,P|148:41|192:31,2,70,0|2|10,1:0|1:2|0:0,0:0:0:0:
95,163,236464,2,0,B|88:203|76:229|76:229|95:259|117:296,1,140,2|2,1:2|1:2,0:0:0:0:
114,290,236893,1,2,1:2:0:0:
114,290,236979,1,10,0:0:0:0:
178,364,237150,1,8,0:0:0:0:
356,283,237493,2,0,L|392:289,2,35,10|10|10,0:0|0:0|0:0,0:0:0:0:
291,210,237836,1,10,0:0:0:0:
291,210,237921,1,10,0:0:0:0:
291,210,238007,6,0,P|281:175|316:75,2,140,6|8|0,1:2|0:0|1:0,0:0:0:0:
252,326,238864,2,0,P|289:311|321:300,1,70,0|10,1:0|0:0,0:0:0:0:
397,361,239207,2,0,B|423:333|458:314|458:314|439:282|434:249,1,140,6|0,1:2|1:0,0:0:0:0:
384,173,239721,1,8,0:0:0:0:
431,88,239893,1,2,1:2:0:0:
431,88,239979,1,2,1:2:0:0:
431,88,240064,2,0,P|438:50|430:7,2,70,2|2|10,1:2|1:2|0:0,0:0:0:0:
384,173,240579,1,2,1:2:0:0:
293,108,240750,6,0,B|258:97|230:68|230:68|200:59|158:101,1,140,6|10,1:2|0:0,0:0:0:0:
207,181,241264,2,0,L|199:223,2,35,2|2|10,1:2|1:2|0:0,0:0:0:0:
120,271,241607,1,10,0:0:0:0:
120,271,241779,1,10,0:0:0:0:
218,348,241950,6,0,P|284:338|381:336,1,140,6|10,1:2|0:0,0:0:0:0:
443,272,242464,1,2,1:2:0:0:
320,161,242636,2,0,B|339:203|342:261|342:261|367:223,1,140,8|4,0:3|0:3,0:0:0:0:
427,137,243150,2,0,L|418:100,3,35,8|8|8|8,0:0|0:0|0:0|0:0,0:0:0:0:
407,61,243493,6,0,P|337:41|288:92,1,140,6|0,1:2|0:0,0:0:0:0:
243,165,244007,2,0,P|248:211|241:265,1,70,2|14,1:2|0:0,0:0:0:0:
190,314,244350,1,2,1:2:0:0:
190,314,244436,1,0,1:0:0:0:
190,314,244521,1,12,0:0:0:0:
305,361,244693,1,10,0:0:0:0:
305,361,244779,1,10,0:0:0:0:
305,361,244864,6,0,P|349:318|425:345,2,125.999996154785,14|14|14,0:0|0:0|0:0,0:0:0:0:
190,314,245550,2,0,P|100:292|43:284,2,125.999996154785,2|2|2,1:2|1:2|1:2,0:0:0:0:
333,175,246921,5,2,0:0:0:0:
