osu file format v14

[General]
AudioFilename: audio.mp3
AudioLeadIn: 0
PreviewTime: 53555
Countdown: 0
SampleSet: Normal
StackLeniency: 0.7
Mode: 1
LetterboxInBreaks: 0
WidescreenStoryboard: 1

[Editor]
Bookmarks: 40024
DistanceSpacing: 1.4
BeatDivisor: 4
GridSize: 32
TimelineZoom: 1.4

[Metadata]
Title:Howling (TV Size)
TitleUnicode:Howling (TV Size)
Artist:ASCA
ArtistUnicode:ASCA
Creator:tadahitotsu
Version:Desire
Source:魔法科高校の劣等生 来訪者編
Tags:at Magic High School: Visitor Arc 2nd Season Mahouka Koukou no Rettousei: Raihousha-hen The Irregular Anime Opening 司波深雪 Shiba Miyuki Japanese Rock Jrock J-rock
BeatmapID:3228265
BeatmapSetID:1580983

[Difficulty]
HPDrainRate:5
CircleSize:5
OverallDifficulty:5
ApproachRate:10
SliderMultiplier:1.4
SliderTickRate:1

[Events]
//Background and Video events
0,0,"bg.jpg",0,100
//Break Periods
//Storyboard Layer 0 (Background)
//Storyboard Layer 1 (Fail)
//Storyboard Layer 2 (Pass)
//Storyboard Layer 3 (Foreground)
//Storyboard Layer 4 (Overlay)
//Storyboard Sound Samples

[TimingPoints]
1423,419.58041958042,4,1,0,40,1,0
1423,-111.111111111111,4,1,0,40,0,0
3101,419.58041958042,4,1,0,40,1,0
3101,-111.111111111111,4,1,0,40,0,0
13170,419.58041958042,4,1,0,50,1,0
13170,-100,4,1,0,50,0,0
19463,-98.0392156862745,4,1,0,50,0,0
19568,-96.1538461538461,4,1,0,50,0,0
19673,-94.3396226415094,4,1,0,50,0,0
19778,-92.5925925925926,4,1,0,50,0,0
19883,-90.9090909090909,4,1,0,70,0,1
26176,-92.5925925925926,4,1,0,70,0,1
26281,-94.3396226415094,4,1,0,70,0,1
26386,-96.1538461538461,4,1,0,70,0,1
26491,-98.0392156862745,4,1,0,70,0,1
26596,-100,4,1,0,50,0,0
54918,-83.3333333333333,4,1,0,50,0,0
55023,-80,4,1,0,50,0,0
55128,419.58041958042,4,1,0,70,1,1
55128,-76.9230769230769,4,1,0,70,0,1
81981,-90.9090909090909,4,1,0,60,0,0
85337,419.58041958042,4,1,0,60,1,0

[HitObjects]
106,211,583,6,0,L|408:168,1,280
215,181,3101,1,8,0:0:0:0:
215,181,3415,1,0,0:0:0:0:
215,181,3730,1,0,0:0:0:0:
142,151,4359,1,0,0:0:0:0:
215,181,4779,1,8,0:0:0:0:
215,181,5094,1,8,0:0:0:0:
215,181,5408,1,0,0:0:0:0:
142,151,6038,1,0,0:0:0:0:
215,181,6457,1,8,0:0:0:0:
215,181,6772,1,0,0:0:0:0:
215,181,7087,1,0,0:0:0:0:
142,151,7716,1,0,0:0:0:0:
215,181,8135,1,8,0:0:0:0:
215,181,8450,1,8,0:0:0:0:
215,181,8765,1,0,0:0:0:0:
142,151,9394,1,0,0:0:0:0:
215,181,9814,1,8,0:0:0:0:
215,181,10128,1,0,0:0:0:0:
215,181,10443,1,0,0:0:0:0:
142,151,11073,1,0,0:0:0:0:
238,197,13170,1,0,0:0:0:0:
345,193,13379,1,8,0:0:0:0:
345,193,13484,1,8,0:0:0:0:
345,193,13694,1,0,0:0:0:0:
99,140,13799,1,8,0:0:0:0:
345,193,14009,1,8,0:0:0:0:
99,140,14114,1,0,0:0:0:0:
313,155,14323,1,0,0:0:0:0:
313,155,14428,1,8,0:0:0:0:
313,155,14533,1,8,0:0:0:0:
313,155,14638,1,0,0:0:0:0:
313,155,14848,1,8,0:0:0:0:
259,151,15058,1,8,0:0:0:0:
179,120,15163,1,8,0:0:0:0:
259,151,15372,1,0,0:0:0:0:
179,120,15477,1,8,0:0:0:0:
235,109,15687,1,8,0:0:0:0:
235,109,15792,1,0,0:0:0:0:
99,122,16107,1,0,0:0:0:0:
99,122,16211,1,8,0:0:0:0:
99,122,16316,1,8,0:0:0:0:
229,134,16526,1,4,0:0:0:0:
229,134,16736,1,8,0:0:0:0:
229,134,16841,1,8,0:0:0:0:
125,118,17051,1,0,0:0:0:0:
125,118,17156,1,8,0:0:0:0:
134,113,17365,1,8,0:0:0:0:
134,113,17470,1,0,0:0:0:0:
187,100,17680,1,0,0:0:0:0:
187,100,17785,1,8,0:0:0:0:
187,100,17890,1,8,0:0:0:0:
187,100,17995,1,0,0:0:0:0:
187,100,18204,1,0,0:0:0:0:
196,137,18414,1,8,0:0:0:0:
196,137,18519,1,8,0:0:0:0:
159,142,18729,1,8,0:0:0:0:
159,142,18834,1,0,0:0:0:0:
213,153,19044,1,8,0:0:0:0:
270,220,19463,1,0,0:0:0:0:
270,220,19568,1,8,0:0:0:0:
270,220,19673,1,0,0:0:0:0:
270,220,19778,1,0,0:0:0:0:
270,220,19883,1,12,0:0:0:0:
196,190,20093,1,8,0:0:0:0:
196,190,20197,1,0,0:0:0:0:
215,132,20407,1,0,0:0:0:0:
215,132,20512,1,8,0:0:0:0:
170,135,20722,1,0,0:0:0:0:
218,125,20932,1,8,0:0:0:0:
218,125,21037,1,0,0:0:0:0:
218,125,21142,1,8,0:0:0:0:
218,124,21246,1,0,0:0:0:0:
218,125,21351,1,8,0:0:0:0:
238,192,21561,1,0,0:0:0:0:
244,187,21771,1,8,0:0:0:0:
244,187,21876,1,0,0:0:0:0:
244,187,22086,1,0,0:0:0:0:
244,187,22190,1,8,0:0:0:0:
144,157,22400,1,0,0:0:0:0:
144,157,22505,1,0,0:0:0:0:
144,157,22610,1,8,0:0:0:0:
254,131,22820,1,8,0:0:0:0:
254,131,22925,1,0,0:0:0:0:
254,131,23030,1,8,0:0:0:0:
225,215,23239,1,12,0:0:0:0:
269,155,23449,1,8,0:0:0:0:
269,155,23554,1,0,0:0:0:0:
227,138,23659,1,8,0:0:0:0:
269,155,23764,1,8,0:0:0:0:
269,155,23869,1,0,0:0:0:0:
148,183,24079,1,0,0:0:0:0:
208,138,24288,1,8,0:0:0:0:
203,137,24498,1,8,0:0:0:0:
203,137,24603,1,0,0:0:0:0:
203,137,24708,1,8,0:0:0:0:
234,110,24918,1,8,0:0:0:0:
170,126,25128,1,8,0:0:0:0:
170,126,25232,1,0,0:0:0:0:
170,126,25442,1,8,0:0:0:0:
170,126,25547,1,8,0:0:0:0:
121,131,25757,1,0,0:0:0:0:
243,101,26176,1,8,0:0:0:0:
243,101,26281,1,8,0:0:0:0:
231,140,26386,1,0,0:0:0:0:
368,192,26491,1,0,0:0:0:0:
368,192,26596,1,12,0:0:0:0:
160,160,26806,1,0,0:0:0:0:
160,160,27016,1,8,0:0:0:0:
160,160,27225,1,0,0:0:0:0:
268,169,27435,1,8,0:0:0:0:
268,140,27645,1,8,0:0:0:0:
268,140,27750,1,0,0:0:0:0:
122,130,27960,1,0,0:0:0:0:
122,130,28065,1,8,0:0:0:0:
126,114,28274,1,0,0:0:0:0:
174,145,28484,1,8,0:0:0:0:
134,114,28589,1,0,0:0:0:0:
134,114,28904,1,8,0:0:0:0:
219,117,29323,1,8,0:0:0:0:
344,224,29638,1,0,0:0:0:0:
219,117,29743,1,8,0:0:0:0:
264,163,29953,1,0,0:0:0:0:
264,163,30163,1,8,0:0:0:0:
264,163,30267,1,0,0:0:0:0:
264,163,30477,1,0,0:0:0:0:
264,163,30582,1,8,0:0:0:0:
207,115,31002,1,8,0:0:0:0:
207,115,31316,1,0,0:0:0:0:
207,115,31421,1,8,0:0:0:0:
220,92,31631,1,0,0:0:0:0:
225,78,31841,1,8,0:0:0:0:
225,78,31946,1,0,0:0:0:0:
225,78,32156,1,0,0:0:0:0:
225,78,32260,1,8,0:0:0:0:
220,146,32680,1,8,0:0:0:0:
220,146,32890,1,0,0:0:0:0:
215,182,33309,1,4,0:0:0:0:
241,158,33519,1,8,0:0:0:0:
241,158,33624,1,8,0:0:0:0:
241,158,33729,1,0,0:0:0:0:
241,158,33939,1,8,0:0:0:0:
193,124,34149,1,0,0:0:0:0:
137,137,34358,1,8,0:0:0:0:
137,137,34463,1,0,0:0:0:0:
83,133,34673,1,0,0:0:0:0:
83,133,34778,1,8,0:0:0:0:
83,133,34988,1,0,0:0:0:0:
109,123,35197,1,8,0:0:0:0:
83,133,35302,1,0,0:0:0:0:
139,117,35512,1,8,0:0:0:0:
139,117,35617,1,8,0:0:0:0:
185,117,36037,1,8,0:0:0:0:
185,117,36456,1,8,0:0:0:0:
201,120,36666,1,0,0:0:0:0:
214,118,36876,1,8,0:0:0:0:
215,118,36981,1,0,0:0:0:0:
221,108,37190,1,0,0:0:0:0:
222,108,37295,1,8,0:0:0:0:
140,121,37715,1,8,0:0:0:0:
157,119,38030,1,0,0:0:0:0:
157,119,38135,1,8,0:0:0:0:
86,122,38344,1,8,0:0:0:0:
86,122,38554,1,8,0:0:0:0:
86,122,38659,1,0,0:0:0:0:
139,122,38869,1,0,0:0:0:0:
139,122,38974,1,8,0:0:0:0:
144,126,39183,1,8,0:0:0:0:
123,138,39393,1,0,0:0:0:0:
123,138,39603,1,0,0:0:0:0:
324,200,40023,1,12,0:0:0:0:
272,148,40337,1,8,0:0:0:0:
261,140,40652,1,0,0:0:0:0:
186,126,40862,1,8,0:0:0:0:
195,119,41176,1,8,0:0:0:0:
223,164,41491,1,0,0:0:0:0:
204,130,41701,1,8,0:0:0:0:
205,123,42016,1,8,0:0:0:0:
205,123,42330,1,8,0:0:0:0:
205,123,42540,1,0,0:0:0:0:
213,118,42855,1,0,0:0:0:0:
213,118,42960,1,8,0:0:0:0:
248,110,43170,1,0,0:0:0:0:
248,110,43379,1,12,0:0:0:0:
252,110,43589,1,8,0:0:0:0:
252,110,43694,1,0,0:0:0:0:
212,124,44009,1,0,0:0:0:0:
212,124,44218,1,8,0:0:0:0:
212,124,44428,1,8,0:0:0:0:
212,124,44533,1,0,0:0:0:0:
212,124,44848,1,8,0:0:0:0:
197,173,44953,1,8,0:0:0:0:
212,124,45058,1,0,0:0:0:0:
152,108,45267,1,0,0:0:0:0:
152,108,45372,1,8,0:0:0:0:
168,148,45582,1,0,0:0:0:0:
168,148,45687,1,0,0:0:0:0:
248,134,45897,1,8,0:0:0:0:
248,134,46107,1,0,0:0:0:0:
248,134,46211,1,0,0:0:0:0:
248,134,46316,1,8,0:0:0:0:
255,155,46736,1,4,0:0:0:0:
255,155,46946,1,8,0:0:0:0:
255,155,47051,1,0,0:0:0:0:
255,155,47365,1,8,0:0:0:0:
133,144,47785,1,0,0:0:0:0:
145,139,47995,1,8,0:0:0:0:
145,139,48204,1,0,0:0:0:0:
145,139,48309,1,0,0:0:0:0:
145,139,48414,1,8,0:0:0:0:
99,122,48624,1,8,0:0:0:0:
99,122,48729,1,0,0:0:0:0:
99,122,48939,1,0,0:0:0:0:
99,122,49044,1,8,0:0:0:0:
202,117,49253,1,0,0:0:0:0:
202,117,49463,1,0,0:0:0:0:
202,117,49673,1,8,0:0:0:0:
202,117,49883,1,8,0:0:0:0:
187,123,49988,1,8,0:0:0:0:
186,124,50093,1,4,0:0:0:0:
139,209,50512,1,0,0:0:0:0:
139,209,50722,1,8,0:0:0:0:
252,158,50827,1,8,0:0:0:0:
139,209,50932,1,0,0:0:0:0:
139,209,51142,1,0,0:0:0:0:
139,209,51351,1,8,0:0:0:0:
139,209,51561,1,8,0:0:0:0:
139,209,51771,1,8,0:0:0:0:
230,125,51876,1,0,0:0:0:0:
264,116,51981,1,0,0:0:0:0:
264,116,52190,1,8,0:0:0:0:
230,125,52295,1,8,0:0:0:0:
264,116,52400,1,0,0:0:0:0:
264,116,52610,1,0,0:0:0:0:
264,116,52715,1,0,0:0:0:0:
264,116,52820,1,0,0:0:0:0:
264,116,52925,1,0,0:0:0:0:
264,116,53030,1,8,0:0:0:0:
264,116,53135,1,8,0:0:0:0:
264,116,53239,1,8,0:0:0:0:
109,160,53344,1,8,0:0:0:0:
145,191,54918,1,0,0:0:0:0:
145,191,55023,1,0,0:0:0:0:
266,188,55128,1,12,0:0:0:0:
206,134,55337,1,8,0:0:0:0:
206,134,55547,1,0,0:0:0:0:
206,134,55757,1,8,0:0:0:0:
206,134,55862,1,0,0:0:0:0:
375,160,56176,1,8,0:0:0:0:
179,119,56386,1,0,0:0:0:0:
179,119,56491,1,0,0:0:0:0:
179,119,56596,1,8,0:0:0:0:
192,115,56806,1,8,0:0:0:0:
198,89,57016,1,8,0:0:0:0:
124,108,57225,1,0,0:0:0:0:
124,108,57435,1,8,0:0:0:0:
124,108,57540,1,0,0:0:0:0:
205,157,57750,1,0,0:0:0:0:
108,118,57855,1,8,0:0:0:0:
121,125,58065,1,8,0:0:0:0:
300,94,58169,1,0,0:0:0:0:
121,125,58274,1,8,0:0:0:0:
261,133,58379,1,8,0:0:0:0:
121,125,58484,1,0,0:0:0:0:
194,116,58694,1,8,0:0:0:0:
194,116,58904,1,8,0:0:0:0:
179,111,59114,1,8,0:0:0:0:
369,208,59218,1,0,0:0:0:0:
290,148,59323,1,0,0:0:0:0:
256,148,59533,1,8,0:0:0:0:
189,139,59638,1,0,0:0:0:0:
105,137,59848,1,0,0:0:0:0:
105,137,59953,1,8,0:0:0:0:
208,123,60162,1,0,0:0:0:0:
221,111,60372,1,8,0:0:0:0:
221,111,60582,1,8,0:0:0:0:
245,153,60687,1,0,0:0:0:0:
221,111,60792,1,8,0:0:0:0:
221,111,61002,1,0,0:0:0:0:
221,111,61211,1,8,0:0:0:0:
221,111,61316,1,8,0:0:0:0:
167,157,61421,1,0,0:0:0:0:
221,111,61841,1,12,0:0:0:0:
239,105,62051,1,8,0:0:0:0:
235,113,62260,1,0,0:0:0:0:
235,113,62470,1,8,0:0:0:0:
235,113,62575,1,0,0:0:0:0:
203,167,62785,1,0,0:0:0:0:
201,105,62890,1,8,0:0:0:0:
150,113,63100,1,8,0:0:0:0:
154,88,63204,1,8,0:0:0:0:
154,88,63309,1,8,0:0:0:0:
152,88,63519,1,0,0:0:0:0:
130,117,63729,1,0,0:0:0:0:
130,115,63939,1,8,0:0:0:0:
130,115,64044,1,8,0:0:0:0:
130,117,64148,1,8,0:0:0:0:
130,117,64358,1,0,0:0:0:0:
117,112,64568,1,8,0:0:0:0:
106,100,64778,1,0,0:0:0:0:
228,158,64988,1,8,0:0:0:0:
228,158,65197,1,8,0:0:0:0:
192,133,65407,1,8,0:0:0:0:
192,133,65512,1,8,0:0:0:0:
217,191,65617,1,0,0:0:0:0:
241,116,65722,1,0,0:0:0:0:
159,133,65827,1,8,0:0:0:0:
159,133,66037,1,0,0:0:0:0:
66,138,66246,1,8,0:0:0:0:
66,138,66351,1,8,0:0:0:0:
66,138,66456,1,4,0:0:0:0:
110,114,66876,1,0,0:0:0:0:
120,102,67086,1,8,0:0:0:0:
120,102,67295,1,8,0:0:0:0:
121,140,67400,1,0,0:0:0:0:
276,96,67610,1,8,0:0:0:0:
162,88,67715,1,0,0:0:0:0:
172,142,67925,1,0,0:0:0:0:
172,142,68134,1,8,0:0:0:0:
229,129,68344,1,8,0:0:0:0:
172,142,68449,1,8,0:0:0:0:
172,142,68554,1,4,0:0:0:0:
289,95,68764,1,8,0:0:0:0:
252,93,68974,1,8,0:0:0:0:
252,93,69079,1,0,0:0:0:0:
166,123,69288,1,8,0:0:0:0:
181,146,69393,1,0,0:0:0:0:
258,170,69603,1,8,0:0:0:0:
251,158,69813,1,0,0:0:0:0:
251,158,69918,1,0,0:0:0:0:
251,158,70023,1,8,0:0:0:0:
251,158,70232,1,8,0:0:0:0:
227,137,70442,1,8,0:0:0:0:
137,145,70652,1,0,0:0:0:0:
125,136,70757,1,0,0:0:0:0:
125,136,70967,1,8,0:0:0:0:
125,136,71072,1,0,0:0:0:0:
105,126,71281,1,8,0:0:0:0:
180,106,71386,1,0,0:0:0:0:
113,119,71491,1,8,0:0:0:0:
180,106,71596,1,0,0:0:0:0:
113,119,71701,1,8,0:0:0:0:
113,119,71911,1,4,0:0:0:0:
113,119,72121,1,8,0:0:0:0:
113,119,72330,1,8,0:0:0:0:
113,119,72540,1,8,0:0:0:0:
296,121,72645,1,8,0:0:0:0:
113,119,72750,1,0,0:0:0:0:
245,159,72960,1,8,0:0:0:0:
245,159,73065,1,8,0:0:0:0:
182,156,73274,1,0,0:0:0:0:
182,156,73379,1,8,0:0:0:0:
248,142,73589,1,0,0:0:0:0:
261,138,73799,1,8,0:0:0:0:
261,138,73904,1,8,0:0:0:0:
261,138,74009,1,0,0:0:0:0:
205,148,74218,1,0,0:0:0:0:
205,148,74428,1,8,0:0:0:0:
81,128,74638,1,8,0:0:0:0:
132,144,74743,1,0,0:0:0:0:
156,134,74848,1,0,0:0:0:0:
259,149,75267,1,12,0:0:0:0:
259,149,75477,1,8,0:0:0:0:
259,149,75687,1,0,0:0:0:0:
259,149,75897,1,8,0:0:0:0:
259,149,76002,1,0,0:0:0:0:
167,121,76211,1,0,0:0:0:0:
167,121,76316,1,0,0:0:0:0:
177,119,76526,1,8,0:0:0:0:
177,119,76631,1,8,0:0:0:0:
177,119,76736,1,8,0:0:0:0:
177,119,76841,1,0,0:0:0:0:
177,119,76946,1,0,0:0:0:0:
265,108,77155,1,0,0:0:0:0:
265,108,77365,1,8,0:0:0:0:
265,108,77470,1,8,0:0:0:0:
265,108,77575,1,8,0:0:0:0:
265,108,77680,1,0,0:0:0:0:
265,108,77785,1,0,0:0:0:0:
85,135,77995,1,8,0:0:0:0:
168,100,78204,1,0,0:0:0:0:
181,97,78414,1,8,0:0:0:0:
181,97,78624,1,0,0:0:0:0:
239,119,78729,1,0,0:0:0:0:
239,119,78834,1,8,0:0:0:0:
155,120,79044,1,8,0:0:0:0:
206,108,79253,1,8,0:0:0:0:
206,108,79358,1,8,0:0:0:0:
206,108,79463,1,0,0:0:0:0:
121,130,79673,1,8,0:0:0:0:
224,146,79883,1,0,0:0:0:0:
224,146,79988,1,0,0:0:0:0:
252,104,80197,1,8,0:0:0:0:
252,104,80302,1,8,0:0:0:0:
128,100,80512,1,0,0:0:0:0:
128,100,80617,1,0,0:0:0:0:
128,100,80722,1,8,0:0:0:0:
95,120,80932,1,8,0:0:0:0:
101,118,81141,1,8,0:0:0:0:
99,118,81246,1,0,0:0:0:0:
200,117,81456,1,8,0:0:0:0:
200,117,81561,1,0,0:0:0:0:
200,117,81771,1,8,0:0:0:0:
200,117,81981,1,4,0:0:0:0:
228,111,82400,1,0,0:0:0:0:
228,111,82610,1,8,0:0:0:0:
228,111,82820,1,8,0:0:0:0:
228,111,83030,1,0,0:0:0:0:
228,111,83239,1,8,0:0:0:0:
228,111,83449,1,8,0:0:0:0:
178,177,83554,1,0,0:0:0:0:
228,111,83659,1,0,0:0:0:0:
222,95,85128,1,0,0:0:0:0:
222,95,85232,1,0,0:0:0:0:
181,137,85337,1,8,0:0:0:0:
176,126,85546,1,8,0:0:0:0:
176,126,85651,1,0,0:0:0:0:
289,155,85861,1,8,0:0:0:0:
289,155,85966,1,0,0:0:0:0:
115,137,86385,1,8,0:0:0:0:
115,137,86595,1,8,0:0:0:0:
115,137,86805,1,0,0:0:0:0:
115,137,86910,1,0,0:0:0:0:
115,137,87015,1,8,0:0:0:0:
48,127,87225,1,8,0:0:0:0:
48,127,87330,1,0,0:0:0:0:
95,135,87539,1,8,0:0:0:0:
95,135,87644,1,0,0:0:0:0:
115,111,88064,1,0,0:0:0:0:
115,111,88274,1,8,0:0:0:0:
115,111,88378,1,8,0:0:0:0:
115,111,88483,1,8,0:0:0:0:
115,111,88588,1,8,0:0:0:0:
