osu file format v14

[General]
AudioFilename: audio.mp3
AudioLeadIn: 0
PreviewTime: 53556
Countdown: 0
SampleSet: Soft
StackLeniency: 0.7
Mode: 0
LetterboxInBreaks: 0
WidescreenStoryboard: 0

[Editor]
Bookmarks: 88591
DistanceSpacing: 1.4
BeatDivisor: 4
GridSize: 32
TimelineZoom: 1.3

[Metadata]
Title:Howling (TV Size)
TitleUnicode:Howling (TV Size)
Artist:ASCA
ArtistUnicode:ASCA
Creator:-Aqua
Version:Oniisama
Source:魔法科高校の劣等生 来訪者編
Tags:Shizuku- at Magic High School: Visitor Arc 2nd Season Mahouka Koukou no Rettousei: Raihousha-hen The Irregular Anime Opening 司波深雪 Shiba Miyuki Japanese Rock Jrock J-rock Kazato Asa Mocaotic Akito Alt Alternator little sister imouto oniisama onii-sama
BeatmapID:2646059
BeatmapSetID:1273375

[Difficulty]
HPDrainRate:5.5
CircleSize:4
OverallDifficulty:8.7
ApproachRate:9.4
SliderMultiplier:1.6
SliderTickRate:1

[Events]
//Background and Video events
0,0,"miyuki.jpg",0,0
Video,250,"video.mp4"
//Break Periods
//Storyboard Layer 0 (Background)
//Storyboard Layer 1 (Fail)
//Storyboard Layer 2 (Pass)
//Storyboard Layer 3 (Foreground)
//Storyboard Layer 4 (Overlay)
//Storyboard Sound Samples

[TimingPoints]
-3611,419.58041958042,4,2,1,60,1,0
584,-100,4,2,1,60,0,0
1423,-100,4,2,1,5,0,0
3102,-100,4,2,1,45,0,0
13172,-90.9090909090909,4,2,1,60,0,0
16528,-83.3333333333333,4,2,1,60,0,0
19885,-50,4,2,2,70,0,1
19990,-50,4,2,1,70,0,0
26598,-83.3333333333333,4,2,1,60,0,0
40025,-100,4,2,1,50,0,0
42962,-66.6666666666667,4,2,1,70,0,0
43382,-100,4,2,1,50,0,0
46319,-66.6666666666667,4,2,1,70,0,0
46738,-76.9230769230769,4,2,1,60,0,0
50934,-76.9230769230769,4,2,1,40,0,0
51354,-76.9230769230769,4,2,1,50,0,0
51773,-83.3333333333333,4,2,1,65,0,0
52612,-83.3333333333333,4,2,1,75,0,0
55130,-44.4444444444445,4,2,2,85,0,1
55235,-44.4444444444445,4,2,1,85,0,1
66458,-44.4444444444445,4,2,1,100,0,1
66878,-44.4444444444445,4,2,1,85,0,1
68451,-44.4444444444445,4,2,1,85,0,0
68556,-44.4444444444445,4,2,2,85,0,1
68661,-44.4444444444445,4,2,1,85,0,1
80200,-50,4,2,1,85,0,1
81773,-66.6666666666667,4,2,1,85,0,1
83661,-88.8888888888889,4,2,1,85,0,0
85340,-50,4,2,1,70,0,1
85444,-50,4,2,1,70,0,0

[Colours]
Combo1 : 168,255,190
Combo2 : 171,252,225
Combo3 : 62,255,111
Combo4 : 68,249,190

[HitObjects]
256,192,584,12,0,1423,0:0:0:0:
58,75,3102,6,0,P|94:92|160:100,1,80,2|0,0:0|0:0,0:0:0:0:
252,213,3521,2,0,P|212:220|176:237,1,80
135,308,3836,1,0,0:0:0:0:
135,308,4151,6,0,B|232:316|178:366|287:371,1,160
508,253,4780,6,0,P|466:242|411:214,1,80,2|0,0:0|0:0,0:0:0:0:
305,158,5200,2,0,P|347:147|402:119,1,80
437,29,5514,6,0,P|422:123|412:183,1,120
388,350,6039,1,0,0:0:0:0:
391,354,6249,1,0,0:0:0:0:
490,292,6458,5,2,0:0:0:0:
267,250,6668,1,0,0:0:0:0:
192,300,6878,2,0,P|230:290|267:275,1,80
366,156,7298,6,0,P|315:132|251:128,1,120
199,190,7717,1,0,0:0:0:0:
99,92,7927,1,0,0:0:0:0:
176,38,8137,5,2,0:0:0:0:
91,215,8347,1,0,0:0:0:0:
86,227,8451,1,0,0:0:0:0:
81,240,8556,1,0,0:0:0:0:
34,149,8766,1,0,0:0:0:0:
191,223,8976,6,0,P|237:202|281:193,1,80
312,85,9291,2,0,P|358:106|402:115,1,80
426,187,9605,1,0,0:0:0:0:
512,331,9815,6,0,B|441:337|472:378|394:383,1,120,2|0,0:0|0:0,0:0:0:0:
177,233,10444,6,0,P|232:215|300:194,1,120,2|0,0:0|0:0,0:0:0:0:
358,245,10864,1,0,0:0:0:0:
431,125,11074,2,0,P|449:82|366:14,1,160
318,112,13172,6,0,P|349:102|392:91,2,44.0000013427735,2|0|0,1:2|0:0|0:0,0:0:0:0:
210,260,13486,2,0,P|273:277|311:297,1,88.000002685547,2|0,0:0|0:0,0:0:0:0:
419,358,13801,6,0,P|402:286|390:241,1,88.000002685547,2|0,0:0|0:0,0:0:0:0:
163,182,14116,2,0,P|180:110|192:65,1,88.000002685547,2|0,0:0|0:0,0:0:0:0:
254,47,14430,5,2,0:0:0:0:
266,51,14534,1,2,0:0:0:0:
279,54,14639,1,2,0:0:0:0:
292,57,14744,1,2,0:0:0:0:
348,154,14850,6,0,P|355:174|361:195,2,44.0000013427735,2|0|0,0:0|0:0|0:0,0:0:0:0:
474,26,15165,2,0,P|472:87|463:134,1,88.000002685547,2|0,0:0|0:0,0:0:0:0:
303,50,15479,6,0,B|225:52|256:93|173:96,1,132.00000402832,2|2,0:0|0:0,0:0:0:0:
256,117,15899,1,2,0:0:0:0:
105,311,16109,6,0,P|140:300|169:294,1,44.0000013427735,2|0,0:0|0:0,0:0:0:0:
232,245,16319,2,0,P|197:234|168:228,1,44.0000013427735,2|0,0:0|0:0,0:0:0:0:
48,95,16528,6,0,B|36:131|24:173,1,47.9999985351563,6|0,1:2|0:0,0:0:0:0:
84,198,16738,1,0,0:0:0:0:
2,317,16843,6,0,P|50:299|105:289,1,95.9999970703126,2|0,0:0|0:0,0:0:0:0:
250,157,17158,2,0,P|203:148|159:131,1,95.9999970703126,2|0,0:0|1:0,0:0:0:0:
74,3,17472,6,0,P|64:49|47:94,1,95.9999970703126,2|0,0:0|0:0,0:0:0:0:
114,279,17787,5,2,1:2:0:0:
172,265,17892,1,2,0:2:0:0:
197,213,17997,1,2,0:2:0:0:
166,158,18102,1,2,0:2:0:0:
155,191,18207,6,0,P|172:240|179:257,2,47.9999985351563,0|0|0,1:0|0:0|0:0,0:0:0:0:
34,80,18521,5,2,0:0:0:0:
16,93,18626,1,2,1:2:0:0:
11,115,18731,1,2,0:0:0:0:
19,135,18836,2,0,P|74:115|131:102,1,95.9999970703126,2|0,1:2|3:0,0:0:0:0:
367,238,19256,6,0,P|335:226|316:221,1,47.9999985351563,0|2,3:0|0:0,0:0:0:0:
269,318,19465,5,8,0:0:0:0:
280,294,19570,1,8,0:0:0:0:
179,247,19675,5,8,0:0:0:0:
147,176,19780,1,8,0:0:0:0:
263,96,19885,6,0,P|326:70|356:60,1,80,6|0,1:2|0:0,0:0:0:0:
337,66,20095,1,8,0:0:0:0:
512,251,20200,6,0,B|412:261|481:313|339:333,1,160,2|0,1:2|1:0,0:0:0:0:
280,384,20514,2,0,P|262:340|236:287,1,80,10|0,0:0|0:0,0:0:0:0:
277,142,20724,5,0,0:0:0:0:
346,109,20829,1,0,1:0:0:0:
402,163,20934,2,0,P|385:199|370:236,1,80,8|0,0:0|0:0,0:0:0:0:
122,86,21144,6,0,P|167:67|220:33,1,80,2|0,1:2|1:0,0:0:0:0:
41,206,21354,5,10,0:0:0:0:
41,206,21458,1,0,0:0:0:0:
41,206,21563,2,0,B|131:221|78:273|193:302,1,160,2|8,1:2|0:0,0:0:0:0:
339,98,21878,6,0,B|309:91|289:76|289:76|252:116|250:189,1,160,2|0,1:2|1:0,0:0:0:0:
512,382,22193,6,0,B|467:351|470:283|470:283|442:363|344:363,1,240,10|0,0:0|1:0,0:0:0:0:
325,301,22612,1,10,0:0:0:0:
325,301,22717,1,0,0:0:0:0:
224,208,22822,6,0,P|277:187|338:166,1,80,2|0,1:2|0:0,0:0:0:0:
512,51,23032,5,10,0:0:0:0:
445,12,23137,1,0,0:0:0:0:
391,64,23242,2,0,P|412:117|433:178,1,80,6|0,1:2|0:0,0:0:0:0:
419,138,23451,1,8,0:0:0:0:
512,331,23556,6,0,B|451:307|451:307|351:362,1,160,2|0,1:2|1:0,0:0:0:0:
269,267,23871,2,0,P|284:232|297:192,1,80,10|0,0:0|0:0,0:0:0:0:
510,163,24081,2,0,P|471:150|435:135,1,80,0|0,0:0|1:0,0:0:0:0:
181,170,24291,5,10,0:0:0:0:
123,115,24395,1,0,0:0:0:0:
161,44,24500,2,0,P|199:32|237:17,1,80,2|0,1:2|1:0,0:0:0:0:
363,53,24710,2,0,P|325:65|287:80,1,80,10|0,0:0|0:0,0:0:0:0:
197,287,24920,6,0,B|137:312|137:312|121:346|121:346|65:366,1,160,2|8,1:2|0:0,0:0:0:0:
123,115,25236,6,0,B|115:88|115:88|171:104|189:145|147:226,1,160,2|0,1:2|1:2,0:0:0:0:
451,288,25549,6,0,P|375:293|341:362,1,160,10|0,0:0|3:0,0:0:0:0:
421,384,25864,1,8,0:0:0:0:
421,384,25969,1,0,1:0:0:0:
245,176,26179,6,0,B|342:185|293:236|395:254,1,160,10|8,0:0|0:0,0:0:0:0:
380,250,26493,1,8,0:0:0:0:
499,141,26598,6,0,P|417:159|374:164,1,95.9999970703126,6|10,1:2|0:0,0:0:0:0:
307,55,26913,1,0,0:0:0:0:
286,19,27018,2,0,P|368:37|411:42,1,95.9999970703126,2|8,0:2|0:0,0:0:0:0:
196,233,27437,6,0,P|213:270|222:293,1,47.9999985351563,2|0,0:0|0:0,0:0:0:0:
215,276,27647,1,8,0:0:0:0:
399,364,27752,2,0,B|409:312|409:312|378:255,1,95.9999970703126,2|0,0:0|1:0,0:0:0:0:
326,313,28067,1,10,0:0:0:0:
167,384,28277,6,0,P|76:359|37:351,1,95.9999970703126,2|8,1:2|0:0,0:0:0:0:
0,272,28591,2,0,P|46:260|92:246,1,95.9999970703126,2|0,1:2|0:0,0:0:0:0:
202,307,28906,6,0,P|272:251|241:167,1,191.999994140625,10|8,0:0|0:0,0:0:0:0:
35,53,29535,5,2,0:0:0:0:
35,53,29640,1,0,1:0:0:0:
35,53,29745,2,0,P|46:102|49:126,1,47.9999985351563,10|0,0:0|0:0,0:0:0:0:
177,130,29955,2,0,P|243:109|290:95,1,95.9999970703126,2|8,1:2|0:0,0:0:0:0:
161,232,30270,2,0,P|115:217|69:203,1,95.9999970703126,2|0,0:2|0:0,0:0:0:0:
148,112,30584,6,0,B|263:110|202:178|332:190,1,191.999994140625,10|8,0:0|0:0,0:0:0:0:
474,47,31214,5,2,0:0:0:0:
474,47,31319,1,0,1:0:0:0:
474,47,31423,2,0,P|432:31|405:19,1,47.9999985351563,8|0,0:0|0:0,0:0:0:0:
316,84,31633,2,0,P|336:140|349:198,1,95.9999970703126,2|8,1:2|0:0,0:0:0:0:
485,264,31948,2,0,P|497:217|513:172,1,95.9999970703126,2|0,1:2|1:0,0:0:0:0:
273,230,32263,6,0,P|342:227|379:285,1,143.999995605469,10|0,0:0|0:0,0:0:0:0:
354,306,32682,1,8,0:0:0:0:
497,384,32892,5,2,0:0:0:0:
505,364,32997,1,0,1:0:0:0:
512,348,33102,1,8,3:2:0:0:
300,249,33312,6,0,P|253:264|199:279,1,95.9999970703126,6|8,1:2|0:0,0:0:0:0:
163,361,33626,1,2,0:0:0:0:
163,361,33731,1,0,0:0:0:0:
163,361,33836,1,0,0:0:0:0:
163,361,33941,2,0,P|105:339|81:332,1,47.9999985351563,10|0,0:0|0:0,0:0:0:0:
37,161,34151,6,0,B|85:152|85:152|128:177,1,95.9999970703126,2|10,0:0|0:0,0:0:0:0:
243,75,34465,2,0,B|195:66|195:66|152:91,1,95.9999970703126,2|0,0:0|1:0,0:0:0:0:
238,216,34780,1,10,0:0:0:0:
238,216,34990,6,0,P|301:196|328:189,1,47.9999985351563,2|0,1:2|0:0,0:0:0:0:
416,7,35200,5,8,0:0:0:0:
416,7,35305,2,0,P|368:22|324:34,1,95.9999970703126,2|0,1:2|1:0,0:0:0:0:
457,120,35619,6,0,B|491:143|520:159|520:159|497:224|493:299,1,191.999994140625,10|8,0:0|0:0,0:0:0:0:
312,374,36249,5,2,0:0:0:0:
312,374,36354,1,0,0:0:0:0:
312,374,36458,2,0,P|305:351|289:308,1,47.9999985351563,10|0,0:0|0:0,0:0:0:0:
337,263,36668,6,0,P|297:237|250:242,1,95.9999970703126,2|8,1:2|0:0,0:0:0:0:
137,358,36983,2,0,P|97:383|50:378,1,95.9999970703126,2|0,0:2|0:0,0:0:0:0:
181,126,37298,6,0,P|194:181|219:315,1,191.999994140625,10|8,0:0|0:0,0:0:0:0:
439,0,37927,5,2,0:0:0:0:
439,0,38032,1,0,1:0:0:0:
439,0,38137,2,0,P|431:31|432:78,1,47.9999985351563,10|0,0:0|0:0,0:0:0:0:
451,236,38347,6,0,P|404:219|337:203,1,95.9999970703126,2|8,1:2|0:0,0:0:0:0:
238,58,38661,2,0,P|284:45|329:29,1,95.9999970703126,2|0,1:2|1:0,0:0:0:0:
237,147,38976,6,0,B|113:169|189:225|58:244,1,191.999994140625,6|8,1:2|0:2,0:0:0:0:
19,180,39605,5,8,0:0:0:0:
35,258,39710,5,8,3:0:0:0:
45,303,39815,5,4,3:0:0:0:
53,336,39920,5,0,1:0:0:0:
57,352,40025,6,0,P|107:329|155:315,1,80,6|0,1:2|0:0,0:0:0:0:
233,197,40340,2,0,P|175:181|120:157,1,120,2|0,1:2|1:0,0:0:0:0:
287,283,40864,6,0,P|326:343|317:363,1,80,10|0,0:0|0:0,0:0:0:0:
425,384,41179,2,0,P|432:329|498:301,1,120,10|0,0:0|1:0,0:0:0:0:
512,144,41703,6,0,P|472:152|411:169,1,80,6|0,1:2|0:0,0:0:0:0:
288,93,42018,2,0,P|339:80|419:59,1,120,2|0,1:2|1:0,0:0:0:0:
445,0,42437,1,0,0:0:0:0:
445,0,42542,1,10,0:0:0:0:
390,244,42752,6,0,L|405:286,1,40,0|8,0:0|3:0,0:0:0:0:
481,309,42962,6,2,B|374:321|417:368|323:384,1,180.000006866455,2|0,1:1|0:1,0:1:0:0:
172,316,43382,6,0,P|121:305|116:303,1,40,6|0,1:2|0:0,0:0:0:0:
132,308,43591,1,2,0:0:0:0:
57,368,43696,2,0,P|34:303|12:243,1,120,2|0,1:2|1:0,0:0:0:0:
108,50,44221,6,0,P|125:82|122:108,1,40,10|0,0:0|0:0,0:0:0:0:
125,85,44430,1,2,0:0:0:0:
79,187,44535,2,0,P|143:168|210:153,1,120,10|0,0:0|1:0,0:0:0:0:
252,21,44955,5,0,0:0:0:0:
252,21,45060,2,0,P|213:11|174:-1,1,80,6|0,1:2|1:0,0:0:0:0:
335,135,45375,6,0,B|340:175|340:175|302:234,1,80,2|0,1:2|0:0,0:0:0:0:
318,208,45689,1,2,1:2:0:0:
115,360,45899,6,0,B|93:326|93:326|98:286,1,80,10|0,0:2|1:0,0:0:0:0:
90,209,46179,1,0,1:0:0:0:
100,199,46249,1,0,1:0:0:0:
111,188,46319,6,2,B|187:193|149:228|233:234,1,120.000004577637,2|0,1:1|0:1,0:1:0:0:
341,384,46738,6,0,P|406:359|472:344,1,103.999995239258,6|8,1:2|0:0,0:0:0:0:
512,225,47053,2,0,P|462:210|413:191,1,103.999995239258,6|0,1:2|0:0,0:0:0:0:
340,121,47368,6,0,P|369:194|407:291,1,155.999992858887,6|0,1:2|0:0,0:0:0:0:
397,266,47787,1,2,1:2:0:0:
491,86,47997,6,0,P|527:44|489:-11,1,103.999995239258,8|8,0:0|0:0,0:0:0:0:
439,26,48312,1,8,0:0:0:0:
301,112,48416,6,0,P|288:160|322:195,1,103.999995239258,6|0,1:2|1:0,0:0:0:0:
440,255,48731,2,0,P|415:192|399:153,1,103.999995239258,6|8,1:2|0:0,0:0:0:0:
288,333,49046,6,0,B|186:331|246:390|118:384,1,155.999992858887,6|0,1:2|0:0,0:0:0:0:
123,364,49465,1,4,3:0:0:0:
9,258,49675,6,0,P|70:236|117:221,1,103.999995239258,8|0,0:0|1:0,0:0:0:0:
107,223,49990,1,8,0:0:0:0:
183,280,50095,5,6,1:2:0:0:
183,280,50305,1,0,0:0:0:0:
342,108,50514,5,0,1:0:0:0:
342,108,50724,1,0,0:0:0:0:
157,0,50934,5,8,0:0:0:0:
424,226,51144,1,8,0:0:0:0:
246,317,51354,5,8,0:0:0:0:
438,69,51563,1,8,0:0:0:0:
339,12,51773,5,10,0:0:0:0:
339,12,51878,1,8,0:0:0:0:
339,12,51983,2,0,P|351:48|355:95,1,47.9999985351563,8|8,0:0|0:0,0:0:0:0:
493,178,52193,5,10,0:0:0:0:
493,178,52298,1,8,0:0:0:0:
493,178,52403,2,0,P|499:141|514:98,1,47.9999985351563,8|8,0:0|0:0,0:0:0:0:
316,269,52612,5,10,0:0:0:0:
298,241,52717,1,10,0:0:0:0:
255,228,52822,1,10,0:0:0:0:
203,249,52927,1,10,0:0:0:0:
186,321,53032,1,10,0:0:0:0:
130,378,53137,1,10,0:0:0:0:
54,384,53242,1,10,0:0:0:0:
0,328,53347,1,10,0:0:0:0:
0,328,54920,5,0,1:0:0:0:
0,328,55025,1,0,1:0:0:0:
0,328,55130,2,0,P|49:312|123:294,1,90.0000034332277,6|0,1:2|0:0,0:0:0:0:
152,105,55340,5,10,0:0:0:0:
167,145,55444,1,0,0:0:0:0:
183,183,55549,2,0,P|109:219|45:128,1,180.000006866455,2|8,1:2|0:0,0:0:0:0:
229,348,55864,6,0,B|339:334|291:407|434:380,1,180.000006866455,2|0,0:0|1:0,0:0:0:0:
500,279,56179,2,0,P|444:298|396:309,1,90.0000034332277,10|0,0:0|0:0,0:0:0:0:
263,174,56389,5,0,1:0:0:0:
223,111,56493,1,0,1:0:0:0:
283,60,56598,2,0,P|339:79|387:90,1,90.0000034332277,10|0,0:0|0:0,0:0:0:0:
512,0,56808,6,0,P|493:54|481:95,1,90.0000034332277,2|0,1:2|0:0,0:0:0:0:
329,246,57018,2,0,P|315:202|300:160,1,90.0000034332277,10|0,0:2|0:0,0:0:0:0:
446,298,57228,6,0,B|385:264|385:264|246:326,1,180.000006866455,2|8,1:2|0:0,0:0:0:0:
10,225,57542,6,0,P|44:151|117:186,1,180.000006866455,2|0,1:2|1:0,0:0:0:0:
81,309,57857,2,0,P|22:333|-12:353,1,90.0000034332277,10|0,0:0|0:0,0:0:0:0:
202,378,58067,1,2,1:2:0:0:
202,378,58172,1,0,1:0:0:0:
202,378,58278,2,0,P|241:356|283:341,1,90.0000034332277,10|0,0:0|0:0,0:0:0:0:
346,120,58486,6,0,P|294:122|259:93,1,90.0000034332277,2|0,1:2|0:0,0:0:0:0:
80,131,58696,5,10,0:0:0:0:
75,169,58801,1,0,0:0:0:0:
72,202,58906,2,0,P|123:204|158:175,1,90.0000034332277,2|0,1:2|0:0,0:0:0:0:
223,9,59116,6,0,P|217:40|205:117,1,90.0000034332277,10|0,0:2|1:0,0:0:0:0:
418,267,59326,2,0,P|412:236|400:159,1,90.0000034332277,2|0,0:2|1:0,0:0:0:0:
402,178,59535,1,8,0:0:0:0:
474,131,59640,6,0,P|384:154|293:178,1,180.000006866455,2|0,0:0|1:0,0:0:0:0:
144,278,59955,2,0,P|194:290|245:304,1,90.0000034332277,10|0,0:0|0:0,0:0:0:0:
366,364,60165,6,0,P|346:308|330:263,1,90.0000034332277,2|0,1:2|0:0,0:0:0:0:
509,177,60375,5,10,0:0:0:0:
509,177,60479,1,0,0:0:0:0:
509,177,60584,2,0,P|504:226|449:261,1,90.0000034332277,2|0,1:2|0:0,0:0:0:0:
330,83,60794,2,0,P|300:50|297:6,1,90.0000034332277,8|0,0:2|1:0,0:0:0:0:
212,147,61004,6,0,P|157:166|95:192,1,90.0000034332277,2|0,0:0|1:0,0:0:0:0:
127,177,61214,1,8,0:0:0:0:
343,266,61319,6,0,B|428:287|513:325,1,180.000006866455,2|0,0:0|1:0,0:0:0:0:
512,324,61633,1,10,0:0:0:0:
290,151,61843,6,0,B|229:160|229:160|189:229|254:288,1,180.000006866455,6|8,1:2|0:0,0:0:0:0:
305,303,62158,1,0,0:0:0:0:
444,383,62263,6,0,P|436:339|409:303,1,90.0000034332277,0|2,1:0|0:0,0:0:0:0:
409,303,62472,1,8,0:0:0:0:
198,384,62577,6,0,B|132:355|132:355|120:314|120:314|56:283,1,180.000006866455,2|2,1:2|1:2,0:0:0:0:
179,221,62892,2,0,P|180:265|153:299,1,90.0000034332277,8|0,0:0|0:0,0:0:0:0:
0,104,63102,6,0,P|43:91|85:77,1,90.0000034332277,2|0,1:2|1:0,0:0:0:0:
219,82,63312,6,0,P|143:88|106:-4,1,180.000006866455,10|2,0:0|1:2,0:0:0:0:
163,188,63626,5,0,0:0:0:0:
167,198,63731,1,8,0:0:0:0:
170,209,63836,1,0,0:0:0:0:
168,221,63941,6,0,P|219:237|277:253,1,90.0000034332277,2|0,1:2|0:0,0:0:0:0:
424,125,64151,5,10,0:0:0:0:
469,65,64256,2,0,B|355:72|415:124|310:147,1,180.000006866455,2|0,1:2|1:0,0:0:0:0:
103,4,64570,6,0,B|49:50|49:50|93:158,1,180.000006866455,10|0,0:0|1:0,0:0:0:0:
30,219,64885,1,0,1:0:0:0:
135,324,64990,6,0,P|207:290|247:275,1,90.0000034332277,10|0,0:0|0:0,0:0:0:0:
323,271,65200,2,0,P|236:246|152:213,1,180.000006866455,2|8,1:2|0:0,0:0:0:0:
0,24,65514,5,0,1:0:0:0:
0,24,65619,1,2,0:0:0:0:
0,24,65724,1,0,1:0:0:0:
0,24,65829,2,0,P|79:108|166:46,1,180.000006866455,10|0,0:0|1:0,0:0:0:0:
428,296,66249,5,8,0:0:0:0:
424,279,66354,1,8,0:0:0:0:
439,264,66458,6,0,B|471:226|518:238|518:238|445:205|365:284|432:299|379:362|298:349,1,360.000013732911,6|0,1:2|1:0,0:0:0:0:
241,302,67088,5,10,0:0:0:0:
274,279,67193,1,2,0:0:0:0:
326,283,67298,1,2,1:2:0:0:
377,335,67402,1,10,0:0:0:0:
449,357,67507,1,2,0:0:0:0:
512,314,67612,1,10,0:0:0:0:
503,235,67717,1,2,1:2:0:0:
430,203,67822,1,2,0:0:0:0:
384,136,67927,1,2,1:2:0:0:
419,62,68032,1,2,0:0:0:0:
503,44,68137,6,0,P|492:96|480:152,1,90.0000034332277,8|0,3:0|0:0,0:0:0:0:
490,345,68347,5,8,0:0:0:0:
490,345,68451,1,8,0:0:0:0:
490,345,68556,2,0,P|437:327|384:312,1,90.0000034332277,6|0,1:2|0:0,0:0:0:0:
255,261,68766,2,0,P|278:240|343:249,1,90.0000034332277,10|0,0:0|0:0,0:0:0:0:
464,145,68976,5,2,1:2:0:0:
512,91,69081,2,0,P|468:97|432:72,1,90.0000034332277,2|8,0:0|0:0,0:0:0:0:
254,203,69291,6,0,B|154:189|211:130|91:107,1,180.000006866455,2|0,1:2|1:0,0:0:0:0:
9,243,69605,2,0,P|76:219|117:204,1,90.0000034332277,10|0,0:0|0:0,0:0:0:0:
322,55,69815,5,0,1:0:0:0:
269,0,69920,1,0,1:0:0:0:
203,34,70025,2,0,P|197:86|183:146,1,90.0000034332277,10|0,0:0|0:0,0:0:0:0:
355,288,70235,2,0,P|361:236|375:176,1,90.0000034332277,2|0,0:0|0:0,0:0:0:0:
490,180,70444,6,0,P|388:157|306:137,1,180.000006866455,10|2,0:0|1:2,0:0:0:0:
82,261,70759,5,2,0:0:0:0:
59,334,70864,1,8,0:0:0:0:
129,373,70969,2,0,B|186:357|186:357|213:307|213:307|281:283,1,180.000006866455,2|0,1:2|1:0,0:0:0:0:
403,383,71284,6,0,P|368:357|324:360,1,90.0000034332277,10|0,0:0|0:0,0:0:0:0:
417,188,71493,1,2,1:2:0:0:
424,208,71598,1,0,1:0:0:0:
432,231,71703,2,0,P|475:234|511:208,1,90.0000034332277,10|0,0:0|0:0,0:0:0:0:
248,34,71913,6,0,P|234:101|217:164,1,90.0000034332277,2|0,1:2|0:0,0:0:0:0:
57,236,72123,1,10,0:0:0:0:
57,236,72228,1,0,0:0:0:0:
57,236,72333,2,0,P|46:196|93:156,1,90.0000034332277,2|0,1:2|0:0,0:0:0:0:
124,324,72542,2,0,P|172:332|227:347,1,90.0000034332277,10|0,0:0|1:0,0:0:0:0:
409,133,72752,6,0,P|364:140|315:149,1,90.0000034332277,2|0,0:0|1:0,0:0:0:0:
320,148,72962,1,8,0:0:0:0:
262,86,73067,6,0,B|285:121|304:145|304:145|262:266,1,180.000006866455,2|0,0:0|1:0,0:0:0:0:
487,356,73382,2,0,P|474:311|460:260,1,90.0000034332277,10|0,0:0|0:0,0:0:0:0:
425,159,73591,6,0,P|468:171|511:184,1,90.0000034332277,2|0,1:2|0:0,0:0:0:0:
302,360,73801,5,10,0:0:0:0:
302,360,73906,1,2,0:0:0:0:
302,360,74011,2,0,P|258:371|215:384,1,90.0000034332277,2|0,1:2|0:0,0:0:0:0:
99,293,74221,2,0,P|143:282|186:269,1,90.0000034332277,10|0,0:2|1:0,0:0:0:0:
342,34,74430,6,0,B|364:77|364:77|342:137,1,90.0000034332277,2|0,0:0|1:0,0:0:0:0:
349,116,74640,1,8,0:0:0:0:
278,198,74745,6,0,B|382:181|309:126|450:115,1,180.000006866455,2|0,0:0|1:0,0:0:0:0:
512,231,75060,2,0,P|469:217|425:205,1,90.0000034332277,10|0,0:0|0:0,0:0:0:0:
215,383,75270,6,0,B|162:355|162:355|149:309|149:309|68:255,1,180.000006866455,6|8,1:2|0:0,0:0:0:0:
161,250,75584,1,0,0:0:0:0:
0,198,75689,6,0,P|43:189|76:160,1,90.0000034332277,2|0,1:2|0:0,0:0:0:0:
75,160,75899,1,8,0:0:0:0:
183,30,76004,6,0,B|289:47|230:100|367:124,1,180.000006866455,2|2,1:2|1:2,0:0:0:0:
476,161,76319,2,0,P|432:172|389:186,1,90.0000034332277,8|0,0:0|0:0,0:0:0:0:
253,311,76528,6,0,P|296:322|339:336,1,90.0000034332277,2|0,1:2|1:0,0:0:0:0:
396,384,76738,6,0,P|371:264|353:169,1,180.000006866455,10|2,0:0|1:2,0:0:0:0:
495,18,77053,5,0,0:0:0:0:
498,30,77158,1,8,0:0:0:0:
502,40,77263,1,0,0:0:0:0:
505,51,77368,6,0,P|462:40|419:26,1,90.0000034332277,2|0,1:2|0:0,0:0:0:0:
263,133,77577,5,10,0:0:0:0:
204,79,77682,2,0,B|147:120|147:120|182:248,1,180.000006866455,2|0,1:2|1:0,0:0:0:0:
483,384,77997,6,0,P|432:315|356:364,1,180.000006866455,10|0,0:0|1:0,0:0:0:0:
360,350,78312,1,0,1:0:0:0:
333,201,78416,2,0,P|290:186|248:170,1,90.0000034332277,10|0,0:0|0:0,0:0:0:0:
86,384,78626,2,0,B|141:368|141:368|168:315|168:315|260:286,1,180.000006866455,2|8,1:2|0:0,0:0:0:0:
0,103,78941,5,0,0:0:0:0:
0,103,79046,2,0,P|18:166|26:200,1,90.0000034332277,2|0,1:2|0:0,0:0:0:0:
157,263,79256,5,10,0:0:0:0:
228,295,79361,2,0,P|243:206|265:118,1,180.000006866455,2|0,1:2|1:0,0:0:0:0:
61,45,79675,6,0,P|115:74|184:-14,1,180.000006866455,10|0,0:0|1:0,0:0:0:0:
186,0,79990,1,10,0:0:0:0:
359,204,80200,5,0,1:0:0:0:
315,272,80305,2,0,P|240:244|156:218,1,160,10|2,0:0|0:0,0:0:0:0:
341,73,80619,5,8,0:0:0:0:
341,73,80724,2,0,B|378:53|389:11|389:11|396:57|433:84,1,160,2|8,1:2|0:0,0:0:0:0:
492,308,81144,5,2,1:2:0:0:
484,345,81249,1,8,0:0:0:0:
473,384,81354,2,0,P|435:369|397:357,1,80,8|8,0:0|0:0,0:0:0:0:
303,228,81563,5,8,0:2:0:0:
308,239,81668,1,0,1:0:0:0:
311,250,81773,2,0,P|349:234|388:222,1,60.0000022888184,2|0,1:2|1:0,0:0:0:0:
396,154,81983,5,6,1:2:0:0:
396,154,82193,1,0,1:0:0:0:
101,235,82402,5,0,1:2:0:0:
101,235,82612,1,0,1:0:0:0:
473,384,82822,5,0,1:0:0:0:
306,65,83032,1,0,1:0:0:0:
170,280,83242,1,10,1:2:0:0:
512,127,83451,5,0,1:0:0:0:
499,123,83521,1,0,1:0:0:0:
488,120,83591,1,0,1:0:0:0:
476,116,83661,6,0,B|359:133|439:192|297:217,1,180.000006866455,2|0,1:2|0:0,0:0:0:0:
202,42,85130,5,8,0:0:0:0:
172,116,85235,1,8,0:0:0:0:
241,154,85340,2,0,P|298:126|330:114,1,80,6|0,1:2|0:0,0:0:0:0:
313,119,85549,1,8,0:0:0:0:
512,33,85654,6,0,P|441:58|392:1,1,160,6|8,1:2|0:0,0:0:0:0:
204,253,85969,2,0,P|253:195|324:222,1,160,6|0,1:2|0:0,0:0:0:0:
398,306,86284,1,0,0:0:0:0:
398,306,86389,6,0,P|380:395|375:433,1,80,2|0,1:2|0:0,0:0:0:0:
236,257,86598,2,0,P|228:217|219:178,1,80,10|0,0:2|0:0,0:0:0:0:
466,23,86808,5,8,0:0:0:0:
466,23,86913,1,8,0:0:0:0:
466,23,87018,2,0,B|361:32|425:92|305:99,1,160,6|8,1:2|0:0,0:0:0:0:
216,337,87333,6,0,P|252:287|260:349,1,160,6|8,1:2|0:0,0:0:0:0:
58,198,87647,6,0,B|43:168|6:159|6:159|195:206,1,240,6|0,1:2|0:0,0:0:0:0:
216,267,88067,1,2,1:2:0:0:
512,0,88277,5,10,0:0:0:0:
434,19,88382,1,8,0:0:0:0:
357,39,88487,1,10,0:0:0:0:
280,59,88592,1,8,0:0:0:0:
