osu file format v14

[General]
AudioFilename: audio.mp3
AudioLeadIn: 0
PreviewTime: 43104
Countdown: 0
SampleSet: Soft
StackLeniency: 0.7
Mode: 0
LetterboxInBreaks: 0
WidescreenStoryboard: 1

[Editor]
DistanceSpacing: 1.2
BeatDivisor: 4
GridSize: 32
TimelineZoom: 1

[Metadata]
Title:Hibari (TV Size)
TitleUnicode:雲雀 (TV Size)
Artist:ASCA
ArtistUnicode:ASCA
Creator:bigfrog
Version:Normal
Source:ロード・エルメロイⅡ世の事件簿 - 魔眼蒐集列車 Grace note -
Tags:ending ED roudo erumeroi Ⅱ sei no jiken bo magan shuushuu ressha 梶浦由記 Anime Japanese Rail Zeppelin Fateシリーズ
BeatmapID:2191418
BeatmapSetID:1048429

[Difficulty]
HPDrainRate:4
CircleSize:3.5
OverallDifficulty:4
ApproachRate:5
SliderMultiplier:1.3
SliderTickRate:1

[Events]
//Background and Video events
Video,0,"ED.mp4"
0,0,"BG.jpg",0,0
//Break Periods
//Storyboard Layer 0 (Background)
//Storyboard Layer 1 (Fail)
//Storyboard Layer 2 (Pass)
//Storyboard Layer 3 (Foreground)
//Storyboard Layer 4 (Overlay)
//Storyboard Sound Samples

[TimingPoints]
247,535.714285714286,4,2,1,60,1,0
247,-100,4,2,1,60,0,0
8818,-100,4,2,1,50,0,0
42032,-100,4,2,2,70,0,0
42836,-100,4,2,2,50,0,0
43104,-100,4,2,2,70,0,1
68684,-100,4,2,2,70,0,0
68818,-100,4,2,2,60,0,1
68952,-100,4,2,2,60,0,0
74711,-100,4,3,0,60,0,0
75247,-100,4,2,2,60,0,0
83014,-100,4,3,0,60,0,0
83818,-100,4,2,1,60,0,0
85425,-100,4,2,1,50,0,0
86497,-100,4,2,1,35,0,0
87568,-100,4,2,1,20,0,0
88639,-100,4,2,1,10,0,0
90113,-100,4,2,1,5,0,0

[Colours]
Combo1 : 0,170,115
Combo2 : 212,212,212
Combo3 : 85,85,85
Combo4 : 170,255,210

[HitObjects]
58,293,247,6,0,P|109:287|186:251,1,130,2|8,0:0|0:0,0:0:0:0:
182,190,1050,1,0,0:0:0:0:
190,127,1318,2,0,P|248:98|312:89,1,130,2|0,0:0|0:0,0:0:0:0:
320,219,2389,2,0,L|307:290,1,65,2|0,0:0|0:0,0:0:0:0:
359,325,2925,2,0,P|418:319|487:282,1,130,8|0,0:0|0:0,0:0:0:0:
474,158,3997,2,0,L|485:94,1,65,0|0,0:0|0:0,0:0:0:0:
438,49,4532,6,0,L|305:79,1,130,2|8,0:0|0:0,0:0:0:0:
264,122,5336,1,0,0:0:0:0:
216,164,5604,2,0,L|89:135,1,130,2|0,0:0|0:0,0:0:0:0:
39,255,6675,1,2,0:0:0:0:
142,334,7211,2,0,L|215:313,1,65,8|0,0:0|0:0,0:0:0:0:
250,270,7747,1,0,0:0:0:0:
357,342,8282,2,0,L|427:323,1,65,0|0,0:0|0:0,0:0:0:0:
450,266,8818,6,0,L|427:127,1,130,2|8,0:0|0:0,0:0:0:0:
352,35,9889,2,0,L|330:163,1,130,2|0,0:0|0:0,0:0:0:0:
288,212,10693,1,0,0:0:0:0:
227,234,10961,2,0,L|163:214,1,65,2|0,0:0|0:0,0:0:0:0:
178,151,11497,2,0,P|103:161|32:144,1,130,8|0,0:0|0:0,0:0:0:0:
115,42,12568,2,0,P|148:33|184:31,1,65,0|0,0:0|0:0,0:0:0:0:
240,55,13104,6,0,L|277:180,1,130,2|8,0:0|0:0,0:0:0:0:
151,213,14175,2,0,L|110:346,1,130,2|0,0:0|0:0,0:0:0:0:
173,359,14979,1,0,0:0:0:0:
233,333,15247,2,0,P|264:331|306:343,1,65,2|0,0:0|0:0,0:0:0:0:
359,356,15782,2,0,L|397:229,1,130,8|0,0:0|0:0,0:0:0:0:
481,134,16854,2,0,P|455:114|422:102,1,65,0|0,0:0|0:0,0:0:0:0:
363,120,17389,6,0,B|289:129|289:129|223:118,2,130,2|8|2,0:0|0:0|0:0,0:0:0:0:
293,7,18997,1,0,0:0:0:0:
166,35,19532,2,0,P|137:97|141:163,1,130,2|8,0:0|0:0,0:0:0:0:
80,183,20336,1,0,0:0:0:0:
66,246,20604,2,0,P|75:287|97:316,1,65,2|0,0:0|0:0,0:0:0:0:
144,338,21139,1,0,0:0:0:0:
274,348,21675,6,0,P|332:338|391:292,2,130,2|8|2,0:0|0:0|0:0,0:0:0:0:
282,221,23282,1,0,0:0:0:0:
402,170,23818,2,0,P|463:191|506:245,2,130,2|8|0,0:0|0:0|0:0,0:0:0:0:
275,138,25425,2,0,P|240:141|211:135,1,65,0|0,0:0|0:0,0:0:0:0:
164,179,25961,6,0,L|183:326,1,130,2|8,0:0|0:0,0:0:0:0:
51,308,27032,2,0,L|67:179,1,130,2|0,0:0|0:0,0:0:0:0:
43,118,27836,1,0,0:0:0:0:
79,63,28104,2,0,P|111:72|145:95,1,65,2|0,0:0|0:0,0:0:0:0:
201,101,28639,2,0,P|256:71|331:50,1,130,8|0,0:0|0:0,0:0:0:0:
439,101,29711,2,0,P|417:133|392:153,1,65,0|0,0:0|0:0,0:0:0:0:
337,176,30247,6,0,P|354:231|403:295,1,130,2|8,0:0|0:0,0:0:0:0:
354,338,31050,1,0,0:0:0:0:
292,316,31318,2,0,L|217:338,1,65,2|0,0:0|0:0,0:0:0:0:
178,293,31854,1,0,0:0:0:0:
78,210,32389,2,0,L|62:340,2,130,2|8|0,0:0|0:0|0:0,0:0:0:0:
39,88,33997,2,0,P|71:82|102:68,1,65,0|0,0:0|0:0,0:0:0:0:
153,31,34532,6,0,P|210:71|228:132,1,130,2|8,0:0|0:0,0:0:0:0:
237,190,35336,1,0,0:0:0:0:
184,226,35604,1,2,0:0:0:0:
262,330,36139,1,0,0:0:0:0:
382,276,36675,2,0,P|422:231|426:160,1,130,2|8,0:0|0:0,0:0:0:0:
418,99,37479,1,0,0:0:0:0:
371,56,37747,1,2,0:0:0:0:
305,171,38282,1,0,0:0:0:0:
178,202,38818,6,0,B|107:194|107:194|34:167,1,130,2|8,0:0|0:0,0:0:0:0:
22,47,39889,2,0,B|93:55|93:55|166:82,1,130,2|0,0:0|0:0,0:0:0:0:
209,98,40693,1,0,0:0:0:0:
265,64,40961,1,2,0:0:0:0:
362,147,41497,2,0,P|371:182|368:216,1,65,8|0,0:0|0:0,0:0:0:0:
338,268,42032,2,0,L|273:264,1,65,8|8,0:0|0:0,0:0:0:0:
232,314,42568,2,0,L|154:307,1,65,2|2,0:0|0:0,0:0:0:0:
120,353,43104,6,0,P|58:322|11:277,1,130,6|8,0:0|0:0,0:0:0:0:
32,156,44175,1,2,0:0:0:0:
134,80,44711,2,0,P|149:105|154:145,1,65,8|0,0:0|0:0,0:0:0:0:
146,204,45247,2,0,P|211:210|279:178,1,130,2|8,0:0|0:0,0:0:0:0:
347,82,46318,2,0,P|318:64|282:53,1,65,0|2,0:0|0:0,0:0:0:0:
223,63,46854,1,8,0:0:0:0:
266,185,47389,6,0,B|324:204|324:204|395:200,1,130,2|8,0:0|0:0,0:0:0:0:
437,252,48193,1,2,0:0:0:0:
456,315,48461,2,0,B|398:296|398:296|327:300,1,130,2|8,0:0|0:0,0:0:0:0:
272,328,49264,1,0,0:0:0:0:
211,349,49532,2,0,B|142:352|142:352|84:333,1,130,2|8,0:0|0:0,0:0:0:0:
6,227,50604,2,0,L|79:203,1,65,2|2,0:0|0:0,0:0:0:0:
122,170,51139,1,8,0:0:0:0:
240,218,51675,38,0,L|364:176,1,130,2|8,0:0|0:0,0:0:0:0:
421,62,52747,1,2,0:0:0:0:
296,40,53282,2,0,L|235:61,1,65,8|0,0:0|0:0,0:0:0:0:
175,35,53818,2,0,P|166:102|131:162,1,130,2|8,0:0|0:0,0:0:0:0:
23,216,54889,2,0,P|30:254|51:299,1,65,0|2,0:0|0:0,0:0:0:0:
76,332,55425,1,8,0:0:0:0:
192,270,55961,6,0,P|257:284|315:328,1,130,2|8,0:0|0:0,0:0:0:0:
369,340,56764,1,2,0:0:0:0:
432,359,57032,2,0,P|414:288|419:214,1,130,2|8,0:0|0:0,0:0:0:0:
399,167,57836,1,0,0:0:0:0:
379,104,58104,2,0,P|331:168|266:195,1,130,2|8,0:0|0:0,0:0:0:0:
203,90,59175,2,0,L|135:109,1,65,0|2,0:0|0:0,0:0:0:0:
102,160,59711,1,8,0:0:0:0:
168,271,60247,38,0,L|298:310,1,130,6|8,0:0|0:0,0:0:0:0:
408,363,61318,1,2,0:0:0:0:
497,267,61854,2,0,L|443:202,1,65,8|0,0:0|0:0,0:0:0:0:
460,153,62389,2,0,L|338:206,1,130,2|8,0:0|0:0,0:0:0:0:
216,184,63461,2,0,P|214:220|220:248,1,65,0|2,0:0|0:0,0:0:0:0:
262,297,63997,1,8,0:0:0:0:
142,345,64532,6,0,P|103:296|96:231,1,130,2|8,0:0|0:0,0:0:0:0:
154,203,65336,1,2,0:0:0:0:
216,184,65604,2,0,P|238:119|303:86,1,130,2|8,0:0|0:0,0:0:0:0:
336,132,66407,1,0,0:0:0:0:
382,176,66675,2,0,P|432:188|475:257,1,130,2|8,0:0|0:0,0:0:0:0:
392,349,67747,1,0,0:0:0:0:
279,293,68282,2,0,L|272:224,1,65,8|8,0:0|0:0,0:0:0:0:
236,176,68818,6,0,P|172:164|104:178,1,130,2|8,0:0|0:0,0:0:0:0:
42,62,69889,2,0,P|105:50|169:62,1,130,2|8,0:0|0:0,0:0:0:0:
293,105,70961,2,0,P|356:117|420:105,2,130,2|8|0,0:0|0:0|0:0,0:0:0:0:
185,175,72568,2,0,P|212:203|242:221,1,65,8|0,0:0|0:0,0:0:0:0:
300,222,73104,6,0,L|275:372,1,130,2|8,0:0|0:0,0:0:0:0:
407,336,74175,2,0,L|417:261,1,65,0|8,0:0|0:0,0:0:0:0:
450,215,74711,2,0,L|444:150,1,65,4|2,0:0|0:0,0:0:0:0:
389,114,75247,6,0,P|324:127|257:113,2,130,2|8|0,0:0|0:0|0:0,0:0:0:0:
323,3,76854,1,8,0:0:0:0:
195,18,77389,2,0,P|155:74|151:152,1,130,2|8,0:0|0:0,0:0:0:0:
22,167,78461,2,0,P|64:239|110:259,1,130,0|8,0:0|0:0,0:0:0:0:
223,208,79532,5,2,0:0:0:0:
334,274,80068,2,0,L|358:355,1,65,8|2,0:0|0:0,0:0:0:0:
416,354,80604,2,0,L|447:224,1,130,0|8,0:0|0:0,0:0:0:0:
506,113,81675,2,0,B|443:125|443:125|375:114,1,130,2|8,0:0|0:0,0:0:0:0:
257,162,82747,2,0,L|180:153,1,65,8|8,0:0|0:0,0:0:0:0:
141,115,83282,1,4,0:0:0:0:
32,187,83818,1,2,0:0:0:0:
256,192,84086,12,0,90247,0:0:0:0:
