osu file format v14

[General]
AudioFilename: audio.mp3
AudioLeadIn: 0
PreviewTime: 43104
Countdown: 0
SampleSet: Soft
StackLeniency: 0.7
Mode: 0
LetterboxInBreaks: 0
WidescreenStoryboard: 1

[Editor]
DistanceSpacing: 1.2
BeatDivisor: 4
GridSize: 32
TimelineZoom: 1

[Metadata]
Title:Hibari (TV Size)
TitleUnicode:雲雀 (TV Size)
Artist:ASCA
ArtistUnicode:ASCA
Creator:bigfrog
Version:Hard
Source:ロード・エルメロイⅡ世の事件簿 - 魔眼蒐集列車 Grace note -
Tags:ending ED roudo erumeroi Ⅱ sei no jiken bo magan shuushuu ressha 梶浦由記 Anime Japanese Rail Zeppelin Fateシリーズ
BeatmapID:2191416
BeatmapSetID:1048429

[Difficulty]
HPDrainRate:5
CircleSize:4
OverallDifficulty:6
ApproachRate:7.5
SliderMultiplier:1.6
SliderTickRate:1

[Events]
//Background and Video events
Video,0,"ED.mp4"
0,0,"BG.jpg",0,0
//Break Periods
//Storyboard Layer 0 (Background)
//Storyboard Layer 1 (Fail)
//Storyboard Layer 2 (Pass)
//Storyboard Layer 3 (Foreground)
//Storyboard Layer 4 (Overlay)
//Storyboard Sound Samples

[TimingPoints]
247,535.714285714286,4,2,1,60,1,0
247,-125,4,2,1,60,0,0
8818,-111.111111111111,4,2,1,50,0,0
42032,-111.111111111111,4,2,2,70,0,0
42836,-111.111111111111,4,2,2,50,0,0
43104,-100,4,2,2,70,0,1
68684,-100,4,2,2,70,0,0
68818,-100,4,2,2,60,0,1
68952,-100,4,2,2,60,0,0
74711,-100,4,3,0,60,0,0
75247,-100,4,2,2,60,0,0
83014,-100,4,3,0,60,0,0
83818,-100,4,2,1,60,0,0
85425,-100,4,2,1,50,0,0
86497,-100,4,2,1,35,0,0
87568,-100,4,2,1,20,0,0
88639,-100,4,2,1,10,0,0
90113,-100,4,2,1,5,0,0

[Colours]
Combo1 : 0,170,115
Combo2 : 212,212,212
Combo3 : 85,85,85
Combo4 : 170,255,210

[HitObjects]
461,34,247,6,0,L|445:100,1,64,2|0,0:0|0:0,0:0:0:0:
414,168,782,1,8,0:0:0:0:
347,127,1050,1,0,0:0:0:0:
300,188,1318,2,0,L|339:317,1,128,2|0,0:0|0:0,0:0:0:0:
292,368,2122,1,0,0:0:0:0:
238,316,2389,6,0,L|174:305,1,64,2|0,0:0|0:0,0:0:0:0:
109,346,2925,2,0,L|43:335,1,64,8|0,0:0|0:0,0:0:0:0:
31,259,3461,2,0,P|40:206|80:145,1,128,0|0,0:0|0:0,0:0:0:0:
78,68,4264,1,0,0:0:0:0:
149,40,4532,38,0,L|225:58,1,64,2|0,0:0|0:0,0:0:0:0:
280,19,5068,2,0,L|347:34,1,64,8|0,0:0|0:0,0:0:0:0:
418,17,5604,2,0,P|437:97|416:145,1,128,2|0,0:0|0:0,0:0:0:0:
365,189,6407,1,0,0:0:0:0:
388,263,6675,6,0,L|462:292,1,64,2|0,0:0|0:0,0:0:0:0:
399,347,7211,2,0,L|337:322,1,64,8|0,0:0|0:0,0:0:0:0:
266,347,7747,1,0,0:0:0:0:
137,262,8282,1,0,0:0:0:0:
57,261,8550,1,0,0:0:0:0:
27,186,8818,6,0,L|62:114,1,71.9999978027344,2|0,0:0|0:0,0:0:0:0:
140,151,9354,2,0,L|175:74,1,71.9999978027344,8|0,0:0|0:0,0:0:0:0:
248,126,9889,2,0,P|298:159|388:157,1,143.999995605469,2|0,0:0|0:0,0:0:0:0:
462,134,10693,1,0,0:0:0:0:
503,211,10961,6,0,L|499:297,1,71.9999978027344,2|0,0:0|0:0,0:0:0:0:
428,333,11497,2,0,P|342:324|288:349,1,143.999995605469,8|0,0:0|0:0,0:0:0:0:
119,358,12568,1,0,0:0:0:0:
40,327,12836,1,0,0:0:0:0:
26,242,13104,6,0,P|55:222|90:212,1,71.9999978027344,2|0,0:0|0:0,0:0:0:0:
149,150,13639,2,0,P|184:152|220:146,1,71.9999978027344,8|0,0:0|0:0,0:0:0:0:
258,67,14175,2,0,P|318:55|405:78,1,143.999995605469,2|0,0:0|0:0,0:0:0:0:
455,139,14979,1,0,0:0:0:0:
401,207,15247,6,0,P|360:216|331:212,1,71.9999978027344,2|0,0:0|0:0,0:0:0:0:
266,154,15782,2,0,P|278:221|240:293,1,143.999995605469,8|0,0:0|0:0,0:0:0:0:
60,280,16854,1,0,0:0:0:0:
104,353,17122,1,0,0:0:0:0:
147,277,17389,6,0,L|156:205,1,71.9999978027344,2|0,0:0|0:0,0:0:0:0:
84,156,17925,2,0,L|94:76,1,71.9999978027344,8|0,0:0|0:0,0:0:0:0:
166,36,18461,2,0,P|216:63|306:48,1,143.999995605469,2|0,0:0|0:0,0:0:0:0:
379,95,19264,1,0,0:0:0:0:
315,154,19532,6,0,L|329:306,1,143.999995605469,2|8,0:0|0:0,0:0:0:0:
414,315,20336,1,0,0:0:0:0:
328,297,20604,2,0,P|287:297|249:309,1,71.9999978027344,2|0,0:0|0:0,0:0:0:0:
183,350,21139,2,0,L|107:317,1,71.9999978027344,0|0,0:0|0:0,0:0:0:0:
96,236,21675,6,0,P|132:221|178:217,1,71.9999978027344,2|0,0:0|0:0,0:0:0:0:
171,131,22211,2,0,P|209:141|236:163,1,71.9999978027344,8|0,0:0|0:0,0:0:0:0:
298,102,22747,2,0,P|320:177|281:235,1,143.999995605469,2|0,0:0|0:0,0:0:0:0:
235,299,23550,1,0,0:0:0:0:
321,309,23818,6,0,B|388:298|388:298|467:312,2,143.999995605469,2|8|0,0:0|0:0|0:0,0:0:0:0:
415,164,25425,1,0,0:0:0:0:
411,77,25693,1,0,0:0:0:0:
328,56,25961,6,0,L|254:11,1,71.9999978027344,2|0,0:0|0:0,0:0:0:0:
232,99,26497,2,0,L|170:136,1,71.9999978027344,8|0,0:0|0:0,0:0:0:0:
125,64,27032,2,0,L|61:27,1,71.9999978027344,2|0,0:0|0:0,0:0:0:0:
56,113,27568,1,0,0:0:0:0:
117,172,27836,1,0,0:0:0:0:
74,247,28104,6,0,P|103:255|146:252,1,71.9999978027344,2|0,0:0|0:0,0:0:0:0:
223,217,28639,2,0,P|272:250|366:249,1,143.999995605469,8|0,0:0|0:0,0:0:0:0:
474,130,29711,2,0,P|438:115|402:110,1,71.9999978027344,0|0,0:0|0:0,0:0:0:0:
349,45,30247,6,0,P|270:34|200:51,1,143.999995605469,2|8,0:0|0:0,0:0:0:0:
211,132,31050,1,0,0:0:0:0:
125,140,31318,2,0,L|58:94,1,71.9999978027344,2|0,0:0|0:0,0:0:0:0:
36,181,31854,2,0,L|108:232,1,71.9999978027344,0|0,0:0|0:0,0:0:0:0:
102,307,32389,6,0,B|141:298|164:280|164:280|186:298|234:312,2,143.999995605469,2|8|0,0:0|0:0|0:0,0:0:0:0:
237,203,33997,1,0,0:0:0:0:
306,254,34264,1,0,0:0:0:0:
382,214,34532,6,0,P|402:151|389:76,1,143.999995605469,2|8,0:0|0:0,0:0:0:0:
311,35,35336,1,0,0:0:0:0:
257,100,35604,2,0,P|215:90|184:69,1,71.9999978027344,2|0,0:0|0:0,0:0:0:0:
121,24,36139,2,0,L|103:114,1,71.9999978027344,0|0,0:0|0:0,0:0:0:0:
26,128,36675,6,0,P|90:128|163:173,1,143.999995605469,2|8,0:0|0:0,0:0:0:0:
151,252,37479,1,0,0:0:0:0:
232,283,37747,2,0,P|257:307|273:342,1,71.9999978027344,2|0,0:0|0:0,0:0:0:0:
349,300,38282,2,0,L|371:215,1,71.9999978027344,0|0,0:0|0:0,0:0:0:0:
437,176,38818,6,0,P|365:191|296:172,1,143.999995605469,2|8,0:0|0:0,0:0:0:0:
267,92,39622,1,0,0:0:0:0:
195,43,39889,2,0,P|119:36|51:67,1,143.999995605469,2|0,0:0|0:0,0:0:0:0:
70,147,40693,1,0,0:0:0:0:
150,177,40961,6,0,L|178:323,1,143.999995605469,2|8,0:0|0:0,0:0:0:0:
262,329,41764,1,0,0:0:0:0:
311,192,42032,5,8,0:0:0:0:
389,231,42300,1,8,0:0:0:0:
460,179,42568,1,2,0:0:0:0:
452,92,42836,1,2,0:0:0:0:
293,105,43104,6,0,P|255:88|214:78,1,80,6|0,0:0|0:0,0:0:0:0:
222,175,43639,1,8,0:0:0:0:
136,133,43907,1,2,0:0:0:0:
222,175,44175,2,0,P|218:220|201:262,1,80,2|0,0:0|0:0,0:0:0:0:
115,286,44711,1,8,0:0:0:0:
190,346,44979,1,0,0:0:0:0:
347,309,45247,38,0,P|378:236|382:148,1,160,2|8,0:0|0:0,0:0:0:0:
322,83,46050,1,2,0:0:0:0:
232,49,46318,2,0,L|147:42,1,80,0|2,0:0|0:0,0:0:0:0:
97,120,46854,2,0,L|187:130,1,80,8|0,0:0|0:0,0:0:0:0:
303,227,47389,6,0,L|125:208,1,160,2|8,0:0|0:0,0:0:0:0:
106,298,48193,1,2,0:0:0:0:
192,342,48461,2,0,P|230:336|272:313,1,80,2|0,0:0|0:0,0:0:0:0:
303,227,48997,1,8,0:0:0:0:
365,299,49264,1,0,0:0:0:0:
408,145,49532,38,0,P|419:221|470:291,1,160,2|8,0:0|0:0,0:0:0:0:
492,195,50336,1,2,0:0:0:0:
493,99,50604,2,0,L|426:48,1,80,2|2,0:0|0:0,0:0:0:0:
341,89,51139,2,0,L|276:41,1,80,8|0,0:0|0:0,0:0:0:0:
124,97,51675,6,0,P|118:143|127:182,1,80,2|0,0:0|0:0,0:0:0:0:
188,247,52211,1,8,0:0:0:0:
255,178,52479,1,2,0:0:0:0:
188,247,52747,2,0,P|145:263|89:263,1,80,2|0,0:0|0:0,0:0:0:0:
42,200,53282,1,8,0:0:0:0:
16,291,53550,1,0,0:0:0:0:
167,346,53818,38,0,P|230:327|300:264,1,160,2|8,0:0|0:0,0:0:0:0:
304,168,54622,1,2,0:0:0:0:
382,225,54889,2,0,L|408:317,1,80,0|2,0:0|0:0,0:0:0:0:
473,234,55425,2,0,L|495:157,1,80,8|0,0:0|0:0,0:0:0:0:
369,56,55961,6,0,P|282:64|215:35,1,160,2|8,0:0|0:0,0:0:0:0:
165,116,56764,1,2,0:0:0:0:
230,185,57032,2,0,P|270:196|319:196,1,80,2|0,0:0|0:0,0:0:0:0:
402,176,57568,1,8,0:0:0:0:
438,266,57836,1,0,0:0:0:0:
305,355,58104,38,0,P|218:363|151:334,1,160,2|8,0:0|0:0,0:0:0:0:
95,259,58907,1,2,0:0:0:0:
153,183,59175,2,0,L|90:122,1,80,0|2,0:0|0:0,0:0:0:0:
128,37,59711,2,0,L|187:92,1,80,8|0,0:0|0:0,0:0:0:0:
332,25,60247,6,0,P|368:23|417:34,1,80,6|0,0:0|0:0,0:0:0:0:
459,116,60782,1,8,0:0:0:0:
363,120,61050,1,2,0:0:0:0:
459,116,61318,2,0,P|451:159|426:199,1,80,2|0,0:0|0:0,0:0:0:0:
340,214,61854,1,8,0:0:0:0:
384,300,62122,1,0,0:0:0:0:
239,231,62389,38,0,P|162:226|85:259,1,160,2|8,0:0|0:0,0:0:0:0:
46,344,63193,1,2,0:0:0:0:
86,257,63461,2,0,L|69:172,1,80,0|2,0:0|0:0,0:0:0:0:
152,127,63997,2,0,L|170:40,1,80,8|0,0:0|0:0,0:0:0:0:
324,12,64532,6,0,L|368:165,1,160,2|8,0:0|0:0,0:0:0:0:
451,217,65336,1,2,0:0:0:0:
411,305,65604,2,0,P|370:310|325:305,1,80,2|0,0:0|0:0,0:0:0:0:
252,255,66139,1,8,0:0:0:0:
178,316,66407,1,0,0:0:0:0:
214,163,66675,38,0,P|139:197|96:259,1,160,2|8,0:0|0:0,0:0:0:0:
19,201,67479,1,2,0:0:0:0:
83,127,67747,2,0,P|117:102|160:84,1,80,0|2,0:0|0:0,0:0:0:0:
246,74,68282,1,8,0:0:0:0:
214,163,68550,1,8,0:0:0:0:
374,186,68818,6,0,L|459:147,2,80,2|0|8,0:0|0:0|0:0,0:0:0:0:
336,274,69622,1,2,0:0:0:0:
241,258,69889,2,0,P|158:252|83:279,1,160,2|8,0:0|0:0,0:0:0:0:
27,352,70693,1,0,0:0:0:0:
87,277,70961,6,0,L|70:118,1,160,2|8,0:0|0:0,0:0:0:0:
138,49,71764,1,2,0:0:0:0:
199,122,72032,2,0,L|279:112,1,80,0|2,0:0|0:0,0:0:0:0:
329,192,72568,2,0,L|232:205,1,80,8|0,0:0|0:0,0:0:0:0:
227,296,73104,6,0,L|142:309,2,80,2|0|8,0:0|0:0|0:0,0:0:0:0:
307,346,73907,1,2,0:0:0:0:
391,301,74175,2,0,P|406:287|436:237,1,80,0|8,0:0|0:0,0:0:0:0:
505,171,74711,2,0,P|481:134|433:101,1,80,4|2,0:0|0:0,0:0:0:0:
409,26,75247,6,0,P|339:81|263:71,1,160,2|8,0:0|0:0,0:0:0:0:
189,32,76050,1,2,0:0:0:0:
110,90,76318,2,0,P|116:133|113:173,1,80,0|2,0:0|0:0,0:0:0:0:
204,204,76854,2,0,P|198:247|201:287,1,80,8|0,0:0|0:0,0:0:0:0:
139,357,77389,6,0,P|212:336|296:358,1,160,2|8,0:0|0:0,0:0:0:0:
373,306,78193,1,2,0:0:0:0:
453,357,78461,2,0,B|456:277|456:277|404:214,1,160,0|8,0:0|0:0,0:0:0:0:
311,197,79264,1,0,0:0:0:0:
222,235,79532,6,0,P|186:215|158:187,1,80,2|0,0:0|0:0,0:0:0:0:
180,94,80068,2,0,P|216:114|244:142,1,80,8|2,0:0|0:0,0:0:0:0:
222,235,80604,2,0,P|154:255|71:227,1,160,0|8,0:0|0:0,0:0:0:0:
38,137,81407,1,0,0:0:0:0:
103,66,81675,6,0,P|171:86|254:58,1,160,2|8,0:0|0:0,0:0:0:0:
345,30,82479,1,2,0:0:0:0:
397,110,82747,2,0,L|384:195,1,80,8|8,0:0|0:0,0:0:0:0:
369,283,83282,1,4,0:0:0:0:
369,283,83818,5,2,0:0:0:0:
256,192,83952,12,0,90247,0:0:0:0:
