osu file format v14

[General]
AudioFilename: audio.mp3
AudioLeadIn: 0
PreviewTime: 60933
Countdown: 0
SampleSet: Soft
StackLeniency: 0.7
Mode: 0
LetterboxInBreaks: 0
WidescreenStoryboard: 1

[Editor]
DistanceSpacing: 1
BeatDivisor: 4
GridSize: 32
TimelineZoom: 2

[Metadata]
Title:Gyakkyou Spectrum
TitleUnicode:逆境スペクトル
Artist:ASCA
ArtistUnicode:ASCA
Creator:Sotarks
Version:Sytho's Normal
Source:ソードアート・オンライン アンリーシュ・ブレイディング
Tags:sao sword art online unleash blading rpg game mobile opening op japanese female vocals vocalist jpop j-pop j pop mnyui sytho shunao shogunmoon gelidium video
BeatmapID:3336640
BeatmapSetID:1633990

[Difficulty]
HPDrainRate:3
CircleSize:3.3
OverallDifficulty:4
ApproachRate:5.4
SliderMultiplier:1
SliderTickRate:1

[Events]
//Background and Video events
0,0,"bg_asuna.jpg",0,0
Video,-378,"video.mp4"
//Break Periods
//Storyboard Layer 0 (Background)
//Storyboard Layer 1 (Fail)
//Storyboard Layer 2 (Pass)
//Storyboard Layer 3 (Foreground)
//Storyboard Layer 4 (Overlay)
//Storyboard Sound Samples

[TimingPoints]
212,320.855614973262,4,2,22,52,1,0
212,-111.111111111111,4,2,22,52,0,0
5345,-111.111111111111,4,2,22,52,0,0
7912,-100,4,2,22,62,0,0
9837,-100,4,2,22,82,0,0
10479,-111.111111111111,4,2,22,82,0,0
10559,-111.111111111111,4,2,22,62,0,0
11843,-111.111111111111,4,2,22,5,0,0
12244,-111.111111111111,4,2,22,62,0,0
12324,-111.111111111111,4,2,22,5,0,0
12885,-111.111111111111,4,2,22,42,0,0
13046,-111.111111111111,4,2,22,62,0,0
14409,-111.111111111111,4,2,22,5,0,0
14810,-111.111111111111,4,2,22,62,0,0
14890,-111.111111111111,4,2,22,5,0,0
15613,-111.111111111111,4,2,22,62,0,0
20746,-100,4,2,22,72,0,0
29570,-100,4,2,22,82,0,0
29650,-100,4,2,22,5,0,0
29891,-100,4,2,22,82,0,0
29971,-100,4,2,22,5,0,0
30211,-100,4,2,22,82,0,0
30291,-100,4,2,22,5,0,0
30532,-100,4,2,22,82,0,0
30612,-100,4,2,22,5,0,0
30853,-100,4,2,22,82,0,0
30933,-100,4,2,22,5,0,0
31014,-111.111111111111,4,2,22,72,0,0
31094,-111.111111111111,4,3,22,52,0,0
33580,-111.111111111111,4,2,22,52,0,0
39837,-111.111111111111,4,2,22,62,0,0
39917,-111.111111111111,4,2,22,5,0,0
40158,-111.111111111111,4,2,22,62,0,0
40238,-111.111111111111,4,2,22,5,0,0
40479,-111.111111111111,4,2,22,62,0,0
40559,-111.111111111111,4,2,22,5,0,0
40800,-111.111111111111,4,2,22,52,0,0
41281,-100,4,2,22,62,0,0
51548,-100,4,2,22,62,0,0
61014,-100,4,2,22,42,0,0
61816,-90.9090909090909,4,2,22,82,0,1
82351,-111.111111111111,4,2,22,72,0,0
85399,-111.111111111111,4,2,22,62,0,0
86201,-111.111111111111,4,2,22,62,0,0

[Colours]
Combo1 : 224,97,199
Combo2 : 239,189,97
Combo3 : 214,107,37
Combo4 : 230,202,219

[HitObjects]
170,63,212,6,0,B|150:89|150:89|166:167,2,89.9999972534181,6|8|10,1:2|2:1|2:1,0:0:0:0:
253,29,1174,1,10,2:1:0:0:
334,68,1495,2,0,L|443:55,2,89.9999972534181,8|10|8,2:1|2:1|2:1,0:0:0:0:
269,130,2457,2,0,L|266:202,1,44.999998626709,8|0,2:1|1:2,0:0:0:0:
279,218,2778,6,0,P|326:245|377:235,2,89.9999972534181,2|8|10,1:2|2:1|2:1,0:0:0:0:
223,289,3741,1,10,2:1:0:0:
161,223,4062,2,0,P|99:225|65:264,2,89.9999972534181,8|10|10,2:1|2:1|2:1,0:0:0:0:
206,145,5024,1,10,2:1:0:0:
164,65,5345,6,0,L|38:82,1,89.9999972534181,6|0,1:2|1:2,2:0:0:0:
9,139,5987,2,0,B|-2:170|-2:170|18:260,1,89.9999972534181,0|0,1:2|1:2,2:0:0:0:
53,305,6629,2,0,L|166:320,1,89.9999972534181,0|8,1:0|1:0,0:0:0:0:
231,309,7270,2,0,P|290:336|336:308,1,89.9999972534181,0|8,1:2|2:1,0:0:0:0:
371,250,7912,6,0,L|250:223,1,100,6|2,1:2|1:2,2:0:0:0:
245,193,8393,1,2,1:2:0:0:
245,193,8554,2,0,L|186:177,1,50,0|2,1:2|1:2,0:0:0:0:
148,166,8875,1,10,2:0:0:0:
142,66,9195,1,8,2:0:0:0:
221,4,9516,1,0,1:2:0:0:
319,13,9837,2,0,L|332:68,1,50,10|10,2:0|2:0,0:0:0:0:
375,83,10158,2,0,L|370:154,1,50,10|10,2:0|2:0,0:0:0:0:
400,167,10479,6,0,L|388:318,1,134.999995880127,6|2,1:2|3:2,2:0:0:0:
360,336,11121,2,0,P|306:357|264:336,1,89.9999972534181,2|0,3:2|3:2,2:0:0:0:
208,290,11762,2,0,B|179:263|179:263|52:272,1,134.999995880127,2|2,1:2|1:2,2:0:0:0:
47,47,13046,6,0,L|174:41,1,89.9999972534181,6|2,1:2|3:0,2:0:0:0:
172,79,13527,1,2,3:2:0:0:
172,79,13687,2,0,P|226:104|280:71,1,89.9999972534181,2|2,3:2|3:2,2:0:0:0:
324,42,14329,2,0,B|367:61|367:61|353:178,1,134.999995880127,2|2,1:2|1:2,2:0:0:0:
282,358,15613,6,0,P|215:368|173:340,1,89.9999972534181,6|0,1:2|1:2,2:0:0:0:
144,290,16254,1,2,1:2:0:0:
54,300,16575,1,0,1:2:0:0:
13,219,16896,2,0,L|29:108,1,89.9999972534181,2|0,1:2|1:2,2:0:0:0:
92,68,17538,1,2,1:2:0:0:
174,104,17859,1,0,1:2:0:0:
252,59,18179,6,0,P|298:88|305:138,1,89.9999972534181,2|0,1:2|1:2,2:0:0:0:
256,195,18821,1,2,1:2:0:0:
275,283,19142,1,0,1:2:0:0:
358,316,19463,2,0,L|422:307,1,44.999998626709,0|8,0:0|2:0,0:0:0:0:
446,301,19784,1,10,2:0:0:0:
474,215,20105,2,0,L|465:133,1,44.999998626709,8|10,2:0|2:0,0:0:0:0:
398,37,20746,6,0,B|383:28|383:28|278:41,1,100,6|10,1:2|2:0,0:0:0:0:
275,81,21228,2,0,L|264:199,1,100,2|0,2:0|2:0,2:0:0:0:
256,232,21709,1,10,2:0:0:0:
256,232,21869,1,2,2:0:0:0:
245,331,22190,2,0,P|174:312|126:350,1,100,2|0,2:0|3:2,2:0:0:0:
111,350,22671,2,0,P|63:361|18:340,1,100,2|8,1:2|3:2,2:0:0:0:
3,241,23313,6,0,L|14:106,1,100,2|10,1:2|2:0,0:0:0:0:
18,91,23794,2,0,B|50:70|50:70|123:85,1,100,2|0,2:0|0:2,2:0:0:0:
158,111,24276,1,10,2:0:0:0:
158,111,24436,1,2,2:0:0:0:
233,45,24757,2,0,P|277:68|351:41,1,100,2|0,2:0|3:2,2:0:0:0:
369,36,25238,2,0,L|486:29,1,100,10|8,2:0|2:3,2:0:0:0:
492,127,25880,6,0,L|392:132,1,100,6|10,1:2|2:0,0:0:0:0:
362,172,26361,2,0,P|294:164|241:198,1,100,2|0,2:0|2:0,2:0:0:0:
236,216,26843,1,10,2:0:0:0:
236,216,27003,1,2,2:0:0:0:
145,173,27324,2,0,P|134:102|164:63,1,100,2|0,3:0|3:2,0:0:0:0:
179,42,27805,2,0,L|63:31,1,100,2|10,1:2|2:0,0:0:0:0:
16,111,28447,6,0,B|8:131|8:131|25:234,1,100,2|10,1:2|2:0,2:0:0:0:
21,258,28928,2,0,P|53:320|119:327,1,100,2|0,2:0|2:0,2:0:0:0:
128,331,29409,1,10,2:0:0:0:
128,331,29570,1,2,1:2:0:0:
148,233,29891,1,2,1:2:0:0:
172,136,30211,1,2,1:2:0:0:
264,98,30532,1,2,1:2:0:0:
309,193,30853,1,2,1:2:0:0:
309,193,31014,6,0,P|368:219|417:192,1,89.9999972534181,6|0,1:2|0:0,0:0:0:0:
472,249,31655,2,0,P|479:184|499:122,1,89.9999972534181,2|0,3:2|3:2,0:0:0:0:
458,73,32297,2,0,B|444:32|444:32|373:21,1,89.9999972534181,2|2,3:2|3:2,3:0:0:0:
352,24,32778,2,0,L|242:15,1,89.9999972534181,2|8,3:2|3:2,3:0:0:0:
216,19,33260,1,10,3:2:0:0:
139,65,33580,6,0,P|178:104|226:102,1,89.9999972534181,6|8,1:2|0:2,3:0:0:0:
239,148,34062,1,0,1:0:0:0:
239,148,34222,2,0,L|247:262,1,89.9999972534181,2|8,1:2|0:2,0:0:0:0:
227,326,34864,2,0,B|203:351|203:351|135:359,1,89.9999972534181,2|10,1:2|0:2,3:0:0:0:
104,367,35345,2,0,L|1:349,1,89.9999972534181,2|0,1:2|1:0,0:0:0:0:
3,308,35826,1,10,0:2:0:0:
1,217,36147,6,0,P|32:161|80:153,1,89.9999972534181,6|8,1:2|0:2,3:0:0:0:
102,155,36629,1,0,1:2:0:0:
102,155,36789,2,0,L|207:167,1,89.9999972534181,2|8,1:2|0:2,3:0:0:0:
254,100,37431,2,0,P|320:84|343:37,1,89.9999972534181,2|10,1:2|0:2,3:0:0:0:
361,34,37912,2,0,L|467:30,1,89.9999972534181,2|0,1:2|1:0,0:0:0:0:
495,26,38393,1,10,0:2:0:0:
471,112,38714,6,0,B|469:143|469:143|479:218,1,89.9999972534181,2|10,1:2|0:2,3:0:0:0:
481,246,39195,1,2,1:2:0:0:
439,325,39516,2,0,L|388:321,1,44.999998626709,0|10,0:0|0:2,0:0:0:0:
359,350,39837,2,0,P|306:324|243:338,1,89.9999972534181,6|6,1:2|1:2,0:0:0:0:
191,352,40479,2,0,P|190:268|178:231,1,89.9999972534181,6|8,1:2|2:3,0:0:0:0:
212,224,40960,2,0,L|293:208,1,44.999998626709,8|8,2:2|2:2,0:0:0:0:
298,188,41281,6,0,B|309:170|309:170|296:89,1,100,6|10,1:2|0:2,0:0:0:0:
288,42,41762,1,0,0:2:0:0:
288,42,41923,2,0,L|212:27,1,50,2|0,1:2|0:2,0:0:0:0:
189,23,42244,1,10,0:2:0:0:
96,59,42564,2,0,B|65:87|65:87|79:160,1,100,2|10,1:2|0:2,0:0:0:0:
94,190,43046,2,0,P|103:254|79:298,1,100,2|0,0:2|3:2,0:0:0:0:
62,327,43527,1,8,0:2:0:0:
149,374,43848,6,0,L|258:363,1,100,2|10,1:2|0:2,0:0:0:0:
297,355,44329,1,0,0:0:0:0:
297,355,44490,1,2,1:2:0:0:
304,255,44810,2,0,L|299:174,1,50,10|2,0:2|0:2,0:0:0:0:
272,163,45131,2,0,P|262:90|305:46,1,100,2|10,1:2|0:2,0:0:0:0:
313,38,45613,2,0,L|430:44,1,100,2|2,0:2|0:2,0:0:0:0:
462,46,46094,1,8,0:2:0:0:
490,141,46415,6,0,B|498:183|498:183|478:265,1,100,6|10,1:2|0:2,0:0:0:0:
474,287,46896,1,0,0:2:0:0:
474,287,47056,2,0,L|351:297,1,100,2|10,1:2|0:2,0:0:0:0:
295,357,47698,2,0,P|239:312|184:323,1,100,2|10,1:2|0:2,0:0:0:0:
167,330,48179,2,0,L|28:343,1,100,2|0,0:2|3:2,0:0:0:0:
19,354,48661,1,10,0:2:0:0:
1,255,48982,6,0,B|-2:208|-2:208|13:129,1,100,2|8,1:2|0:2,0:0:0:0:
34,113,49463,1,0,3:2:0:0:
34,113,49623,2,0,L|159:100,1,100,0|8,1:2|0:2,0:0:0:0:
225,143,50265,2,0,B|234:194|234:194|231:241,1,100,2|10,1:2|0:2,0:0:0:0:
279,330,50907,2,0,L|355:344,1,50,0|10,1:2|0:2,0:0:0:0:
370,365,51228,2,0,L|435:349,1,50,8|4,0:2|0:3,0:0:0:0:
456,320,51548,6,0,P|480:256|459:174,1,150,6|2,1:2|1:2,0:0:0:0:
426,142,52190,1,2,1:2:0:0:
326,30,52671,1,2,1:2:0:0:
326,30,52832,2,0,B|293:68|293:68|318:191,1,150,2|0,0:2|0:0,0:0:0:0:
325,214,53474,1,2,1:2:0:0:
304,311,53794,2,0,L|205:300,1,50,8|2,0:2|0:2,0:0:0:0:
206,319,54115,6,0,B|148:314|148:314|124:336|124:336|50:330,1,150,6|2,1:2|1:2,0:0:0:0:
15,323,54757,1,2,1:2:0:0:
0,192,55238,1,2,1:2:0:0:
0,192,55399,2,0,P|55:147|138:175,1,150,2|0,1:2|0:0,0:0:0:0:
155,204,56040,1,2,1:2:0:0:
249,237,56361,2,0,L|335:215,1,50,8|2,0:2|0:2,0:0:0:0:
332,188,56682,6,0,P|358:127|327:71,1,100,6|2,1:2|1:2,3:0:0:0:
333,49,57163,2,0,L|464:39,1,100,2|2,3:2|3:2,3:0:0:0:
483,37,57645,1,2,1:2:0:0:
508,133,57966,2,0,L|500:260,1,100,2|0,1:2|0:0,0:0:0:0:
424,296,58607,2,0,L|411:202,2,75,2|2|10,1:2|3:2|0:2,0:0:0:0:
398,339,59249,6,0,P|339:338|290:246,1,150,6|0,0:2|0:2,0:0:0:0:
262,227,59891,1,8,0:2:0:0:
226,139,60211,1,8,0:2:0:0:
226,139,60372,2,0,P|180:101|133:102,1,100,12|8,0:2|0:2,0:0:0:0:
92,107,60853,1,8,0:2:0:0:
47,273,61816,6,0,P|90:338|163:333,1,110.000003356934,4|8,1:2|0:2,0:0:0:0:
170,323,62297,1,0,3:2:0:0:
170,323,62457,2,0,L|248:313,1,55.0000016784668,2|2,1:2|0:2,0:0:0:0:
283,314,62778,1,10,0:2:0:0:
283,314,62939,1,2,0:2:0:0:
388,346,63260,2,0,P|441:319|450:247,1,110.000003356934,0|0,3:0|0:2,0:0:0:0:
451,218,63741,2,0,L|446:146,1,55.0000016784668,2|0,1:2|0:2,0:0:0:0:
444,112,64062,1,10,0:2:0:0:
444,112,64222,1,0,0:2:0:0:
349,67,64543,5,2,0:2:0:0:
349,67,64703,2,0,L|355:129,1,55.0000016784668,10|0,0:2|3:2,0:0:0:0:
311,156,65024,2,0,L|320:240,1,55.0000016784668,2|2,1:2|0:2,0:0:0:0:
316,266,65345,1,10,0:2:0:0:
222,349,65666,2,0,P|174:364|110:330,1,110.000003356934,2|8,1:2|0:2,0:0:0:0:
22,292,66308,2,0,P|37:236|44:171,1,110.000003356934,0|8,1:2|0:2,0:0:0:0:
47,129,66789,1,0,0:0:0:0:
168,17,67270,5,10,0:2:0:0:
168,17,67431,2,0,P|222:9|272:47,1,110.000003356934,0|0,3:2|0:2,0:0:0:0:
284,95,67912,1,10,0:2:0:0:
284,95,68072,2,0,B|251:122|251:122|139:127,1,110.000003356934,0|0,3:2|0:2,0:0:0:0:
128,125,68554,1,10,0:2:0:0:
91,228,68875,1,0,1:2:0:0:
110,336,69195,1,8,3:2:0:0:
214,369,69516,6,0,P|262:379|328:332,1,110.000003356934,6|8,1:2|0:2,0:0:0:0:
354,316,69998,1,0,1:2:0:0:
354,316,70158,2,0,L|370:180,1,110.000003356934,2|8,1:2|0:2,0:0:0:0:
428,118,70800,2,0,P|431:53|395:15,1,110.000003356934,4|8,1:2|0:2,0:0:0:0:
352,23,71281,1,10,0:2:0:0:
352,23,71441,2,0,L|261:35,1,55.0000016784668,10|10,0:0|0:2,0:0:0:0:
254,64,71762,1,8,0:3:0:0:
146,41,72083,6,0,P|77:41|25:47,1,110.000003356934,4|8,1:2|0:2,0:0:0:0:
16,99,72564,1,2,0:2:0:0:
16,99,72725,2,0,P|9:154|7:183,1,55.0000016784668,0|0,1:2|3:2,0:0:0:0:
4,211,73046,1,10,0:2:0:0:
4,211,73206,1,0,3:2:0:0:
28,318,73527,2,0,P|77:359|132:343,1,110.000003356934,0|0,3:2|0:2,0:0:0:0:
150,306,74008,1,0,1:2:0:0:
186,202,74329,1,10,0:2:0:0:
173,92,74650,6,0,L|69:80,2,82.5000025177003,2|2|2,1:2|0:3|0:2,0:0:0:0:
228,89,75292,2,0,P|255:61|268:-3,2,82.5000025177003,2|2|2,1:2|0:3|0:2,0:0:0:0:
210,140,75933,2,0,L|219:255,1,110.000003356934,2|8,1:2|0:2,0:0:0:0:
232,308,76415,1,2,0:2:0:0:
232,308,76575,2,0,P|290:337|347:311,1,110.000003356934,0|8,1:0|0:2,0:0:0:0:
440,329,77217,6,0,P|443:256|459:205,1,110.000003356934,4|8,1:2|0:2,0:0:0:0:
472,171,77698,1,0,3:2:0:0:
472,171,77859,1,0,1:2:0:0:
467,61,78179,1,10,0:2:0:0:
373,3,78500,2,0,P|330:38|334:103,1,110.000003356934,2|10,1:2|0:2,0:0:0:0:
304,139,78982,2,0,L|315:258,1,110.000003356934,2|2,0:2|0:2,0:0:0:0:
319,303,79463,1,10,0:2:0:0:
223,355,79784,6,0,P|162:359|121:324,1,110.000003356934,2|10,1:2|0:2,0:0:0:0:
107,278,80265,1,2,0:2:0:0:
122,172,80586,1,0,3:2:0:0:
122,172,80746,2,0,L|134:111,1,55.0000016784668,8|0,0:2|3:2,0:0:0:0:
159,72,81067,2,0,B|216:72|275:36,1,110.000003356934,0|8,1:2|0:2,0:0:0:0:
358,98,81709,2,0,L|372:168,1,55.0000016784668,8|8,0:2|0:3,0:0:0:0:
396,199,82030,2,0,L|409:279,1,55.0000016784668,4|4,0:3|0:3,0:0:0:0:
407,298,82351,6,0,P|381:332|305:330,1,89.9999972534181,6|0,1:2|0:2,0:0:0:0:
302,322,82832,1,0,1:2:0:0:
302,322,82992,2,0,L|188:331,1,89.9999972534181,8|0,0:2|0:2,0:0:0:0:
122,341,83634,2,0,B|100:301|100:301|122:245,1,89.9999972534181,0|0,0:0|1:2,0:0:0:0:
140,223,84115,1,8,0:3:0:0:
140,223,84276,2,0,L|132:108,1,89.9999972534181,8|0,0:2|1:2,0:0:0:0:
171,53,84917,5,4,1:2:0:0:
171,53,85078,2,0,B|206:36|206:36|278:48,1,89.9999972534181,0|8,1:2|0:3,0:0:0:0:
299,56,85559,1,8,0:2:0:0:
387,73,85880,1,4,1:2:0:0:
473,99,86201,1,0,0:0:0:0:
256,192,86361,12,0,87484,0:0:0:0:
