osu file format v14

[General]
AudioFilename: audio.mp3
AudioLeadIn: 0
PreviewTime: 60933
Countdown: 0
SampleSet: Soft
StackLeniency: 0.7
Mode: 0
LetterboxInBreaks: 0
WidescreenStoryboard: 1

[Editor]
DistanceSpacing: 1.5
BeatDivisor: 4
GridSize: 32
TimelineZoom: 2

[Metadata]
Title:Gyakkyou Spectrum
TitleUnicode:逆境スペクトル
Artist:ASCA
ArtistUnicode:ASCA
Creator:Sotarks
Version:Shunao's Hard
Source:ソードアート・オンライン アンリーシュ・ブレイディング
Tags:sao sword art online unleash blading rpg game mobile opening op japanese female vocals vocalist jpop j-pop j pop mnyui sytho shunao shogunmoon gelidium video
BeatmapID:3336420
BeatmapSetID:1633990

[Difficulty]
HPDrainRate:5
CircleSize:3.7
OverallDifficulty:6
ApproachRate:8
SliderMultiplier:1.4
SliderTickRate:1

[Events]
//Background and Video events
Video,-378,"video.mp4"
0,0,"bg_asuna.jpg",0,0
//Break Periods
//Storyboard Layer 0 (Background)
//Storyboard Layer 1 (Fail)
//Storyboard Layer 2 (Pass)
//Storyboard Layer 3 (Foreground)
//Storyboard Layer 4 (Overlay)
//Storyboard Sound Samples

[TimingPoints]
212,320.855614973262,4,2,22,52,1,0
372,-125,4,2,22,52,0,0
7912,-111.111111111111,4,2,22,62,0,0
9837,-111.111111111111,4,2,22,82,0,0
10479,-125,4,2,22,82,0,0
10559,-125,4,2,22,62,0,0
11843,-125,4,2,22,5,0,0
12244,-125,4,2,22,62,0,0
12324,-125,4,2,22,5,0,0
12885,-125,4,2,22,42,0,0
13046,-125,4,2,22,62,0,0
13126,-125,4,2,22,62,0,0
14409,-125,4,2,22,5,0,0
14810,-125,4,2,22,62,0,0
14890,-125,4,2,22,5,0,0
15613,-125,4,2,22,62,0,0
20746,-100,4,2,22,72,0,0
29570,-100,4,2,22,82,0,0
29650,-100,4,2,22,5,0,0
29891,-100,4,2,22,82,0,0
29971,-100,4,2,22,5,0,0
30211,-100,4,2,22,82,0,0
30291,-100,4,2,22,5,0,0
30532,-100,4,2,22,82,0,0
30612,-100,4,2,22,5,0,0
30853,-100,4,2,22,82,0,0
30933,-100,4,2,22,5,0,0
31014,-125,4,2,22,72,0,0
31094,-125,4,3,22,52,0,0
33580,-125,4,2,22,52,0,0
39837,-125,4,2,22,62,0,0
39917,-125,4,2,22,5,0,0
40158,-125,4,2,22,62,0,0
40238,-125,4,2,22,5,0,0
40479,-125,4,2,22,62,0,0
40559,-125,4,2,22,5,0,0
40800,-125,4,2,22,52,0,0
41281,-100,4,2,22,62,0,0
51548,-111.111111111111,4,2,22,62,0,0
61014,-111.111111111111,4,2,22,42,0,0
61174,-100,4,2,22,42,0,0
61816,-83.3333333333333,4,2,22,82,0,1
82351,-111.111111111111,4,2,22,72,0,0
85399,-111.111111111111,4,2,22,62,0,0

[Colours]
Combo1 : 224,97,199
Combo2 : 239,189,97
Combo3 : 214,107,37
Combo4 : 230,202,219

[HitObjects]
151,85,212,5,6,1:2:0:0:
151,85,372,2,0,P|190:74|218:77,1,56,2|8,2:0|2:1,2:0:0:0:
284,103,693,2,0,P|340:121|399:97,1,112,2|0,3:2|2:0,0:0:0:0:
455,53,1174,1,10,2:1:0:0:
455,53,1334,6,0,P|468:91|471:127,1,56,2|8,2:0|2:1,2:0:0:0:
497,186,1655,2,0,P|485:229|477:308,1,112,2|0,2:0|0:0,0:0:0:0:
415,354,2137,2,0,P|377:348|341:346,1,56,8|0,2:1|0:0,0:0:0:0:
277,362,2457,2,0,P|239:368|203:370,1,56,8|0,2:1|1:2,0:0:0:0:
138,354,2778,5,2,1:2:0:0:
138,354,2939,2,0,P|130:318|115:282,1,56,2|8,2:0|2:1,0:0:0:0:
54,251,3260,2,0,P|107:256|164:217,1,112,2|0,2:0|2:0,0:0:0:0:
219,171,3741,1,10,2:1:0:0:
219,171,3901,6,0,P|185:149|148:137,1,56,2|8,2:0|2:1,2:0:0:0:
93,109,4222,2,0,P|132:68|206:66,1,112,2|0,3:2|0:0,0:0:0:0:
268,71,4703,2,0,L|347:64,1,56,10|2,2:1|2:0,0:0:0:0:
397,25,5024,2,0,L|478:32,1,56,10|0,2:1|0:0,0:0:0:0:
491,123,5345,5,6,1:2:0:0:
491,123,5506,2,0,P|480:171|477:201,1,56,0|0,2:0|1:2,0:0:0:0:
417,234,5826,2,0,P|424:261|428:288,1,56,0|0,2:0|1:2,0:0:0:0:
378,356,6147,1,0,2:0:0:0:
294,365,6308,1,0,1:2:0:0:
294,365,6468,6,0,P|259:355|230:355,1,56,2|0,2:0|1:0,2:0:0:0:
155,362,6789,2,0,P|120:372|91:372,1,56,0|8,2:0|1:0,0:0:0:0:
31,324,7110,1,8,2:1:0:0:
31,324,7270,2,0,L|26:258,1,56,0|0,1:2|0:0,0:0:0:0:
80,202,7591,2,0,L|84:146,1,56,8|0,2:1|3:2,2:0:0:0:
40,61,7912,6,0,P|89:49|118:57,1,63.0000000000001,6|0,1:2|1:0,2:0:0:0:
188,86,8233,1,2,1:2:0:0:
188,86,8393,2,0,P|237:98|266:90,1,63.0000000000001,2|0,1:2|1:2,0:0:0:0:
341,78,8714,1,2,1:2:0:0:
341,78,8875,2,0,P|390:66|419:74,1,63.0000000000001,10|0,2:0|0:0,2:0:0:0:
494,84,9195,6,0,L|486:158,1,63.0000000000001,8|0,2:0|1:2,0:0:0:0:
472,240,9516,2,0,P|431:230|390:231,1,63.0000000000001,0|0,1:2|1:2,0:0:0:0:
320,248,9837,1,10,2:0:0:0:
320,248,9998,1,10,2:0:0:0:
229,222,10158,1,10,2:0:0:0:
229,222,10318,1,10,2:0:0:0:
146,288,10479,6,0,P|123:243|142:164,1,112,6|0,1:2|3:0,2:0:0:0:
191,126,10960,1,2,3:2:0:0:
191,126,11121,2,0,P|136:136|80:107,1,112,2|0,3:2|3:2,2:0:0:0:
146,53,11602,1,2,3:2:0:0:
229,50,11762,6,0,P|261:73|274:100,1,56,2|0,1:2|0:0,2:0:0:0:
356,230,12244,1,2,1:2:0:0:
44,354,12885,1,2,2:0:0:0:
44,354,13046,6,0,P|94:332|167:349,1,112,6|2,1:2|3:0,2:0:0:0:
227,370,13527,1,2,3:2:0:0:
227,370,13687,2,0,P|247:322|262:260,1,112,2|2,3:2|3:2,2:0:0:0:
218,196,14169,1,2,3:2:0:0:
218,196,14329,6,0,P|211:159|207:131,1,56,2|0,1:2|0:0,2:0:0:0:
327,22,14810,1,2,1:2:0:0:
34,323,15613,6,0,B|15:266|58:267|30:195,1,112,6|0,1:2|1:2,2:0:0:0:
78,50,16254,2,0,P|142:59|187:106,1,112,2|0,1:2|1:2,2:0:0:0:
247,152,16736,1,0,3:2:0:0:
247,152,16816,1,2,0:3:0:0:
247,152,16896,6,0,L|369:137,1,112,2|0,1:2|1:2,2:0:0:0:
495,41,17538,2,0,P|458:80|481:149,1,112,2|0,1:2|1:2,2:0:0:0:
494,223,18019,1,2,3:2:0:0:
494,223,18099,1,2,0:3:0:0:
494,223,18179,6,0,L|380:214,1,112,2|0,1:2|1:2,2:0:0:0:
246,313,18821,2,0,P|206:278|196:205,1,112,2|0,1:2|1:2,2:0:0:0:
357,31,19623,5,8,2:0:0:0:
357,31,19784,1,10,2:0:0:0:
189,14,20105,1,8,2:0:0:0:
189,14,20265,1,10,2:0:0:0:
54,298,20746,6,0,P|84:340|179:343,1,140,6|10,1:2|2:0,0:0:0:0:
256,326,21228,2,0,L|242:166,1,140,2|0,2:0|2:0,2:0:0:0:
171,140,21709,1,10,2:0:0:0:
171,140,21869,6,0,P|202:109|237:102,1,70,2|0,2:0|1:2,2:0:0:0:
317,94,22190,2,0,L|311:56,2,35,2|0|8,2:0|0:0|2:0,2:0:0:0:
402,127,22511,2,0,L|434:108,2,35,0|2|2,3:2|0:3|1:2,0:0:0:0:
369,212,22832,1,0,2:0:0:0:
369,212,22992,2,0,L|361:287,1,70,8|0,3:2|3:2,2:0:0:0:
295,344,23313,6,0,P|350:372|438:333,1,140,2|10,1:2|2:0,0:0:0:0:
485,285,23794,2,0,P|461:217|488:144,1,140,2|0,2:0|0:2,2:0:0:0:
499,64,24276,1,10,2:0:0:0:
422,14,24436,1,2,2:0:0:0:
337,49,24597,6,0,B|260:22|267:80|186:56,1,140,0|8,1:2|2:0,0:0:0:0:
111,43,25078,2,0,P|78:27|63:24,2,35,0|2|10,3:2|0:3|2:0,0:0:0:0:
138,129,25399,1,0,2:0:0:0:
138,129,25559,2,0,P|123:169|119:200,1,70,8|4,2:3|2:3,0:0:0:0:
39,240,25880,6,0,P|104:237|153:301,1,140,6|10,1:2|2:0,0:0:0:0:
206,362,26361,2,0,L|350:361,1,140,2|0,2:0|2:0,2:0:0:0:
421,308,26843,1,10,2:0:0:0:
421,308,27003,6,0,P|425:270|412:227,1,70,2|0,2:0|1:2,2:0:0:0:
344,185,27324,2,0,L|303:191,2,35,2|2|10,3:0|2:3|2:0,0:0:0:0:
407,118,27645,2,0,L|441:112,2,35,0|2|2,3:2|0:3|1:2,0:0:0:0:
334,62,27966,1,2,0:2:0:0:
334,62,28126,2,0,P|291:46|261:40,1,70,10|0,2:0|2:0,2:0:0:0:
179,16,28447,6,0,P|136:44|31:23,1,140,2|10,1:2|2:0,2:0:0:0:
9,118,28928,2,0,P|23:182|32:271,1,140,2|0,2:0|2:0,2:0:0:0:
37,347,29409,1,10,2:0:0:0:
126,290,29570,6,0,P|144:248|163:217,1,70,2|0,1:2|0:0,2:0:0:0:
247,228,29891,2,0,P|233:195|216:165,1,70,2|0,1:2|0:0,2:0:0:0:
306,160,30211,2,0,P|324:118|343:87,1,70,2|0,1:2|0:0,2:0:0:0:
394,26,30532,2,0,P|411:56|424:88,1,70,2|0,1:2|0:0,2:0:0:0:
486,155,30853,1,2,1:2:0:0:
456,260,31014,6,0,B|401:247|405:278|341:269,1,112,6|0,1:2|0:0,0:0:0:0:
232,146,31655,2,0,P|205:93|148:73,1,112,2|0,3:2|3:2,0:0:0:0:
13,158,32297,6,0,P|18:214|37:288,1,112,2|2,3:2|3:2,3:0:0:0:
101,313,32778,2,0,P|117:269|118:236,1,56,2|0,3:2|3:2,3:0:0:0:
186,210,33099,1,8,3:2:0:0:
264,240,33260,2,0,L|302:237,3,28,10|8|8|8,3:2|3:2|3:2|3:2,0:0:0:0:
329,220,33580,6,0,P|311:276|346:333,1,112,6|8,1:2|0:2,3:0:0:0:
407,361,34062,1,0,1:0:0:0:
407,361,34222,2,0,P|469:350|528:348,1,112,2|8,1:2|0:2,0:0:0:0:
491,267,34703,1,0,1:2:0:0:
491,267,34864,6,0,P|462:234|458:163,1,112,2|10,1:2|0:2,3:0:0:0:
497,94,35345,1,2,1:2:0:0:
497,94,35425,1,0,1:2:0:0:
497,94,35506,2,0,P|443:88|392:55,1,112,0|10,1:2|0:2,3:0:0:0:
322,14,35987,1,0,1:2:0:0:
322,14,36147,6,0,B|196:22,1,112,6|8,1:2|0:2,3:0:0:0:
149,79,36629,1,0,1:2:0:0:
149,79,36789,2,0,L|23:70,1,112,2|8,1:2|0:2,3:0:0:0:
16,155,37270,1,0,0:2:0:0:
16,155,37431,6,0,P|33:200|99:227,1,112,2|10,1:2|0:2,3:0:0:0:
175,210,37912,1,2,1:2:0:0:
175,210,37992,1,0,1:2:0:0:
175,210,38072,2,0,P|222:192|302:192,1,112,0|10,1:2|0:2,3:0:0:0:
364,213,38554,1,0,1:2:0:0:
364,213,38714,6,0,P|406:222|445:223,1,56,2|0,1:2|1:0,3:0:0:0:
496,257,39035,1,10,0:2:0:0:
496,257,39195,2,0,P|482:307|479:336,1,56,2|0,1:2|1:2,0:0:0:0:
420,369,39516,2,0,P|387:362|356:359,1,56,0|10,0:0|0:2,0:0:0:0:
281,370,39837,1,6,1:2:0:0:
125,305,40158,5,6,1:2:0:0:
185,148,40479,1,6,1:2:0:0:
341,210,40800,1,8,2:3:0:0:
390,142,40960,2,0,L|385:102,3,28,8|8|8|8,2:2|2:2|2:2|2:2,0:0:0:0:
366,65,41281,6,0,P|325:49|284:49,1,70,6|0,1:2|0:2,0:0:0:0:
211,71,41602,2,0,L|219:149,1,70,10|0,0:2|0:2,0:0:0:0:
253,225,41923,2,0,L|245:294,1,70,2|0,1:2|0:2,0:0:0:0:
181,359,42244,1,10,0:2:0:0:
90,362,42404,1,0,3:2:0:0:
14,311,42564,6,0,P|82:315|134:251,1,140,2|10,1:2|0:2,0:0:0:0:
86,185,43046,2,0,P|72:134|68:89,1,70,2|0,0:2|1:2,0:0:0:0:
15,43,43367,2,0,P|50:28|108:34,1,70,0|8,3:2|0:2,0:0:0:0:
164,62,43687,1,2,0:2:0:0:
164,62,43848,6,0,P|199:77|257:71,1,70,2|0,1:2|0:0,0:0:0:0:
314,41,44169,2,0,P|349:26|407:32,1,70,10|0,0:2|0:0,0:0:0:0:
470,40,44490,2,0,L|463:115,1,70,2|0,1:2|3:2,0:0:0:0:
497,193,44810,1,10,0:2:0:0:
500,284,44971,1,2,0:2:0:0:
439,351,45131,6,0,B|360:332|370:372|300:358,1,140,2|10,1:2|0:2,0:0:0:0:
211,338,45613,2,0,P|222:303|230:247,1,70,2|0,0:2|1:2,0:0:0:0:
180,193,45933,2,0,P|228:179|264:185,1,70,2|8,0:2|0:2,0:0:0:0:
330,218,46254,1,0,3:2:0:0:
406,168,46415,6,0,L|413:98,1,70,6|0,1:2|0:2,0:0:0:0:
346,35,46736,2,0,P|287:17|256:20,1,70,10|0,0:2|0:2,0:0:0:0:
188,23,47056,2,0,P|129:41|98:38,1,70,2|0,1:2|0:2,0:0:0:0:
31,23,47377,1,10,0:2:0:0:
6,110,47538,1,2,0:2:0:0:
73,170,47698,6,0,P|121:154|206:194,1,140,2|10,1:2|0:2,0:0:0:0:
233,271,48179,2,0,L|223:360,1,70,2|0,0:2|1:2,0:0:0:0:
136,361,48500,1,0,3:2:0:0:
136,361,48661,2,0,L|128:291,1,70,10|0,0:2|0:2,0:0:0:0:
193,227,48982,6,0,B|265:213|261:263|349:239,1,140,2|8,1:2|0:2,0:0:0:0:
419,229,49463,2,0,L|409:154,1,70,0|0,3:2|1:2,0:0:0:0:
346,101,49784,1,0,3:2:0:0:
346,101,49944,2,0,P|390:78|439:65,1,70,8|2,0:2|0:2,0:0:0:0:
491,31,50265,6,0,P|435:21|410:12,1,70,2|0,1:2|0:0,0:0:0:0:
331,13,50586,1,10,0:2:0:0:
331,13,50746,2,0,P|296:17|262:27,1,70,2|0,0:2|1:2,0:0:0:0:
173,45,51067,2,0,P|141:39|115:32,2,35,10|8|8,0:2|0:2|0:2,0:0:0:0:
204,130,51388,1,4,0:3:0:0:
204,130,51548,6,0,P|193:157|180:198,2,63.0000000000001,6|0|8,1:2|0:0|0:2,0:0:0:0:
288,183,52030,1,2,1:2:0:0:
288,183,52190,2,0,P|353:171|435:165,1,126,2|8,1:2|0:2,0:0:0:0:
512,166,52671,1,2,1:2:0:0:
512,166,52832,6,0,P|458:190|442:262,1,126,2|8,0:2|0:2,0:0:0:0:
481,335,53313,1,0,0:0:0:0:
481,335,53393,1,8,0:2:0:0:
481,335,53474,2,0,P|429:301|347:321,1,126,2|8,1:2|0:2,0:0:0:0:
287,358,53955,1,2,0:2:0:0:
180,347,54115,6,0,P|171:315|175:281,2,63.0000000000001,6|0|8,1:2|0:0|0:2,0:0:0:0:
86,366,54597,1,2,1:2:0:0:
86,366,54757,2,0,P|44:360|22:265,1,126,2|8,1:2|0:2,0:0:0:0:
35,201,55238,1,2,1:2:0:0:
35,201,55399,6,0,B|102:183|98:219|170:207,1,126,2|8,1:2|0:2,0:0:0:0:
250,184,55880,1,0,0:0:0:0:
250,184,55960,1,8,0:2:0:0:
250,184,56040,2,0,P|274:140|229:67,1,126,2|8,1:2|0:2,0:0:0:0:
159,32,56522,1,2,0:2:0:0:
73,94,56682,6,0,P|128:83|219:78,1,126,6|2,1:2|1:2,3:0:0:0:
279,30,57163,2,0,P|340:41|403:46,1,126,2|2,3:2|3:2,3:0:0:0:
479,104,57645,6,0,P|453:158|484:222,1,126,2|2,1:2|1:2,3:0:0:0:
412,285,58126,2,0,P|361:260|293:268,1,126,2|0,3:2|3:2,3:0:0:0:
206,296,58607,1,2,1:2:0:0:
206,296,58768,2,0,L|196:212,1,63.0000000000001,0|0,3:2|1:2,0:0:0:0:
116,210,59089,1,10,0:2:0:0:
116,210,59169,1,8,0:2:0:0:
116,210,59249,6,0,L|107:292,1,63.0000000000001,6|0,0:2|0:0,0:0:0:0:
19,291,59570,1,0,0:2:0:0:
19,291,59730,2,0,L|9:204,1,63.0000000000001,0|8,0:2|0:2,0:0:0:0:
49,141,60051,2,0,L|59:54,1,63.0000000000001,0|8,0:2|0:2,0:0:0:0:
135,26,60372,6,0,P|165:21|212:22,1,63.0000000000001,12|0,0:2|0:2,0:0:0:0:
296,21,60693,1,8,0:2:0:0:
296,21,60853,1,8,0:2:0:0:
380,92,61014,5,2,0:2:0:0:
380,92,61174,2,0,P|371:132|366:175,1,70,2|2,0:2|0:2,0:0:0:0:
455,218,61495,1,2,0:2:0:0:
474,320,61655,1,2,0:2:0:0:
363,370,61816,6,0,P|322:362|270:362,1,84,4|0,1:2|0:0,0:0:0:0:
182,332,62137,2,0,P|141:340|89:340,1,84,8|0,0:2|3:2,0:0:0:0:
28,268,62457,2,0,P|18:224|-3:184,2,84,2|2|10,1:2|0:2|0:2,0:0:0:0:
104,200,62939,6,0,P|112:159|131:121,1,84,2|0,0:2|1:2,0:0:0:0:
229,98,63260,2,0,P|140:94|98:22,1,168,0|0,3:0|0:2,0:0:0:0:
198,13,63741,1,2,1:2:0:0:
198,13,63901,2,0,P|243:8|290:30,1,84,0|10,0:2|0:2,0:0:0:0:
333,105,64222,6,0,L|323:194,1,84,0|2,0:2|1:2,0:0:0:0:
235,234,64543,1,2,0:2:0:0:
235,234,64703,2,0,L|245:325,1,84,10|0,0:2|3:2,0:0:0:0:
330,370,65024,1,2,1:2:0:0:
330,370,65185,2,0,P|369:358|432:360,1,84,2|10,0:2|0:2,0:0:0:0:
498,305,65506,1,0,0:2:0:0:
492,204,65666,6,0,P|406:168|396:83,1,168,2|8,1:2|0:2,0:0:0:0:
324,32,66147,1,0,3:2:0:0:
324,32,66308,2,0,P|278:23|221:24,1,84,0|0,1:2|0:2,0:0:0:0:
142,44,66629,1,8,0:2:0:0:
56,97,66789,6,0,P|123:83|191:158,1,168,0|0,0:0|0:2,0:0:0:0:
229,240,67270,1,10,0:2:0:0:
321,281,67431,2,0,B|227:256|242:313|149:292,1,168,0|0,3:2|0:2,0:0:0:0:
93,215,67912,1,10,0:2:0:0:
18,282,68072,6,0,P|57:340|172:317,1,168,0|0,3:2|0:2,0:0:0:0:
246,364,68554,2,0,P|288:357|341:373,1,84,10|0,0:2|0:2,0:0:0:0:
422,330,68875,2,0,P|463:337|503:327,1,84,0|0,1:2|3:2,0:0:0:0:
499,227,69195,2,0,P|457:219|417:229,1,84,8|0,3:2|3:2,0:0:0:0:
320,260,69516,6,0,L|307:71,1,168,6|8,1:2|0:2,0:0:0:0:
219,54,69998,1,0,1:2:0:0:
219,54,70078,1,0,1:2:0:0:
219,54,70158,2,0,L|211:153,1,84,2|0,1:2|1:2,0:0:0:0:
126,190,70479,2,0,P|86:180|29:187,1,84,8|0,0:2|1:2,0:0:0:0:
18,280,70800,6,0,P|68:344|177:324,1,168,4|8,1:2|0:2,0:0:0:0:
228,280,71281,1,10,0:2:0:0:
228,280,71361,1,8,0:2:0:0:
228,280,71441,2,0,L|282:274,3,42,10|8|10|8,0:0|0:0|0:2|0:2,0:0:0:0:
307,241,71762,2,0,L|351:245,3,42,8|4|4|4,0:3|0:3|0:3|0:3,0:0:0:0:
394,222,72083,6,0,P|384:179|381:127,1,84,4|0,1:2|0:0,0:0:0:0:
475,103,72404,2,0,P|485:60|488:8,1,84,8|2,0:2|0:2,0:0:0:0:
388,38,72725,2,0,P|348:34|280:21,2,84,0|0|10,1:2|3:2|0:2,0:0:0:0:
380,139,73206,6,0,P|340:143|272:156,1,84,0|0,3:2|1:2,0:0:0:0:
224,79,73527,2,0,P|206:146|185:251,1,168,0|0,3:2|0:2,0:0:0:0:
85,245,74008,2,0,P|96:285|104:339,1,84,0|0,1:2|3:2,0:0:0:0:
194,369,74329,2,0,P|200:327|211:287,1,84,10|2,0:2|0:2,0:0:0:0:
300,239,74650,6,0,P|366:225|429:266,2,126,2|2|2,1:2|0:3|0:2,0:0:0:0:
211,287,75292,2,0,P|154:313|94:298,2,126,2|2|2,1:2|0:3|0:2,0:0:0:0:
212,186,75933,6,0,L|197:43,2,126,2|2|2,1:2|0:3|0:2,0:0:0:0:
300,239,76575,2,0,L|313:381,2,126,0|2|0,1:0|0:3|3:0,0:0:0:0:
292,138,77217,6,0,B|372:114|370:168|466:147,1,168,4|8,1:2|0:2,0:0:0:0:
505,62,77698,1,0,3:2:0:0:
505,62,77859,2,0,P|472:37|410:34,1,84,0|0,1:2|0:2,0:0:0:0:
330,32,78179,2,0,L|336:134,1,84,10|0,0:2|3:2,0:0:0:0:
248,167,78500,6,0,P|206:153|152:164,1,84,2|0,1:2|0:0,0:0:0:0:
75,194,78821,1,10,0:2:0:0:
75,194,78982,2,0,P|138:189|186:287,1,168,2|2,0:2|0:2,0:0:0:0:
202,369,79463,2,0,L|304:361,1,84,10|0,0:2|0:2,0:0:0:0:
382,333,79784,6,0,L|475:340,1,84,2|0,1:2|0:0,0:0:0:0:
498,243,80105,1,10,0:2:0:0:
498,243,80265,2,0,L|414:236,1,84,2|0,0:2|1:2,0:0:0:0:
353,156,80586,2,0,L|269:149,1,84,0|8,3:2|0:2,0:0:0:0:
193,82,80907,6,0,L|109:88,1,84,0|0,3:2|1:2,0:0:0:0:
20,137,81228,2,0,P|30:182|35:239,1,84,0|8,3:2|0:2,0:0:0:0:
104,291,81548,2,0,P|99:314|96:346,2,42,8|8|8,0:2|0:2|0:2,0:0:0:0:
197,253,81869,1,8,0:3:0:0:
288,296,82030,1,4,0:3:0:0:
380,256,82190,1,4,0:3:0:0:
433,165,82351,6,0,P|400:153|356:156,1,62.9999980773926,6|0,1:2|0:0,0:0:0:0:
282,168,82671,1,0,0:2:0:0:
282,168,82832,2,0,P|268:110|265:38,1,125.999996154785,0|0,1:2|0:0,0:0:0:0:
178,17,83313,1,0,0:2:0:0:
178,17,83474,6,0,P|176:86|162:150,1,125.999996154785,0|0,1:0|0:2,0:0:0:0:
75,164,83955,1,0,1:2:0:0:
75,164,84115,2,0,P|66:126|63:92,2,62.9999980773926,8|8|0,0:3|0:2|0:0,0:0:0:0:
140,240,84597,1,0,1:2:0:0:
140,240,84757,1,0,1:2:0:0:
230,213,84917,5,4,1:2:0:0:
319,243,85078,1,0,1:2:0:0:
450,107,85399,1,8,0:3:0:0:
450,107,85559,2,0,P|441:147|438:183,1,62.9999980773926,8|0,0:2|0:2,0:0:0:0:
427,262,85880,1,4,1:2:0:0:
