osu file format v14

[General]
AudioFilename: audio.mp3
AudioLeadIn: 0
PreviewTime: 499597
Countdown: 0
SampleSet: Normal
StackLeniency: 0.7
Mode: 1
LetterboxInBreaks: 0
WidescreenStoryboard: 1

[Editor]
Bookmarks: 45645,67378,102338,113677,159031,202968,278086,282338,317771,328165,377299,377328,377338,377358,377378,377387,377417,377447,377456,377476,377496,377506,377535,377575,377614,377653,377693,377732,377771,377811,377889,377929,377968,378008,378047,378086,378126,378165,378204,378244,378283,397141,407535
DistanceSpacing: 1.1
BeatDivisor: 3
GridSize: 32
TimelineZoom: 2.5

[Metadata]
Title:Kage no Nai Hito
TitleUnicode:影の無いヒト
Artist:ASA-CHANG & Junray
ArtistUnicode:ASA-CHANG & 巡礼
Creator:Zetera
Version:Those who wade the River Styx
Source:
Tags:Shadowless People vocal bongo marathon rock japanese novelty folk folktronica
BeatmapID:3110395
BeatmapSetID:1519045

[Difficulty]
HPDrainRate:6
CircleSize:2
OverallDifficulty:6.6
ApproachRate:10
SliderMultiplier:1.4
SliderTickRate:2

[Events]
//Background and Video events
0,0,"BG_KAGE.jpg",0,100
//Break Periods
//Storyboard Layer 0 (Background)
//Storyboard Layer 1 (Fail)
//Storyboard Layer 2 (Pass)
//Storyboard Layer 3 (Foreground)
//Storyboard Layer 4 (Overlay)
//Storyboard Sound Samples

[TimingPoints]
11645,472.44094488189,3,1,0,70,1,0
159164,-90.9090909090909,3,1,0,70,0,0
289558,-66.6666666666667,3,1,0,70,0,0
289617,-67.1140939597315,3,1,0,70,0,0
289676,-67.5675675675676,3,1,0,70,0,0
289735,-68.0272108843537,3,1,0,70,0,0
289794,-68.4931506849315,3,1,0,70,0,0
289853,-68.9655172413793,3,1,0,70,0,0
289912,-69.4444444444444,3,1,0,70,0,0
289971,-69.9300699300699,3,1,0,70,0,0
290030,-70.4225352112676,3,1,0,70,0,0
290090,-70.9219858156028,3,1,0,70,0,0
290149,-71.4285714285714,3,1,0,70,0,0
290621,-66.6666666666667,3,1,0,70,0,0
290680,-67.1140939597315,3,1,0,70,0,0
290739,-67.5675675675676,3,1,0,70,0,0
290798,-68.0272108843537,3,1,0,70,0,0
290857,-68.4931506849315,3,1,0,70,0,0
290910,-68.9655172413793,3,1,0,70,0,0
290962,-69.4444444444444,3,1,0,70,0,0
291015,-69.9300699300699,3,1,0,70,0,0
291067,-70.4225352112676,3,1,0,70,0,0
291120,-70.9219858156028,3,1,0,70,0,0
291684,-66.6666666666667,3,1,0,70,0,0
291743,-67.1140939597315,3,1,0,70,0,0
291802,-67.5675675675676,3,1,0,70,0,0
291861,-68.0272108843537,3,1,0,70,0,0
291920,-68.4931506849315,3,1,0,70,0,0
291979,-68.9655172413793,3,1,0,70,0,0
292038,-69.4444444444444,3,1,0,70,0,0
292097,-69.9300699300699,3,1,0,70,0,0
292156,-70.4225352112676,3,1,0,70,0,0
292215,-70.9219858156028,3,1,0,70,0,0
292275,-71.4285714285714,3,1,0,70,0,0
292747,-66.6666666666667,3,1,0,70,0,0
292806,-67.1140939597315,3,1,0,70,0,0
292865,-67.5675675675676,3,1,0,70,0,0
292924,-68.0272108843537,3,1,0,70,0,0
292983,-68.4931506849315,3,1,0,70,0,0
293042,-68.9655172413793,3,1,0,70,0,0
293101,-69.4444444444444,3,1,0,70,0,0
293160,-69.9300699300699,3,1,0,70,0,0
293219,-70.4225352112676,3,1,0,70,0,0
293278,-70.9219858156028,3,1,0,70,0,0
293337,-71.4285714285714,3,1,0,70,0,0
293810,-66.6666666666667,3,1,0,70,0,0
293869,-67.1140939597315,3,1,0,70,0,0
293928,-67.5675675675676,3,1,0,70,0,0
293987,-68.0272108843537,3,1,0,70,0,0
294046,-68.4931506849315,3,1,0,70,0,0
294105,-68.9655172413793,3,1,0,70,0,0
294164,-69.4444444444444,3,1,0,70,0,0
294223,-69.9300699300699,3,1,0,70,0,0
294282,-70.4225352112676,3,1,0,70,0,0
294341,-70.9219858156028,3,1,0,70,0,0
294401,-71.4285714285714,3,1,0,70,0,0
294873,-71.9424460431655,3,1,0,70,0,0
294932,-72.463768115942,3,1,0,70,0,0
294991,-72.992700729927,3,1,0,70,0,0
295050,-73.5294117647059,3,1,0,70,0,0
295109,-74.0740740740741,3,1,0,70,0,0
295168,-74.6268656716418,3,1,0,70,0,0
295227,-75.187969924812,3,1,0,70,0,0
295286,-75.7575757575758,3,1,0,70,0,0
295345,-76.3358778625954,3,1,0,70,0,0
295404,-76.9230769230769,3,1,0,70,0,0
295464,-77.5193798449612,3,1,0,70,0,0
295582,-80.4828973843058,3,1,0,70,0,0
295739,-83.6820083682008,3,1,0,70,0,0
295897,-87.1459694989107,3,1,0,70,0,0
296054,-90.9090909090909,3,1,0,70,0,0
377550,-57.1428571428571,3,1,0,70,0,0
377609,-57.4712643678161,3,1,0,70,0,0
377668,-57.8034682080925,3,1,0,70,0,0
377727,-58.1395348837209,3,1,0,70,0,0
377786,-58.4795321637427,3,1,0,70,0,0
377845,-58.8235294117647,3,1,0,70,0,0
377904,-59.1715976331361,3,1,0,70,0,0
377963,-59.5238095238095,3,1,0,70,0,0
378023,-59.8802395209581,3,1,0,70,0,0
378141,-57.1428571428571,3,1,0,70,0,0
378200,-57.4712643678161,3,1,0,70,0,0
378259,-57.8034682080925,3,1,0,70,0,0
378318,-58.1395348837209,3,1,0,70,0,0
378377,-58.4795321637427,3,1,0,70,0,0
378495,-58.8235294117647,3,1,0,70,0,0
378554,-59.1715976331361,3,1,0,70,0,0
378613,-59.5238095238095,3,1,0,70,0,0
378672,-59.8802395209581,3,1,0,70,0,0
378731,-60.2409638554217,3,1,0,70,0,0
378849,-57.1428571428571,3,1,0,70,0,0
378908,-57.4712643678161,3,1,0,70,0,0
378967,-57.8034682080925,3,1,0,70,0,0
379027,-58.1395348837209,3,1,0,70,0,0
379086,-58.4795321637427,3,1,0,70,0,0
379145,-58.8235294117647,3,1,0,70,0,0
379204,-59.1715976331361,3,1,0,70,0,0
379263,-59.5238095238095,3,1,0,70,0,0
379322,-59.8802395209581,3,1,0,70,0,0
379381,-60.2409638554217,3,1,0,70,0,0
379440,-60.6060606060606,3,1,0,70,0,0
379499,-60.9756097560976,3,1,0,70,0,0
379558,-61.3496932515337,3,1,0,70,0,0
379617,-61.7283950617284,3,1,0,70,0,0
379676,-62.111801242236,3,1,0,70,0,0
388810,-14.2857142857143,3,1,0,70,0,0
388967,-90.9090909090909,3,1,0,70,0,0
506881,-83.3333333333333,3,1,0,70,0,0
508180,-76.9230769230769,3,1,0,70,0,0
509597,-71.4285714285714,3,1,0,70,0,0
512432,-66.6666666666667,3,1,0,70,0,0
513849,-62.5,3,1,0,70,0,0
518219,-58.8235294117647,3,1,0,70,0,0
518338,-57.1428571428571,3,1,0,70,0,0
518397,-57.4712643678161,3,1,0,70,0,0
518456,-57.8034682080925,3,1,0,70,0,0
518515,-58.1395348837209,3,1,0,70,0,0
518574,-58.4795321637427,3,1,0,70,0,0
518692,-57.1428571428571,3,1,0,70,0,0
518751,-57.4712643678161,3,1,0,70,0,0
518810,-57.8034682080925,3,1,0,70,0,0
518869,-58.1395348837209,3,1,0,70,0,0
518928,-58.4795321637427,3,1,0,70,0,0
519046,-58.1395348837209,3,1,0,70,0,0
519164,-57.8034682080925,3,1,0,70,0,0
519282,-57.4712643678161,3,1,0,70,0,0
519401,-57.1428571428571,3,1,0,70,0,0
519519,-57.4712643678161,3,1,0,70,0,0
519578,-57.8034682080925,3,1,0,70,0,0
519637,-58.1395348837209,3,1,0,70,0,0
519696,-58.4795321637427,3,1,0,70,0,0
519755,-58.8235294117647,3,1,0,70,0,0
519873,-57.1428571428571,3,1,0,70,0,0
519932,-57.4712643678161,3,1,0,70,0,0
519991,-57.8034682080925,3,1,0,70,0,0
520050,-58.1395348837209,3,1,0,70,0,0
520109,-58.4795321637427,3,1,0,70,0,0
520227,-58.8235294117647,3,1,0,70,0,0
520345,-58.4795321637427,3,1,0,70,0,0
520464,-58.1395348837209,3,1,0,70,0,0
520582,-57.8034682080925,3,1,0,70,0,0
520700,-57.4712643678161,3,1,0,70,0,0
520818,-57.1428571428571,3,1,0,70,0,0
520936,-56.8181818181818,3,1,0,70,0,0
520995,-56.1797752808989,3,1,0,70,0,0
521054,-55.5555555555556,3,1,0,70,0,0
521113,-54.9450549450549,3,1,0,70,0,0
521172,-54.3478260869565,3,1,0,70,0,0
521231,-53.763440860215,3,1,0,70,0,0
521290,-53.1914893617021,3,1,0,70,0,0
521349,-52.6315789473684,3,1,0,70,0,0
521408,-52.0833333333333,3,1,0,70,0,0
521467,-51.5463917525773,3,1,0,70,0,0
521527,-51.0204081632653,3,1,0,70,0,0
521645,-50.5050505050505,3,1,0,70,0,0
521763,-50,3,1,0,70,0,0
521881,-45.4545454545455,3,1,0,70,0,0
522826,-90.9090909090909,3,1,0,70,0,0

[HitObjects]
256,192,11645,5,8,0:0:0:0:
256,192,12589,1,0,0:0:0:0:
256,192,13298,1,8,0:0:0:0:
256,192,13534,1,0,0:0:0:0:
256,192,14243,1,8,0:0:0:0:
256,192,14479,1,0,0:0:0:0:
256,192,14817,1,8,0:0:0:0:
256,192,15129,1,0,0:0:0:0:
256,192,15424,1,8,0:0:0:0:
256,192,15542,1,0,0:0:0:0:
256,192,16015,1,8,0:0:0:0:
256,192,16133,1,0,0:0:0:0:
256,192,16251,1,8,0:0:0:0:
256,192,16369,1,0,0:0:0:0:
256,192,16487,1,8,0:0:0:0:
256,192,16841,1,0,0:0:0:0:
256,192,17314,1,8,0:0:0:0:
256,192,17432,1,0,0:0:0:0:
256,192,17668,1,8,0:0:0:0:
256,192,17904,1,8,0:0:0:0:
256,192,18141,1,8,0:0:0:0:
256,192,18377,1,8,0:0:0:0:
256,192,18613,1,8,0:0:0:0:
256,192,18731,1,0,0:0:0:0:
256,192,18967,1,8,0:0:0:0:
256,192,19204,1,0,0:0:0:0:
256,192,19755,1,8,0:0:0:0:
256,192,19834,1,0,0:0:0:0:
256,192,20149,1,8,0:0:0:0:
256,192,20227,1,0,0:0:0:0:
256,192,20542,1,8,0:0:0:0:
256,192,20621,1,0,0:0:0:0:
256,192,20857,1,8,0:0:0:0:
256,192,21093,1,0,0:0:0:0:
256,192,21802,1,8,0:0:0:0:
256,192,22038,1,0,0:0:0:0:
256,192,22747,1,8,0:0:0:0:
256,192,22983,1,8,0:0:0:0:
256,192,24401,1,8,0:0:0:0:
256,192,24558,1,0,0:0:0:0:
256,192,24715,1,8,0:0:0:0:
256,192,24873,1,0,0:0:0:0:
256,192,25030,1,8,0:0:0:0:
256,192,25188,1,0,0:0:0:0:
256,192,25345,1,8,0:0:0:0:
256,192,25503,1,0,0:0:0:0:
256,192,25660,1,8,0:0:0:0:
256,192,25818,1,0,0:0:0:0:
256,192,25975,1,8,0:0:0:0:
256,192,26133,1,0,0:0:0:0:
256,192,26560,1,8,0:0:0:0:
256,192,27033,1,8,0:0:0:0:
256,192,27505,1,8,0:0:0:0:
256,192,27708,1,0,0:0:0:0:
256,192,27843,1,8,0:0:0:0:
256,192,28180,1,0,0:0:0:0:
256,192,28518,1,0,0:0:0:0:
256,192,28855,1,0,0:0:0:0:
256,192,29361,1,0,0:0:0:0:
256,192,29479,1,0,0:0:0:0:
256,192,29597,1,0,0:0:0:0:
256,192,29715,1,0,0:0:0:0:
256,192,29834,1,0,0:0:0:0:
256,192,29952,1,0,0:0:0:0:
256,192,30070,1,0,0:0:0:0:
256,192,30227,1,0,0:0:0:0:
256,192,30385,1,0,0:0:0:0:
256,192,30542,1,0,0:0:0:0:
256,192,30719,1,8,0:0:0:0:
256,192,31487,1,0,0:0:0:0:
256,192,32275,1,8,0:0:0:0:
256,192,32432,1,8,0:0:0:0:
256,192,32589,1,8,0:0:0:0:
256,192,32747,1,0,0:0:0:0:
256,192,33062,1,8,0:0:0:0:
256,192,33219,1,8,0:0:0:0:
256,192,33377,1,8,0:0:0:0:
256,192,33534,1,0,0:0:0:0:
256,192,33849,1,8,0:0:0:0:
256,192,34007,1,8,0:0:0:0:
256,192,34164,1,8,0:0:0:0:
256,192,34322,1,0,0:0:0:0:
256,192,34794,1,8,0:0:0:0:
256,192,34952,1,0,0:0:0:0:
256,192,35267,1,8,0:0:0:0:
256,192,35424,1,8,0:0:0:0:
256,192,35621,1,8,0:0:0:0:
256,192,35739,1,0,0:0:0:0:
256,192,35857,1,8,0:0:0:0:
256,192,36093,1,8,0:0:0:0:
256,192,36212,1,0,0:0:0:0:
256,192,36330,1,8,0:0:0:0:
256,192,36566,1,8,0:0:0:0:
256,192,36802,1,8,0:0:0:0:
256,192,37038,1,8,0:0:0:0:
256,192,37156,1,0,0:0:0:0:
256,192,37275,1,0,0:0:0:0:
256,192,37393,1,0,0:0:0:0:
256,192,37511,1,8,0:0:0:0:
256,192,37747,1,8,0:0:0:0:
256,192,37983,1,8,0:0:0:0:
256,192,38101,1,0,0:0:0:0:
256,192,38180,1,8,0:0:0:0:
256,192,38259,1,0,0:0:0:0:
256,192,38338,1,8,0:0:0:0:
256,192,38416,1,0,0:0:0:0:
256,192,38495,1,8,0:0:0:0:
256,192,38574,1,0,0:0:0:0:
256,192,38810,1,8,0:0:0:0:
256,192,38889,1,0,0:0:0:0:
256,192,38967,1,8,0:0:0:0:
256,192,39046,1,0,0:0:0:0:
256,192,39282,1,8,0:0:0:0:
256,192,39361,1,0,0:0:0:0:
256,192,39440,1,8,0:0:0:0:
256,192,39519,1,0,0:0:0:0:
256,192,39597,1,8,0:0:0:0:
256,192,39676,1,0,0:0:0:0:
256,192,39834,1,8,0:0:0:0:
256,192,39991,1,0,0:0:0:0:
256,192,40227,1,8,0:0:0:0:
256,192,40306,1,0,0:0:0:0:
256,192,40385,1,8,0:0:0:0:
256,192,40464,1,0,0:0:0:0:
256,192,40700,1,8,0:0:0:0:
256,192,40778,1,0,0:0:0:0:
256,192,40857,1,8,0:0:0:0:
256,192,40936,1,0,0:0:0:0:
256,192,41054,1,8,0:0:0:0:
256,192,41172,1,0,0:0:0:0:
256,192,41290,1,8,0:0:0:0:
256,192,41408,1,0,0:0:0:0:
256,192,41566,1,8,0:0:0:0:
256,192,41723,1,0,0:0:0:0:
256,192,41881,1,8,0:0:0:0:
256,192,42117,1,0,0:0:0:0:
256,192,42353,1,8,0:0:0:0:
256,192,42826,1,0,0:0:0:0:
256,192,43771,1,8,0:0:0:0:
256,192,44243,1,0,0:0:0:0:
256,192,45188,1,8,0:0:0:0:
256,192,45660,1,4,0:0:0:0:
256,192,46133,1,0,0:0:0:0:
256,192,46369,1,8,0:0:0:0:
256,192,46605,1,0,0:0:0:0:
256,192,47078,1,8,0:0:0:0:
256,192,47550,1,0,0:0:0:0:
256,192,47845,1,8,0:0:0:0:
256,192,48023,1,0,0:0:0:0:
256,192,48495,1,0,0:0:0:0:
256,192,48967,1,0,0:0:0:0:
256,192,49204,1,8,0:0:0:0:
256,192,49440,1,0,0:0:0:0:
256,192,49912,1,8,0:0:0:0:
256,192,50385,1,0,0:0:0:0:
256,192,50680,1,8,0:0:0:0:
256,192,50857,1,0,0:0:0:0:
256,192,51330,1,8,0:0:0:0:
256,192,51802,1,0,0:0:0:0:
256,192,52038,1,8,0:0:0:0:
256,192,52275,1,0,0:0:0:0:
256,192,52747,1,8,0:0:0:0:
256,192,53219,1,0,0:0:0:0:
256,192,53515,1,8,0:0:0:0:
256,192,53692,1,0,0:0:0:0:
256,192,54164,1,8,0:0:0:0:
256,192,54637,1,0,0:0:0:0:
256,192,54873,1,8,0:0:0:0:
256,192,55109,1,0,0:0:0:0:
256,192,55582,1,8,0:0:0:0:
256,192,56054,1,0,0:0:0:0:
256,192,56349,1,8,0:0:0:0:
256,192,56527,1,0,0:0:0:0:
256,192,56999,1,4,0:0:0:0:
256,192,57235,1,0,0:0:0:0:
256,192,57708,1,0,0:0:0:0:
256,192,57944,1,8,0:0:0:0:
256,192,58416,1,8,0:0:0:0:
256,192,58712,1,0,0:0:0:0:
256,192,59184,1,8,0:0:0:0:
256,192,59361,1,0,0:0:0:0:
256,192,59834,1,8,0:0:0:0:
256,192,60070,1,0,0:0:0:0:
256,192,60306,1,0,0:0:0:0:
256,192,60542,1,8,0:0:0:0:
256,192,60778,1,0,0:0:0:0:
256,192,61251,1,8,0:0:0:0:
256,192,61763,1,0,0:0:0:0:
256,192,62019,1,8,0:0:0:0:
256,192,62196,1,0,0:0:0:0:
256,192,62668,1,8,0:0:0:0:
256,192,63141,1,0,0:0:0:0:
256,192,63377,1,8,0:0:0:0:
256,192,63613,1,0,0:0:0:0:
256,192,64085,1,8,0:0:0:0:
256,192,64558,1,0,0:0:0:0:
256,192,64853,1,8,0:0:0:0:
256,192,65030,1,0,0:0:0:0:
256,192,65503,1,8,0:0:0:0:
256,192,65975,1,0,0:0:0:0:
256,192,66212,1,8,0:0:0:0:
256,192,66448,1,0,0:0:0:0:
256,192,66920,1,8,0:0:0:0:
256,192,67393,1,12,0:0:0:0:
256,192,67865,1,4,0:0:0:0:
256,192,68338,1,0,0:0:0:0:
256,192,68495,1,8,0:0:0:0:
256,192,68652,1,0,0:0:0:0:
256,192,68810,1,0,0:0:0:0:
256,192,68967,1,8,0:0:0:0:
256,192,69125,1,8,0:0:0:0:
256,192,69282,1,0,0:0:0:0:
256,192,69597,1,8,0:0:0:0:
256,192,70227,1,8,0:0:0:0:
256,192,70345,1,8,0:0:0:0:
256,192,70464,1,0,0:0:0:0:
256,192,70582,1,8,0:0:0:0:
256,192,70700,1,0,0:0:0:0:
256,192,70818,1,8,0:0:0:0:
256,192,70936,1,0,0:0:0:0:
256,192,71054,1,0,0:0:0:0:
256,192,71172,1,12,0:0:0:0:
256,192,71802,1,0,0:0:0:0:
256,192,72432,1,0,0:0:0:0:
256,192,72590,1,0,0:0:0:0:
256,192,72684,1,8,0:0:0:0:
256,192,72944,1,8,0:0:0:0:
256,192,73264,1,0,0:0:0:0:
256,192,74007,1,8,0:0:0:0:
256,192,74952,1,0,0:0:0:0:
256,192,75424,1,0,0:0:0:0:
256,192,75582,1,8,0:0:0:0:
256,192,75739,1,0,0:0:0:0:
256,192,76054,1,8,0:0:0:0:
256,192,76212,1,0,0:0:0:0:
256,192,76369,1,8,0:0:0:0:
256,192,76464,1,8,0:0:0:0:
256,192,76558,1,0,0:0:0:0:
256,192,76652,1,0,0:0:0:0:
256,192,76747,1,0,0:0:0:0:
256,192,76841,1,8,0:0:0:0:
256,192,77314,1,8,0:0:0:0:
256,192,77408,1,0,0:0:0:0:
256,192,77503,1,0,0:0:0:0:
256,192,77597,1,8,0:0:0:0:
256,192,77692,1,8,0:0:0:0:
256,192,77786,1,0,0:0:0:0:
256,192,77904,1,8,0:0:0:0:
256,192,78023,1,0,0:0:0:0:
256,192,78141,1,0,0:0:0:0:
256,192,78259,1,8,0:0:0:0:
256,192,78377,1,8,0:0:0:0:
256,192,78495,1,0,0:0:0:0:
256,192,78613,1,8,0:0:0:0:
256,192,78849,1,8,0:0:0:0:
256,192,79001,1,8,0:0:0:0:
256,192,79204,1,0,0:0:0:0:
256,192,79440,1,8,0:0:0:0:
256,192,79676,1,0,0:0:0:0:
256,192,80503,1,8,0:0:0:0:
256,192,80621,1,0,0:0:0:0:
256,192,80739,1,8,0:0:0:0:
256,192,80857,1,8,0:0:0:0:
256,192,80975,1,0,0:0:0:0:
256,192,81093,1,8,0:0:0:0:
256,192,81330,1,8,0:0:0:0:
256,192,81408,1,0,0:0:0:0:
256,192,81566,1,0,0:0:0:0:
256,192,81684,1,8,0:0:0:0:
256,192,81920,1,8,0:0:0:0:
256,192,82156,1,0,0:0:0:0:
256,192,82511,1,8,0:0:0:0:
256,192,82668,1,8,0:0:0:0:
256,192,82826,1,0,0:0:0:0:
256,192,82983,1,8,0:0:0:0:
256,192,83141,1,8,0:0:0:0:
256,192,83456,1,8,0:0:0:0:
256,192,83771,1,0,0:0:0:0:
256,192,83928,1,0,0:0:0:0:
256,192,84086,1,8,0:0:0:0:
256,192,84243,1,8,0:0:0:0:
256,192,84401,1,8,0:0:0:0:
256,192,84519,1,8,0:0:0:0:
256,192,84637,1,8,0:0:0:0:
256,192,84755,1,8,0:0:0:0:
256,192,84873,1,8,0:0:0:0:
256,192,85030,1,8,0:0:0:0:
256,192,85188,1,8,0:0:0:0:
256,192,85582,1,0,0:0:0:0:
256,192,85818,1,0,0:0:0:0:
256,192,86054,1,8,0:0:0:0:
256,192,86290,1,0,0:0:0:0:
256,192,86763,1,0,0:0:0:0:
256,192,86920,1,0,0:0:0:0:
256,192,87078,1,8,0:0:0:0:
256,192,87235,1,0,0:0:0:0:
256,192,87708,1,0,0:0:0:0:
256,192,87944,1,8,0:0:0:0:
256,192,88416,1,0,0:0:0:0:
256,192,88652,1,0,0:0:0:0:
256,192,88771,1,8,0:0:0:0:
256,192,88889,1,0,0:0:0:0:
256,192,89715,1,0,0:0:0:0:
256,192,89834,1,0,0:0:0:0:
256,192,89952,1,0,0:0:0:0:
256,192,90070,1,0,0:0:0:0:
256,192,90149,1,0,0:0:0:0:
256,192,90227,1,0,0:0:0:0:
256,192,90306,1,0,0:0:0:0:
256,192,90385,1,8,0:0:0:0:
256,192,90542,1,0,0:0:0:0:
256,192,90700,1,8,0:0:0:0:
256,192,91015,1,0,0:0:0:0:
256,192,91172,1,8,0:0:0:0:
256,192,91330,1,0,0:0:0:0:
256,192,91960,1,8,0:0:0:0:
256,192,92117,1,8,0:0:0:0:
256,192,92275,1,8,0:0:0:0:
256,192,92747,1,0,0:0:0:0:
256,192,92904,1,0,0:0:0:0:
256,192,93062,1,8,0:0:0:0:
256,192,93219,1,0,0:0:0:0:
256,192,93534,1,8,0:0:0:0:
256,192,93692,1,8,0:0:0:0:
256,192,93849,1,0,0:0:0:0:
256,192,93944,1,0,0:0:0:0:
256,192,94038,1,8,0:0:0:0:
256,192,94133,1,8,0:0:0:0:
256,192,94227,1,0,0:0:0:0:
256,192,94322,1,8,0:0:0:0:
256,192,94558,1,0,0:0:0:0:
256,192,94794,1,8,0:0:0:0:
256,192,95267,1,0,0:0:0:0:
256,192,95739,1,8,0:0:0:0:
256,192,96034,1,8,0:0:0:0:
256,192,96212,1,0,0:0:0:0:
256,192,96684,1,8,0:0:0:0:
256,192,97156,1,0,0:0:0:0:
256,192,97314,1,8,0:0:0:0:
256,192,97471,1,8,0:0:0:0:
256,192,97629,1,0,0:0:0:0:
256,192,97786,1,8,0:0:0:0:
256,192,98101,1,8,0:0:0:0:
256,192,98259,1,8,0:0:0:0:
256,192,98416,1,0,0:0:0:0:
256,192,98889,1,8,0:0:0:0:
256,192,99046,1,0,0:0:0:0:
256,192,99204,1,8,0:0:0:0:
256,192,99519,1,8,0:0:0:0:
256,192,99873,1,0,0:0:0:0:
256,192,99991,1,8,0:0:0:0:
256,192,100109,1,8,0:0:0:0:
256,192,100227,1,0,0:0:0:0:
256,192,100582,1,0,0:0:0:0:
256,192,100818,1,8,0:0:0:0:
256,192,100936,1,0,0:0:0:0:
256,192,101172,1,0,0:0:0:0:
256,192,101408,1,8,0:0:0:0:
256,192,102117,1,0,0:0:0:0:
256,192,102353,1,4,0:0:0:0:
256,192,102826,1,8,0:0:0:0:
256,192,103062,1,0,0:0:0:0:
256,192,103298,1,8,0:0:0:0:
256,192,103613,1,0,0:0:0:0:
256,192,103771,1,8,0:0:0:0:
256,192,104243,1,0,0:0:0:0:
256,192,104538,1,8,0:0:0:0:
256,192,104715,1,0,0:0:0:0:
256,192,104952,1,8,0:0:0:0:
256,192,105188,1,0,0:0:0:0:
256,192,105660,1,0,0:0:0:0:
256,192,105897,1,8,0:0:0:0:
256,192,106133,1,0,0:0:0:0:
256,192,106605,1,8,0:0:0:0:
256,192,107078,1,0,0:0:0:0:
256,192,107314,1,8,0:0:0:0:
256,192,107550,1,0,0:0:0:0:
256,192,108023,1,8,0:0:0:0:
256,192,108495,1,0,0:0:0:0:
256,192,108731,1,8,0:0:0:0:
256,192,108967,1,0,0:0:0:0:
256,192,109322,1,0,0:0:0:0:
256,192,109440,1,8,0:0:0:0:
256,192,109912,1,0,0:0:0:0:
256,192,110385,1,8,0:0:0:0:
256,192,110739,1,8,0:0:0:0:
256,192,110857,1,8,0:0:0:0:
256,192,111330,1,8,0:0:0:0:
256,192,111802,1,8,0:0:0:0:
256,192,112275,1,0,0:0:0:0:
256,192,112432,1,8,0:0:0:0:
256,192,112590,1,8,0:0:0:0:
256,192,112747,1,0,0:0:0:0:
256,192,112983,1,0,0:0:0:0:
256,192,113219,1,0,0:0:0:0:
256,192,113456,1,8,0:0:0:0:
256,192,113692,1,4,0:0:0:0:
256,192,115109,1,8,0:0:0:0:
256,192,115227,1,0,0:0:0:0:
256,192,115345,1,0,0:0:0:0:
256,192,115464,1,8,0:0:0:0:
256,192,115818,1,8,0:0:0:0:
256,192,115936,1,8,0:0:0:0:
256,192,116054,1,8,0:0:0:0:
256,192,116172,1,0,0:0:0:0:
256,192,116349,1,0,0:0:0:0:
256,192,116527,1,0,0:0:0:0:
256,192,116684,1,8,0:0:0:0:
256,192,116841,1,8,0:0:0:0:
256,192,116999,1,0,0:0:0:0:
256,192,117078,1,0,0:0:0:0:
256,192,117156,1,0,0:0:0:0:
256,192,117235,1,0,0:0:0:0:
256,192,117314,1,0,0:0:0:0:
256,192,117393,1,0,0:0:0:0:
256,192,117471,1,0,0:0:0:0:
256,192,117550,1,0,0:0:0:0:
256,192,117629,1,0,0:0:0:0:
256,192,117708,1,0,0:0:0:0:
256,192,117786,1,0,0:0:0:0:
256,192,117865,1,0,0:0:0:0:
256,192,117944,1,0,0:0:0:0:
256,192,118038,1,0,0:0:0:0:
256,192,118133,1,0,0:0:0:0:
256,192,118227,1,0,0:0:0:0:
256,192,118322,1,0,0:0:0:0:
256,192,118416,1,0,0:0:0:0:
256,192,118534,1,0,0:0:0:0:
256,192,118652,1,0,0:0:0:0:
256,192,118771,1,0,0:0:0:0:
256,192,118889,1,0,0:0:0:0:
256,192,119046,1,0,0:0:0:0:
256,192,119204,1,0,0:0:0:0:
256,192,119361,1,0,0:0:0:0:
256,192,119519,1,0,0:0:0:0:
256,192,119676,1,0,0:0:0:0:
256,192,119834,1,8,0:0:0:0:
256,192,120149,1,0,0:0:0:0:
256,192,120306,1,0,0:0:0:0:
256,192,120464,1,0,0:0:0:0:
256,192,120778,1,8,0:0:0:0:
256,192,121251,1,8,0:0:0:0:
256,192,121723,1,0,0:0:0:0:
256,192,121841,1,8,0:0:0:0:
256,192,121960,1,0,0:0:0:0:
256,192,122038,1,8,0:0:0:0:
256,192,122117,1,8,0:0:0:0:
256,192,122196,1,0,0:0:0:0:
256,192,122353,1,8,0:0:0:0:
256,192,122511,1,8,0:0:0:0:
256,192,122668,1,8,0:0:0:0:
256,192,122904,1,0,0:0:0:0:
256,192,123141,1,8,0:0:0:0:
256,192,123613,1,0,0:0:0:0:
256,192,124086,1,0,0:0:0:0:
256,192,124400,1,8,0:0:0:0:
256,192,124558,1,0,0:0:0:0:
256,192,125030,1,8,0:0:0:0:
256,192,125503,1,0,0:0:0:0:
256,192,125621,1,0,0:0:0:0:
256,192,125739,1,0,0:0:0:0:
256,192,125857,1,8,0:0:0:0:
256,192,125975,1,0,0:0:0:0:
256,192,126093,1,0,0:0:0:0:
256,192,126212,1,8,0:0:0:0:
256,192,126330,1,0,0:0:0:0:
256,192,126605,1,8,0:0:0:0:
256,192,126920,1,8,0:0:0:0:
256,192,127235,1,8,0:0:0:0:
256,192,127550,1,0,0:0:0:0:
256,192,127629,1,0,0:0:0:0:
256,192,127865,1,8,0:0:0:0:
256,192,128054,1,0,0:0:0:0:
256,192,128149,1,8,0:0:0:0:
256,192,128243,1,8,0:0:0:0:
256,192,128338,1,0,0:0:0:0:
256,192,128432,1,0,0:0:0:0:
256,192,128574,1,8,0:0:0:0:
256,192,128810,1,0,0:0:0:0:
256,192,129046,1,8,0:0:0:0:
256,192,129164,1,8,0:0:0:0:
256,192,129282,1,0,0:0:0:0:
256,192,129401,1,8,0:0:0:0:
256,192,129637,1,8,0:0:0:0:
256,192,129755,1,0,0:0:0:0:
256,192,129873,1,8,0:0:0:0:
256,192,129991,1,8,0:0:0:0:
256,192,130227,1,0,0:0:0:0:
256,192,130464,1,8,0:0:0:0:
256,192,130582,1,8,0:0:0:0:
256,192,130700,1,0,0:0:0:0:
256,192,131172,1,0,0:0:0:0:
256,192,131330,1,8,0:0:0:0:
256,192,131487,1,8,0:0:0:0:
256,192,131645,1,0,0:0:0:0:
256,192,131763,1,8,0:0:0:0:
256,192,131881,1,0,0:0:0:0:
256,192,131999,1,8,0:0:0:0:
256,192,132117,1,0,0:0:0:0:
256,192,132353,1,8,0:0:0:0:
256,192,132590,1,8,0:0:0:0:
256,192,133062,1,0,0:0:0:0:
256,192,133534,1,8,0:0:0:0:
256,192,134007,1,0,0:0:0:0:
256,192,134164,1,0,0:0:0:0:
256,192,134322,1,0,0:0:0:0:
256,192,134479,1,0,0:0:0:0:
256,192,134637,1,8,0:0:0:0:
256,192,134794,1,0,0:0:0:0:
256,192,134952,1,8,0:0:0:0:
256,192,135109,1,8,0:0:0:0:
256,192,135267,1,0,0:0:0:0:
256,192,135424,1,8,0:0:0:0:
256,192,135719,1,8,0:0:0:0:
256,192,135897,1,0,0:0:0:0:
256,192,136054,1,0,0:0:0:0:
256,192,136212,1,8,0:0:0:0:
256,192,136369,1,8,0:0:0:0:
256,192,136841,1,0,0:0:0:0:
256,192,137078,1,8,0:0:0:0:
256,192,137314,1,0,0:0:0:0:
256,192,137786,1,8,0:0:0:0:
256,192,138259,1,8,0:0:0:0:
256,192,138731,1,0,0:0:0:0:
256,192,139204,1,0,0:0:0:0:
256,192,139676,1,0,0:0:0:0:
256,192,139912,1,8,0:0:0:0:
256,192,140149,1,0,0:0:0:0:
256,192,140306,1,0,0:0:0:0:
256,192,140464,1,8,0:0:0:0:
256,192,140621,1,0,0:0:0:0:
256,192,141093,1,0,0:0:0:0:
256,192,141408,1,8,0:0:0:0:
256,192,141566,1,8,0:0:0:0:
256,192,141723,1,0,0:0:0:0:
256,192,142038,1,8,0:0:0:0:
256,192,142353,1,8,0:0:0:0:
256,192,142511,1,0,0:0:0:0:
256,192,142668,1,0,0:0:0:0:
256,192,143141,1,0,0:0:0:0:
256,192,143298,1,8,0:0:0:0:
256,192,143456,1,0,0:0:0:0:
256,192,143928,1,8,0:0:0:0:
256,192,144086,1,8,0:0:0:0:
256,192,144243,1,0,0:0:0:0:
256,192,144715,1,8,0:0:0:0:
256,192,144873,1,0,0:0:0:0:
256,192,145030,1,0,0:0:0:0:
256,192,145345,1,0,0:0:0:0:
256,192,145503,1,8,0:0:0:0:
256,192,145660,1,0,0:0:0:0:
256,192,145975,1,8,0:0:0:0:
256,192,146133,1,8,0:0:0:0:
256,192,146290,1,0,0:0:0:0:
256,192,146763,1,8,0:0:0:0:
256,192,147078,1,0,0:0:0:0:
256,192,147393,1,8,0:0:0:0:
256,192,147708,1,0,0:0:0:0:
256,192,148180,1,8,0:0:0:0:
256,192,148298,1,8,0:0:0:0:
256,192,148416,1,0,0:0:0:0:
256,192,148534,1,8,0:0:0:0:
256,192,148652,1,0,0:0:0:0:
256,192,148810,1,0,0:0:0:0:
256,192,148967,1,8,0:0:0:0:
256,192,149125,1,0,0:0:0:0:
256,192,149361,1,8,0:0:0:0:
256,192,149479,1,8,0:0:0:0:
256,192,149597,1,0,0:0:0:0:
256,192,149715,1,0,0:0:0:0:
256,192,151487,1,0,0:0:0:0:
256,192,151645,1,8,0:0:0:0:
256,192,151802,1,8,0:0:0:0:
256,192,151960,1,0,0:0:0:0:
256,192,152078,1,8,0:0:0:0:
256,192,152196,1,0,0:0:0:0:
256,192,152314,1,8,0:0:0:0:
256,192,152590,1,0,0:0:0:0:
256,192,152747,1,0,0:0:0:0:
256,192,152904,1,8,0:0:0:0:
256,192,153062,1,0,0:0:0:0:
256,192,153219,1,8,0:0:0:0:
256,192,153377,1,0,0:0:0:0:
256,192,153471,1,8,0:0:0:0:
256,192,153566,1,8,0:0:0:0:
256,192,153660,1,0,0:0:0:0:
256,192,153755,1,8,0:0:0:0:
256,192,153849,1,0,0:0:0:0:
256,192,153944,1,8,0:0:0:0:
256,192,154227,1,8,0:0:0:0:
256,192,154322,1,0,0:0:0:0:
256,192,154416,1,0,0:0:0:0:
256,192,154511,1,8,0:0:0:0:
256,192,154605,1,8,0:0:0:0:
256,192,154700,1,8,0:0:0:0:
256,192,154794,1,0,0:0:0:0:
256,192,154952,1,8,0:0:0:0:
256,192,155267,1,0,0:0:0:0:
256,192,155385,1,8,0:0:0:0:
256,192,155503,1,0,0:0:0:0:
256,192,155621,1,8,0:0:0:0:
256,192,155739,1,0,0:0:0:0:
256,192,155857,1,0,0:0:0:0:
256,192,155975,1,0,0:0:0:0:
256,192,156093,1,8,0:0:0:0:
256,192,156212,1,0,0:0:0:0:
256,192,156369,1,8,0:0:0:0:
256,192,156527,1,8,0:0:0:0:
256,192,156684,1,8,0:0:0:0:
256,192,156802,1,8,0:0:0:0:
256,192,157156,1,0,0:0:0:0:
256,192,157314,1,8,0:0:0:0:
256,192,157471,1,8,0:0:0:0:
256,192,157629,1,0,0:0:0:0:
256,192,157786,1,8,0:0:0:0:
256,192,157944,1,8,0:0:0:0:
256,192,158101,1,0,0:0:0:0:
256,192,158219,1,0,0:0:0:0:
256,192,158338,1,8,0:0:0:0:
256,192,158456,1,8,0:0:0:0:
256,192,158574,1,0,0:0:0:0:
256,192,158810,1,8,0:0:0:0:
128,288,159046,2,4,P|100:124|399:288,1,770
256,192,161881,1,0,0:0:0:0:
256,192,162353,1,0,0:0:0:0:
256,192,162590,1,8,0:0:0:0:
256,192,162826,1,0,0:0:0:0:
256,192,163298,1,8,0:0:0:0:
256,192,163771,1,0,0:0:0:0:
256,192,164007,1,8,0:0:0:0:
256,192,164243,1,0,0:0:0:0:
256,192,164597,1,0,0:0:0:0:
256,192,164715,1,8,0:0:0:0:
256,192,165188,1,0,0:0:0:0:
256,192,165424,1,8,0:0:0:0:
256,192,165660,1,0,0:0:0:0:
256,192,166015,1,0,0:0:0:0:
256,192,166133,1,8,0:0:0:0:
256,192,166605,1,8,0:0:0:0:
256,192,167078,1,0,0:0:0:0:
256,192,167432,1,8,0:0:0:0:
256,192,167550,1,8,0:0:0:0:
256,192,168023,1,8,0:0:0:0:
256,192,168495,1,8,0:0:0:0:
256,192,168967,1,0,0:0:0:0:
256,192,169440,1,0,0:0:0:0:
256,192,169755,1,8,0:0:0:0:
256,192,169912,1,0,0:0:0:0:
256,192,170385,1,12,0:0:0:0:
256,192,170857,1,0,0:0:0:0:
256,192,171093,1,8,0:0:0:0:
256,192,171330,1,0,0:0:0:0:
256,192,171684,1,0,0:0:0:0:
256,192,171802,1,8,0:0:0:0:
256,192,172275,1,0,0:0:0:0:
256,192,172747,1,0,0:0:0:0:
256,192,172983,1,8,0:0:0:0:
256,192,173219,1,0,0:0:0:0:
256,192,173692,1,0,0:0:0:0:
256,192,173928,1,8,0:0:0:0:
256,192,174164,1,0,0:0:0:0:
256,192,174637,1,8,0:0:0:0:
256,192,175149,1,0,0:0:0:0:
256,192,175424,1,8,0:0:0:0:
256,192,175582,1,0,0:0:0:0:
256,192,176054,1,8,0:0:0:0:
256,192,176527,1,0,0:0:0:0:
256,192,176763,1,8,0:0:0:0:
256,192,176999,1,0,0:0:0:0:
256,192,177353,1,0,0:0:0:0:
256,192,177471,1,8,0:0:0:0:
256,192,177944,1,8,0:0:0:0:
256,192,178416,1,0,0:0:0:0:
256,192,178771,1,8,0:0:0:0:
256,192,178889,1,8,0:0:0:0:
256,192,179361,1,8,0:0:0:0:
256,192,179834,1,8,0:0:0:0:
256,192,180306,1,0,0:0:0:0:
256,192,181093,1,0,0:0:0:0:
256,192,181251,1,8,0:0:0:0:
256,192,181487,1,8,0:0:0:0:
256,192,181723,1,0,0:0:0:0:
256,192,181960,1,8,0:0:0:0:
256,192,182432,1,8,0:0:0:0:
256,192,182668,1,0,0:0:0:0:
256,192,183141,1,8,0:0:0:0:
256,192,183613,1,0,0:0:0:0:
256,192,184086,1,0,0:0:0:0:
256,192,184401,1,0,0:0:0:0:
256,192,184558,1,8,0:0:0:0:
256,192,185030,1,8,0:0:0:0:
256,192,185267,1,0,0:0:0:0:
256,192,185503,1,8,0:0:0:0:
256,192,185975,1,8,0:0:0:0:
256,192,186487,1,0,0:0:0:0:
256,192,186763,1,8,0:0:0:0:
256,192,186920,1,0,0:0:0:0:
256,192,187393,1,8,0:0:0:0:
256,192,187865,1,8,0:0:0:0:
256,192,188338,1,0,0:0:0:0:
256,192,188810,1,8,0:0:0:0:
256,192,189282,1,0,0:0:0:0:
256,192,189755,1,0,0:0:0:0:
256,192,190070,1,0,0:0:0:0:
256,192,190227,1,8,0:0:0:0:
256,192,190700,1,0,0:0:0:0:
256,192,191172,1,8,0:0:0:0:
256,192,191487,1,0,0:0:0:0:
256,192,191645,1,8,0:0:0:0:
256,192,192117,1,8,0:0:0:0:
256,192,192432,1,8,0:0:0:0:
256,192,192590,1,0,0:0:0:0:
256,192,192904,1,8,0:0:0:0:
256,192,192983,1,8,0:0:0:0:
256,192,193062,1,0,0:0:0:0:
256,192,193534,1,0,0:0:0:0:
256,192,193770,1,8,0:0:0:0:
256,192,194007,1,0,0:0:0:0:
256,192,194479,1,8,0:0:0:0:
256,192,194952,1,0,0:0:0:0:
256,192,195424,1,0,0:0:0:0:
256,192,195897,1,8,0:0:0:0:
256,192,196212,1,0,0:0:0:0:
256,192,196369,1,8,0:0:0:0:
256,192,196841,1,8,0:0:0:0:
256,192,197314,1,0,0:0:0:0:
256,192,197826,1,0,0:0:0:0:
256,192,198101,1,0,0:0:0:0:
256,192,198259,1,8,0:0:0:0:
256,192,198574,1,8,0:0:0:0:
256,192,198652,1,8,0:0:0:0:
256,192,198731,1,0,0:0:0:0:
256,192,199204,1,0,0:0:0:0:
256,192,199440,1,8,0:0:0:0:
256,192,199676,1,0,0:0:0:0:
256,192,200149,1,8,0:0:0:0:
256,192,200621,1,0,0:0:0:0:
256,192,201093,1,0,0:0:0:0:
256,192,201448,1,8,0:0:0:0:
256,192,201566,1,8,0:0:0:0:
256,192,202038,1,8,0:0:0:0:
256,192,202511,1,8,0:0:0:0:
256,192,202983,1,8,0:0:0:0:
256,192,203141,1,8,0:0:0:0:
256,192,203298,1,8,0:0:0:0:
256,192,203456,1,0,0:0:0:0:
256,192,203692,1,0,0:0:0:0:
256,192,203928,1,0,0:0:0:0:
256,192,204164,1,8,0:0:0:0:
256,192,204401,1,4,0:0:0:0:
256,192,204873,1,0,0:0:0:0:
256,192,205188,1,0,0:0:0:0:
256,192,205503,1,8,0:0:0:0:
256,192,205660,1,0,0:0:0:0:
256,192,205818,1,8,0:0:0:0:
256,192,206133,1,0,0:0:0:0:
256,192,206290,1,8,0:0:0:0:
256,192,206448,1,8,0:0:0:0:
256,192,206605,1,0,0:0:0:0:
256,192,206920,1,8,0:0:0:0:
256,192,207235,1,0,0:0:0:0:
256,192,207471,1,8,0:0:0:0:
256,192,207590,1,8,0:0:0:0:
256,192,207708,1,0,0:0:0:0:
256,192,207983,1,8,0:0:0:0:
256,192,208338,1,0,0:0:0:0:
256,192,208495,1,8,0:0:0:0:
256,192,208652,1,0,0:0:0:0:
256,192,208967,1,8,0:0:0:0:
256,192,209125,1,8,0:0:0:0:
256,192,209282,1,8,0:0:0:0:
256,192,209440,1,0,0:0:0:0:
256,192,209755,1,8,0:0:0:0:
256,192,210070,1,0,0:0:0:0:
256,192,210306,1,8,0:0:0:0:
256,192,210424,1,8,0:0:0:0:
256,192,210542,1,0,0:0:0:0:
256,192,210818,1,8,0:0:0:0:
256,192,211172,1,8,0:0:0:0:
256,192,211330,1,0,0:0:0:0:
256,192,211487,1,8,0:0:0:0:
256,192,211802,1,0,0:0:0:0:
256,192,211960,1,8,0:0:0:0:
256,192,212117,1,8,0:0:0:0:
256,192,212275,1,0,0:0:0:0:
256,192,212590,1,8,0:0:0:0:
256,192,212904,1,0,0:0:0:0:
256,192,213141,1,0,0:0:0:0:
256,192,213259,1,8,0:0:0:0:
256,192,213377,1,0,0:0:0:0:
256,192,213652,1,8,0:0:0:0:
256,192,214007,1,0,0:0:0:0:
256,192,214165,1,8,0:0:0:0:
256,192,214322,1,0,0:0:0:0:
256,192,214637,1,8,0:0:0:0:
256,192,214795,1,8,0:0:0:0:
256,192,214952,1,8,0:0:0:0:
256,192,215109,1,0,0:0:0:0:
256,192,215385,1,8,0:0:0:0:
256,192,215739,1,0,0:0:0:0:
256,192,215975,1,0,0:0:0:0:
256,192,216093,1,8,0:0:0:0:
256,192,216212,1,0,0:0:0:0:
256,192,216487,1,8,0:0:0:0:
256,192,216684,1,0,0:0:0:0:
256,192,216841,1,8,0:0:0:0:
256,192,216999,1,0,0:0:0:0:
256,192,217156,1,8,0:0:0:0:
256,192,217471,1,8,0:0:0:0:
256,192,217629,1,8,0:0:0:0:
256,192,217786,1,8,0:0:0:0:
256,192,217944,1,0,0:0:0:0:
256,192,218259,1,8,0:0:0:0:
256,192,218416,1,0,0:0:0:0:
256,192,218574,1,8,0:0:0:0:
256,192,218810,1,8,0:0:0:0:
256,192,218928,1,8,0:0:0:0:
256,192,219046,1,0,0:0:0:0:
256,192,219322,1,8,0:0:0:0:
256,192,219519,1,0,0:0:0:0:
256,192,219676,1,8,0:0:0:0:
256,192,219834,1,0,0:0:0:0:
256,192,219991,1,8,0:0:0:0:
256,192,220306,1,8,0:0:0:0:
256,192,220464,1,0,0:0:0:0:
256,192,220621,1,8,0:0:0:0:
256,192,220778,1,8,0:0:0:0:
256,192,220936,1,0,0:0:0:0:
256,192,221093,1,0,0:0:0:0:
256,192,221251,1,8,0:0:0:0:
256,192,221408,1,0,0:0:0:0:
256,192,221645,1,0,0:0:0:0:
256,192,221763,1,8,0:0:0:0:
256,192,221881,1,0,0:0:0:0:
256,192,222156,1,8,0:0:0:0:
256,192,222353,1,0,0:0:0:0:
256,192,222511,1,8,0:0:0:0:
256,192,222668,1,0,0:0:0:0:
256,192,222826,1,8,0:0:0:0:
256,192,223062,1,0,0:0:0:0:
256,192,223357,1,0,0:0:0:0:
256,192,223475,1,0,0:0:0:0:
256,192,223593,1,0,0:0:0:0:
256,192,223889,1,8,0:0:0:0:
256,192,224243,1,0,0:0:0:0:
256,192,224479,1,8,0:0:0:0:
256,192,224597,1,8,0:0:0:0:
256,192,224715,1,0,0:0:0:0:
256,192,224991,1,8,0:0:0:0:
256,192,225188,1,0,0:0:0:0:
256,192,225345,1,8,0:0:0:0:
256,192,225503,1,0,0:0:0:0:
256,192,225660,1,8,0:0:0:0:
256,192,225975,1,0,0:0:0:0:
256,192,226133,1,8,0:0:0:0:
256,192,226290,1,8,0:0:0:0:
256,192,226448,1,8,0:0:0:0:
256,192,226605,1,0,0:0:0:0:
256,192,226763,1,8,0:0:0:0:
256,192,227078,1,4,0:0:0:0:
256,192,228259,1,0,0:0:0:0:
256,192,228495,1,8,0:0:0:0:
256,192,228731,1,8,0:0:0:0:
256,192,229125,1,0,0:0:0:0:
256,192,229558,1,0,0:0:0:0:
256,192,229676,1,8,0:0:0:0:
256,192,229794,1,8,0:0:0:0:
256,192,229912,1,0,0:0:0:0:
256,192,230149,1,0,0:0:0:0:
256,192,230385,1,0,0:0:0:0:
256,192,230621,1,8,0:0:0:0:
256,192,231330,1,0,0:0:0:0:
256,192,231645,1,0,0:0:0:0:
256,192,231802,1,8,0:0:0:0:
256,192,231960,1,8,0:0:0:0:
256,192,232688,1,0,0:0:0:0:
256,192,232865,1,8,0:0:0:0:
256,192,233101,1,8,0:0:0:0:
256,192,233219,1,0,0:0:0:0:
256,192,233456,1,8,0:0:0:0:
256,192,233692,1,8,0:0:0:0:
256,192,233771,1,0,0:0:0:0:
256,192,233849,1,8,0:0:0:0:
256,192,233928,1,0,0:0:0:0:
256,192,234007,1,8,0:0:0:0:
256,192,234086,1,0,0:0:0:0:
256,192,234164,1,8,0:0:0:0:
256,192,234282,1,0,0:0:0:0:
256,192,234401,1,8,0:0:0:0:
256,192,234519,1,0,0:0:0:0:
256,192,234637,1,8,0:0:0:0:
256,192,234755,1,0,0:0:0:0:
256,192,234873,1,8,0:0:0:0:
256,192,234952,1,0,0:0:0:0:
256,192,235030,1,8,0:0:0:0:
256,192,235109,1,0,0:0:0:0:
256,192,235188,1,8,0:0:0:0:
256,192,235267,1,0,0:0:0:0:
256,192,235345,1,8,0:0:0:0:
256,192,235424,1,0,0:0:0:0:
256,192,235503,1,8,0:0:0:0:
256,192,235582,1,0,0:0:0:0:
256,192,235700,1,0,0:0:0:0:
256,192,235818,1,0,0:0:0:0:
256,192,235936,1,8,0:0:0:0:
256,192,236054,1,0,0:0:0:0:
256,192,236132,1,8,0:0:0:0:
256,192,236212,1,0,0:0:0:0:
256,192,236290,1,8,0:0:0:0:
256,192,236369,1,0,0:0:0:0:
256,192,236448,1,8,0:0:0:0:
256,192,236527,1,0,0:0:0:0:
256,192,236645,1,8,0:0:0:0:
256,192,236763,1,0,0:0:0:0:
256,192,236881,1,8,0:0:0:0:
256,192,236999,1,0,0:0:0:0:
256,192,237156,1,8,0:0:0:0:
256,192,237314,1,0,0:0:0:0:
256,192,237471,1,8,0:0:0:0:
256,192,237786,1,0,0:0:0:0:
256,192,237944,1,8,0:0:0:0:
256,192,238259,1,0,0:0:0:0:
256,192,238416,1,8,0:0:0:0:
256,192,238652,1,8,0:0:0:0:
256,192,238889,1,0,0:0:0:0:
256,192,239007,1,0,0:0:0:0:
256,192,239204,1,8,0:0:0:0:
256,192,239361,1,0,0:0:0:0:
256,192,239479,1,0,0:0:0:0:
256,192,239597,1,8,0:0:0:0:
256,192,239715,1,0,0:0:0:0:
256,192,239834,1,0,0:0:0:0:
256,192,240070,1,0,0:0:0:0:
256,192,240188,1,8,0:0:0:0:
256,192,240306,1,8,0:0:0:0:
256,192,240401,1,0,0:0:0:0:
256,192,240495,1,0,0:0:0:0:
256,192,240590,1,8,0:0:0:0:
256,192,240684,1,0,0:0:0:0:
256,192,240778,1,8,0:0:0:0:
256,192,240936,1,0,0:0:0:0:
256,192,241093,1,8,0:0:0:0:
256,192,241251,1,0,0:0:0:0:
256,192,241723,1,0,0:0:0:0:
256,192,241841,1,8,0:0:0:0:
256,192,241960,1,8,0:0:0:0:
256,192,242078,1,0,0:0:0:0:
256,192,242196,1,8,0:0:0:0:
256,192,242432,1,8,0:0:0:0:
256,192,242550,1,0,0:0:0:0:
256,192,242904,1,0,0:0:0:0:
256,192,243023,1,0,0:0:0:0:
256,192,243141,1,8,0:0:0:0:
256,192,243377,1,0,0:0:0:0:
256,192,243613,1,8,0:0:0:0:
256,192,243849,1,0,0:0:0:0:
256,192,244086,1,0,0:0:0:0:
256,192,244180,1,8,0:0:0:0:
256,192,244275,1,8,0:0:0:0:
256,192,244369,1,0,0:0:0:0:
256,192,247393,1,0,0:0:0:0:
256,192,247629,1,8,0:0:0:0:
256,192,247865,1,0,0:0:0:0:
256,192,248023,1,8,0:0:0:0:
256,192,248180,1,0,0:0:0:0:
256,192,248338,1,0,0:0:0:0:
256,192,248456,1,8,0:0:0:0:
256,192,248574,1,0,0:0:0:0:
256,192,248692,1,0,0:0:0:0:
256,192,248810,1,8,0:0:0:0:
256,192,249046,1,8,0:0:0:0:
256,192,249164,1,8,0:0:0:0:
256,192,249282,1,0,0:0:0:0:
256,192,249401,1,8,0:0:0:0:
256,192,249519,1,0,0:0:0:0:
256,192,249637,1,0,0:0:0:0:
256,192,249755,1,8,0:0:0:0:
256,192,249873,1,0,0:0:0:0:
256,192,250109,1,8,0:0:0:0:
256,192,250227,1,0,0:0:0:0:
256,192,250345,1,0,0:0:0:0:
256,192,250464,1,8,0:0:0:0:
256,192,253534,1,0,0:0:0:0:
256,192,253771,1,8,0:0:0:0:
256,192,254007,1,0,0:0:0:0:
256,192,254164,1,0,0:0:0:0:
256,192,254322,1,8,0:0:0:0:
256,192,254479,1,8,0:0:0:0:
256,192,254775,1,8,0:0:0:0:
256,192,254952,1,0,0:0:0:0:
256,192,255046,1,0,0:0:0:0:
256,192,255141,1,8,0:0:0:0:
256,192,255235,1,0,0:0:0:0:
256,192,255330,1,0,0:0:0:0:
256,192,255424,1,8,0:0:0:0:
256,192,255897,1,0,0:0:0:0:
256,192,256133,1,8,0:0:0:0:
256,192,256369,1,0,0:0:0:0:
256,192,256841,1,8,0:0:0:0:
256,192,257314,1,0,0:0:0:0:
256,192,257786,1,8,0:0:0:0:
256,192,258259,1,0,0:0:0:0:
256,192,258731,1,8,0:0:0:0:
256,192,259204,1,8,0:0:0:0:
256,192,259676,1,0,0:0:0:0:
256,192,259794,1,8,0:0:0:0:
256,192,260030,1,8,0:0:0:0:
256,192,260149,1,0,0:0:0:0:
256,192,260444,1,8,0:0:0:0:
256,192,260621,1,0,0:0:0:0:
256,192,260857,1,8,0:0:0:0:
256,192,261093,1,0,0:0:0:0:
256,192,261448,1,8,0:0:0:0:
256,192,261802,1,0,0:0:0:0:
256,192,262156,1,0,0:0:0:0:
256,192,262511,1,8,0:0:0:0:
256,192,262865,1,8,0:0:0:0:
256,192,263219,1,0,0:0:0:0:
256,192,263574,1,0,0:0:0:0:
256,192,263810,1,8,0:0:0:0:
256,192,263928,1,0,0:0:0:0:
256,192,264046,1,8,0:0:0:0:
256,192,264282,1,8,0:0:0:0:
256,192,264401,1,0,0:0:0:0:
256,192,264519,1,0,0:0:0:0:
256,192,264873,1,8,0:0:0:0:
256,192,265188,1,0,0:0:0:0:
256,192,265503,1,8,0:0:0:0:
256,192,265818,1,8,0:0:0:0:
256,192,266133,1,0,0:0:0:0:
256,192,266448,1,8,0:0:0:0:
256,192,266763,1,0,0:0:0:0:
256,192,266881,1,8,0:0:0:0:
256,192,267117,1,8,0:0:0:0:
256,192,267235,1,0,0:0:0:0:
256,192,267471,1,0,0:0:0:0:
256,192,267708,1,8,0:0:0:0:
256,192,267944,1,8,0:0:0:0:
256,192,268180,1,0,0:0:0:0:
256,192,268416,1,8,0:0:0:0:
256,192,268652,1,8,0:0:0:0:
256,192,268889,1,8,0:0:0:0:
256,192,269125,1,0,0:0:0:0:
256,192,269243,1,8,0:0:0:0:
256,192,269479,1,8,0:0:0:0:
256,192,269597,1,0,0:0:0:0:
256,192,269834,1,0,0:0:0:0:
256,192,269912,1,8,0:0:0:0:
256,192,270070,1,8,0:0:0:0:
256,192,270227,1,0,0:0:0:0:
256,192,270385,1,8,0:0:0:0:
256,192,270542,1,8,0:0:0:0:
256,192,270700,1,0,0:0:0:0:
256,192,270857,1,8,0:0:0:0:
256,192,271015,1,0,0:0:0:0:
256,192,271133,1,8,0:0:0:0:
256,192,271369,1,8,0:0:0:0:
256,192,271487,1,0,0:0:0:0:
256,192,271605,1,0,0:0:0:0:
256,192,271723,1,0,0:0:0:0:
256,192,271841,1,8,0:0:0:0:
256,192,271960,1,8,0:0:0:0:
256,192,272078,1,0,0:0:0:0:
256,192,272196,1,8,0:0:0:0:
256,192,272314,1,0,0:0:0:0:
256,192,272432,1,8,0:0:0:0:
256,192,272904,1,0,0:0:0:0:
256,192,273062,1,0,0:0:0:0:
256,192,273219,1,8,0:0:0:0:
256,192,273377,1,0,0:0:0:0:
256,192,273849,1,8,0:0:0:0:
256,192,273967,1,0,0:0:0:0:
256,192,274322,1,0,0:0:0:0:
256,192,274479,1,0,0:0:0:0:
256,192,274637,1,8,0:0:0:0:
256,192,274794,1,8,0:0:0:0:
256,192,274912,1,0,0:0:0:0:
256,192,275030,1,0,0:0:0:0:
256,192,275149,1,8,0:0:0:0:
256,192,275267,1,8,0:0:0:0:
256,192,275857,1,8,0:0:0:0:
256,192,276527,1,8,0:0:0:0:
256,192,276684,1,8,0:0:0:0:
256,192,277156,1,0,0:0:0:0:
256,192,277629,1,8,0:0:0:0:
256,192,278101,1,4,0:0:0:0:
256,192,278574,1,0,0:0:0:0:
256,192,278810,1,8,0:0:0:0:
256,192,279046,1,0,0:0:0:0:
256,192,279361,1,0,0:0:0:0:
256,192,279519,1,8,0:0:0:0:
256,192,279991,1,8,0:0:0:0:
256,192,280464,1,8,0:0:0:0:
256,192,280818,1,8,0:0:0:0:
256,192,280936,1,8,0:0:0:0:
256,192,281408,1,8,0:0:0:0:
256,192,281881,1,8,0:0:0:0:
256,192,282353,1,8,0:0:0:0:
256,192,282511,1,8,0:0:0:0:
256,192,282668,1,8,0:0:0:0:
256,192,282826,1,0,0:0:0:0:
256,192,283062,1,0,0:0:0:0:
256,192,283298,1,0,0:0:0:0:
256,192,283534,1,8,0:0:0:0:
256,192,283771,1,0,0:0:0:0:
256,192,283889,1,0,0:0:0:0:
256,192,284007,1,8,0:0:0:0:
256,192,284125,1,8,0:0:0:0:
256,192,284243,1,8,0:0:0:0:
256,192,284401,1,0,0:0:0:0:
256,192,284558,1,0,0:0:0:0:
256,192,284715,1,8,0:0:0:0:
256,192,284873,1,8,0:0:0:0:
256,192,285030,1,0,0:0:0:0:
256,192,285188,1,8,0:0:0:0:
256,192,285542,1,0,0:0:0:0:
256,192,285660,1,8,0:0:0:0:
256,192,285778,1,8,0:0:0:0:
256,192,285897,1,0,0:0:0:0:
256,192,286015,1,8,0:0:0:0:
256,192,286133,1,0,0:0:0:0:
256,192,286369,1,8,0:0:0:0:
256,192,286605,1,0,0:0:0:0:
256,192,286763,1,8,0:0:0:0:
256,192,286920,1,0,0:0:0:0:
256,192,287078,1,0,0:0:0:0:
256,192,287432,1,0,0:0:0:0:
256,192,287550,1,8,0:0:0:0:
256,192,287668,1,8,0:0:0:0:
256,192,287786,1,0,0:0:0:0:
256,192,287904,1,8,0:0:0:0:
256,192,288023,1,0,0:0:0:0:
256,192,288259,1,8,0:0:0:0:
256,192,288495,1,8,0:0:0:0:
256,192,288613,1,0,0:0:0:0:
256,192,288731,1,8,0:0:0:0:
256,192,288849,1,0,0:0:0:0:
256,192,288967,1,0,0:0:0:0:
256,192,289062,1,8,0:0:0:0:
256,192,289156,1,8,0:0:0:0:
256,192,289251,1,0,0:0:0:0:
256,192,289345,1,8,0:0:0:0:
256,192,289440,1,0,0:0:0:0:
256,192,289558,1,8,0:0:0:0:
256,192,289617,1,8,0:0:0:0:
256,192,289676,1,0,0:0:0:0:
256,192,289735,1,8,0:0:0:0:
256,192,289794,1,8,0:0:0:0:
256,192,289853,1,0,0:0:0:0:
256,192,289912,1,8,0:0:0:0:
256,192,289971,1,8,0:0:0:0:
256,192,290030,1,0,0:0:0:0:
256,192,290090,1,8,0:0:0:0:
256,192,290149,1,0,0:0:0:0:
256,192,290267,1,8,0:0:0:0:
256,192,290385,1,0,0:0:0:0:
256,192,290503,1,8,0:0:0:0:
256,192,290621,1,0,0:0:0:0:
256,192,290680,1,0,0:0:0:0:
256,192,290739,1,8,0:0:0:0:
256,192,290798,1,0,0:0:0:0:
256,192,290857,1,8,0:0:0:0:
256,192,290910,1,8,0:0:0:0:
256,192,290962,1,0,0:0:0:0:
256,192,291015,1,0,0:0:0:0:
256,192,291067,1,8,0:0:0:0:
256,192,291120,1,0,0:0:0:0:
256,192,291212,1,8,0:0:0:0:
256,192,291330,1,0,0:0:0:0:
256,192,291448,1,8,0:0:0:0:
256,192,291566,1,0,0:0:0:0:
256,192,291684,1,8,0:0:0:0:
256,192,291743,1,8,0:0:0:0:
256,192,291802,1,0,0:0:0:0:
256,192,291861,1,8,0:0:0:0:
256,192,291920,1,0,0:0:0:0:
256,192,291979,1,8,0:0:0:0:
256,192,292038,1,8,0:0:0:0:
256,192,292097,1,8,0:0:0:0:
256,192,292156,1,0,0:0:0:0:
256,192,292215,1,0,0:0:0:0:
256,192,292275,1,8,0:0:0:0:
256,192,292393,1,0,0:0:0:0:
256,192,292511,1,8,0:0:0:0:
256,192,292629,1,0,0:0:0:0:
256,192,292747,1,0,0:0:0:0:
256,192,292806,1,0,0:0:0:0:
256,192,292865,1,8,0:0:0:0:
256,192,292924,1,8,0:0:0:0:
256,192,292983,1,0,0:0:0:0:
256,192,293042,1,8,0:0:0:0:
256,192,293101,1,0,0:0:0:0:
256,192,293160,1,0,0:0:0:0:
256,192,293219,1,8,0:0:0:0:
256,192,293278,1,8,0:0:0:0:
256,192,293338,1,0,0:0:0:0:
256,192,293456,1,8,0:0:0:0:
256,192,293574,1,0,0:0:0:0:
256,192,293692,1,8,0:0:0:0:
256,192,293810,1,0,0:0:0:0:
256,192,293869,1,0,0:0:0:0:
256,192,293928,1,8,0:0:0:0:
256,192,293987,1,0,0:0:0:0:
256,192,294046,1,8,0:0:0:0:
256,192,294105,1,8,0:0:0:0:
256,192,294164,1,0,0:0:0:0:
256,192,294223,1,8,0:0:0:0:
256,192,294282,1,0,0:0:0:0:
256,192,294341,1,8,0:0:0:0:
256,192,294401,1,0,0:0:0:0:
256,192,294519,1,8,0:0:0:0:
256,192,294637,1,0,0:0:0:0:
256,192,294755,1,8,0:0:0:0:
256,192,294873,1,0,0:0:0:0:
256,192,294932,1,0,0:0:0:0:
256,192,294991,1,8,0:0:0:0:
256,192,295050,1,8,0:0:0:0:
256,192,295109,1,0,0:0:0:0:
256,192,295168,1,8,0:0:0:0:
256,192,295227,1,0,0:0:0:0:
256,192,295286,1,8,0:0:0:0:
256,192,295345,1,0,0:0:0:0:
256,192,295404,1,0,0:0:0:0:
256,192,295464,1,8,0:0:0:0:
256,192,295582,1,0,0:0:0:0:
256,192,295739,1,8,0:0:0:0:
256,192,295897,1,0,0:0:0:0:
256,192,296054,1,0,0:0:0:0:
256,192,296172,1,8,0:0:0:0:
256,192,296290,1,8,0:0:0:0:
256,192,296408,1,0,0:0:0:0:
256,192,296527,1,8,0:0:0:0:
256,192,296763,1,0,0:0:0:0:
256,192,296999,1,8,0:0:0:0:
256,192,297117,1,8,0:0:0:0:
256,192,297235,1,0,0:0:0:0:
256,192,297471,1,8,0:0:0:0:
256,192,297590,1,8,0:0:0:0:
256,192,297708,1,0,0:0:0:0:
256,192,297826,1,8,0:0:0:0:
256,192,297944,1,0,0:0:0:0:
256,192,298180,1,0,0:0:0:0:
256,192,298298,1,8,0:0:0:0:
256,192,298416,1,0,0:0:0:0:
256,192,298652,1,8,0:0:0:0:
256,192,298771,1,8,0:0:0:0:
256,192,298889,1,0,0:0:0:0:
256,192,299046,1,8,0:0:0:0:
256,192,299204,1,8,0:0:0:0:
256,192,299361,1,0,0:0:0:0:
256,192,299479,1,0,0:0:0:0:
256,192,299597,1,0,0:0:0:0:
256,192,299715,1,8,0:0:0:0:
256,192,299991,1,0,0:0:0:0:
256,192,300149,1,8,0:0:0:0:
256,192,300306,1,0,0:0:0:0:
256,192,300424,1,0,0:0:0:0:
256,192,300542,1,8,0:0:0:0:
256,192,300660,1,8,0:0:0:0:
256,192,300778,1,0,0:0:0:0:
256,192,301133,1,8,0:0:0:0:
256,192,301192,1,8,0:0:0:0:
256,192,301251,1,0,0:0:0:0:
256,192,301408,1,8,0:0:0:0:
256,192,301566,1,8,0:0:0:0:
256,192,301723,1,8,0:0:0:0:
256,192,301841,1,0,0:0:0:0:
256,192,301960,1,8,0:0:0:0:
256,192,302078,1,8,0:0:0:0:
256,192,302196,1,0,0:0:0:0:
256,192,302511,1,0,0:0:0:0:
256,192,302668,1,8,0:0:0:0:
256,192,302826,1,0,0:0:0:0:
256,192,302983,1,8,0:0:0:0:
256,192,303141,1,0,0:0:0:0:
256,192,303259,1,8,0:0:0:0:
256,192,303377,1,0,0:0:0:0:
256,192,303495,1,8,0:0:0:0:
256,192,303613,1,0,0:0:0:0:
256,192,303731,1,8,0:0:0:0:
256,192,303790,1,8,0:0:0:0:
256,192,303849,1,8,0:0:0:0:
256,192,304086,1,0,0:0:0:0:
256,192,304204,1,0,0:0:0:0:
256,192,304322,1,8,0:0:0:0:
256,192,304440,1,0,0:0:0:0:
256,192,304558,1,8,0:0:0:0:
256,192,305030,1,0,0:0:0:0:
256,192,305188,1,8,0:0:0:0:
256,192,305345,1,0,0:0:0:0:
256,192,305503,1,8,0:0:0:0:
256,192,305621,1,8,0:0:0:0:
256,192,305739,1,0,0:0:0:0:
256,192,305857,1,8,0:0:0:0:
256,192,305975,1,0,0:0:0:0:
256,192,306212,1,8,0:0:0:0:
256,192,306330,1,8,0:0:0:0:
256,192,306448,1,0,0:0:0:0:
256,192,306684,1,8,0:0:0:0:
256,192,306920,1,0,0:0:0:0:
256,192,307156,1,8,0:0:0:0:
256,192,307393,1,0,0:0:0:0:
256,192,307511,1,0,0:0:0:0:
256,192,307629,1,0,0:0:0:0:
256,192,307747,1,8,0:0:0:0:
256,192,307865,1,0,0:0:0:0:
256,192,307983,1,0,0:0:0:0:
256,192,308219,1,8,0:0:0:0:
256,192,308338,1,0,0:0:0:0:
256,192,308432,1,8,0:0:0:0:
256,192,308527,1,8,0:0:0:0:
256,192,308621,1,0,0:0:0:0:
256,192,308715,1,0,0:0:0:0:
256,192,308810,1,8,0:0:0:0:
256,192,308904,1,0,0:0:0:0:
256,192,308999,1,0,0:0:0:0:
256,192,309093,1,8,0:0:0:0:
256,192,309188,1,8,0:0:0:0:
256,192,309282,1,0,0:0:0:0:
256,192,309755,1,0,0:0:0:0:
256,192,309991,1,8,0:0:0:0:
256,192,310227,1,0,0:0:0:0:
256,192,310345,1,8,0:0:0:0:
256,192,310582,1,8,0:0:0:0:
256,192,310700,1,0,0:0:0:0:
256,192,310818,1,0,0:0:0:0:
256,192,310936,1,8,0:0:0:0:
256,192,311054,1,8,0:0:0:0:
256,192,311172,1,8,0:0:0:0:
256,192,311408,1,8,0:0:0:0:
256,192,311527,1,8,0:0:0:0:
256,192,311645,1,0,0:0:0:0:
256,192,311763,1,0,0:0:0:0:
256,192,311881,1,8,0:0:0:0:
256,192,311999,1,8,0:0:0:0:
256,192,312117,1,0,0:0:0:0:
256,192,312471,1,0,0:0:0:0:
256,192,312590,1,0,0:0:0:0:
256,192,312826,1,8,0:0:0:0:
256,192,313062,1,0,0:0:0:0:
256,192,313219,1,8,0:0:0:0:
256,192,313534,1,0,0:0:0:0:
256,192,313692,1,8,0:0:0:0:
256,192,313849,1,8,0:0:0:0:
256,192,314007,1,0,0:0:0:0:
256,192,314125,1,0,0:0:0:0:
256,192,314243,1,8,0:0:0:0:
256,192,314361,1,0,0:0:0:0:
256,192,314715,1,0,0:0:0:0:
256,192,314952,1,0,0:0:0:0:
256,192,315188,1,8,0:0:0:0:
256,192,315424,1,0,0:0:0:0:
256,192,315897,1,0,0:0:0:0:
256,192,316133,1,0,0:0:0:0:
256,192,316369,1,8,0:0:0:0:
256,192,316605,1,0,0:0:0:0:
256,192,317078,1,0,0:0:0:0:
256,192,317314,1,0,0:0:0:0:
256,192,317550,1,8,0:0:0:0:
256,192,317786,1,4,0:0:0:0:
256,192,318259,1,0,0:0:0:0:
256,192,318495,1,8,0:0:0:0:
256,192,318731,1,0,0:0:0:0:
256,192,319085,1,0,0:0:0:0:
256,192,319204,1,8,0:0:0:0:
256,192,319676,1,0,0:0:0:0:
256,192,319991,1,8,0:0:0:0:
256,192,320149,1,0,0:0:0:0:
256,192,320385,1,8,0:0:0:0:
256,192,320621,1,0,0:0:0:0:
256,192,321093,1,0,0:0:0:0:
256,192,321330,1,8,0:0:0:0:
256,192,321566,1,0,0:0:0:0:
256,192,321881,1,0,0:0:0:0:
256,192,322038,1,8,0:0:0:0:
256,192,322511,1,8,0:0:0:0:
256,192,322983,1,8,0:0:0:0:
256,192,323456,1,0,0:0:0:0:
256,192,323928,1,0,0:0:0:0:
256,192,324401,1,8,0:0:0:0:
256,192,324755,1,0,0:0:0:0:
256,192,324873,1,8,0:0:0:0:
256,192,325345,1,8,0:0:0:0:
256,192,325818,1,8,0:0:0:0:
256,192,326172,1,8,0:0:0:0:
256,192,326290,1,8,0:0:0:0:
256,192,326763,1,8,0:0:0:0:
256,192,327235,1,8,0:0:0:0:
256,192,327707,1,0,0:0:0:0:
256,192,328180,1,8,0:0:0:0:
256,192,328338,1,8,0:0:0:0:
256,192,328495,1,8,0:0:0:0:
256,192,328652,1,0,0:0:0:0:
256,192,328889,1,0,0:0:0:0:
256,192,329125,1,8,0:0:0:0:
256,192,329243,1,0,0:0:0:0:
256,192,329361,1,8,0:0:0:0:
256,192,329479,1,8,0:0:0:0:
256,192,329597,1,0,0:0:0:0:
256,192,329755,1,0,0:0:0:0:
256,192,329912,1,8,0:0:0:0:
256,192,330070,1,0,0:0:0:0:
256,192,330385,1,8,0:0:0:0:
256,192,330503,1,0,0:0:0:0:
256,192,330621,1,8,0:0:0:0:
256,192,330818,1,0,0:0:0:0:
256,192,330975,1,8,0:0:0:0:
256,192,331251,1,0,0:0:0:0:
256,192,331487,1,8,0:0:0:0:
256,192,331605,1,0,0:0:0:0:
256,192,331960,1,0,0:0:0:0:
256,192,332078,1,0,0:0:0:0:
256,192,332432,1,8,0:0:0:0:
256,192,332550,1,0,0:0:0:0:
256,192,332668,1,0,0:0:0:0:
256,192,332786,1,8,0:0:0:0:
256,192,332904,1,0,0:0:0:0:
256,192,333062,1,8,0:0:0:0:
256,192,333219,1,8,0:0:0:0:
256,192,333377,1,0,0:0:0:0:
256,192,333613,1,0,0:0:0:0:
256,192,333849,1,8,0:0:0:0:
256,192,334086,1,8,0:0:0:0:
256,192,334204,1,8,0:0:0:0:
256,192,334322,1,0,0:0:0:0:
256,192,334479,1,8,0:0:0:0:
256,192,334637,1,8,0:0:0:0:
256,192,334794,1,0,0:0:0:0:
256,192,334952,1,0,0:0:0:0:
256,192,335109,1,8,0:0:0:0:
256,192,335267,1,0,0:0:0:0:
256,192,335424,1,8,0:0:0:0:
256,192,335582,1,8,0:0:0:0:
256,192,335739,1,0,0:0:0:0:
256,192,335897,1,8,0:0:0:0:
256,192,336054,1,0,0:0:0:0:
256,192,336212,1,8,0:0:0:0:
256,192,336369,1,8,0:0:0:0:
256,192,336527,1,8,0:0:0:0:
256,192,336841,1,8,0:0:0:0:
256,192,336999,1,8,0:0:0:0:
256,192,337314,1,0,0:0:0:0:
256,192,337471,1,8,0:0:0:0:
256,192,337629,1,8,0:0:0:0:
256,192,337786,1,0,0:0:0:0:
256,192,337944,1,0,0:0:0:0:
256,192,338101,1,8,0:0:0:0:
256,192,338259,1,8,0:0:0:0:
256,192,338416,1,0,0:0:0:0:
256,192,338574,1,8,0:0:0:0:
256,192,338731,1,8,0:0:0:0:
256,192,338889,1,8,0:0:0:0:
256,192,339046,1,0,0:0:0:0:
256,192,339204,1,0,0:0:0:0:
256,192,339361,1,8,0:0:0:0:
256,192,339755,1,0,0:0:0:0:
256,192,339873,1,0,0:0:0:0:
256,192,339991,1,8,0:0:0:0:
256,192,340109,1,0,0:0:0:0:
256,192,340227,1,8,0:0:0:0:
256,192,340345,1,8,0:0:0:0:
256,192,340464,1,0,0:0:0:0:
256,192,340542,1,0,0:0:0:0:
256,192,340621,1,0,0:0:0:0:
256,192,340700,1,8,0:0:0:0:
256,192,340936,1,8,0:0:0:0:
256,192,341093,1,0,0:0:0:0:
256,192,341251,1,8,0:0:0:0:
256,192,341566,1,8,0:0:0:0:
256,192,341723,1,8,0:0:0:0:
256,192,341881,1,0,0:0:0:0:
256,192,342038,1,8,0:0:0:0:
256,192,342196,1,0,0:0:0:0:
256,192,342353,1,8,0:0:0:0:
256,192,342511,1,8,0:0:0:0:
256,192,342590,1,8,0:0:0:0:
256,192,342708,1,0,0:0:0:0:
256,192,342826,1,8,0:0:0:0:
256,192,342944,1,0,0:0:0:0:
256,192,343062,1,8,0:0:0:0:
256,192,343180,1,8,0:0:0:0:
256,192,343298,1,0,0:0:0:0:
256,192,343613,1,8,0:0:0:0:
256,192,343771,1,8,0:0:0:0:
256,192,343889,1,0,0:0:0:0:
256,192,344007,1,0,0:0:0:0:
256,192,344125,1,8,0:0:0:0:
256,192,344243,1,0,0:0:0:0:
256,192,344361,1,8,0:0:0:0:
256,192,344479,1,0,0:0:0:0:
256,192,344597,1,0,0:0:0:0:
256,192,344715,1,8,0:0:0:0:
256,192,344873,1,0,0:0:0:0:
256,192,345030,1,8,0:0:0:0:
256,192,345188,1,8,0:0:0:0:
256,192,345306,1,0,0:0:0:0:
256,192,345424,1,8,0:0:0:0:
256,192,345542,1,0,0:0:0:0:
256,192,345660,1,0,0:0:0:0:
256,192,345719,1,0,0:0:0:0:
256,192,345778,1,0,0:0:0:0:
256,192,346015,1,8,0:0:0:0:
256,192,346133,1,0,0:0:0:0:
256,192,346251,1,8,0:0:0:0:
256,192,346369,1,8,0:0:0:0:
256,192,346487,1,0,0:0:0:0:
256,192,346605,1,8,0:0:0:0:
256,192,346841,1,0,0:0:0:0:
256,192,346960,1,0,0:0:0:0:
256,192,347019,1,0,0:0:0:0:
256,192,347078,1,8,0:0:0:0:
256,192,347786,1,8,0:0:0:0:
256,192,347904,1,8,0:0:0:0:
256,192,348023,1,0,0:0:0:0:
256,192,348180,1,8,0:0:0:0:
256,192,348731,1,8,0:0:0:0:
256,192,348849,1,8,0:0:0:0:
256,192,348967,1,0,0:0:0:0:
256,192,349086,1,8,0:0:0:0:
256,192,349440,1,8,0:0:0:0:
256,192,349519,1,8,0:0:0:0:
256,192,349597,1,0,0:0:0:0:
256,192,349676,1,8,0:0:0:0:
256,192,349755,1,8,0:0:0:0:
256,192,349834,1,8,0:0:0:0:
256,192,349912,1,0,0:0:0:0:
256,192,350030,1,8,0:0:0:0:
256,192,350149,1,8,0:0:0:0:
256,192,350267,1,8,0:0:0:0:
256,192,350385,1,0,0:0:0:0:
256,192,350542,1,8,0:0:0:0:
256,192,350700,1,8,0:0:0:0:
256,192,350857,1,0,0:0:0:0:
256,192,351093,1,8,0:0:0:0:
256,192,351212,1,0,0:0:0:0:
256,192,351487,1,8,0:0:0:0:
256,192,351645,1,0,0:0:0:0:
256,192,351802,1,8,0:0:0:0:
256,192,351960,1,8,0:0:0:0:
256,192,352117,1,0,0:0:0:0:
256,192,352275,1,8,0:0:0:0:
256,192,352393,1,8,0:0:0:0:
256,192,352511,1,0,0:0:0:0:
256,192,352629,1,8,0:0:0:0:
256,192,352904,1,0,0:0:0:0:
256,192,353062,1,8,0:0:0:0:
256,192,353219,1,8,0:0:0:0:
256,192,353338,1,0,0:0:0:0:
256,192,353456,1,0,0:0:0:0:
256,192,353574,1,8,0:0:0:0:
256,192,353692,1,0,0:0:0:0:
256,192,353928,1,8,0:0:0:0:
256,192,354164,1,0,0:0:0:0:
256,192,354401,1,8,0:0:0:0:
256,192,354637,1,0,0:0:0:0:
256,192,355267,1,0,0:0:0:0:
256,192,355582,1,8,0:0:0:0:
256,192,355739,1,0,0:0:0:0:
256,192,356054,1,8,0:0:0:0:
256,192,356172,1,0,0:0:0:0:
256,192,356408,1,8,0:0:0:0:
256,192,356645,1,0,0:0:0:0:
256,192,356999,1,8,0:0:0:0:
256,192,357314,1,8,0:0:0:0:
256,192,357471,1,0,0:0:0:0:
256,192,357708,1,8,0:0:0:0:
256,192,358062,1,0,0:0:0:0:
256,192,358259,1,8,0:0:0:0:
256,192,358534,1,0,0:0:0:0:
256,192,359125,1,8,0:0:0:0:
256,192,359361,1,0,0:0:0:0:
256,192,359519,1,8,0:0:0:0:
256,192,359676,1,0,0:0:0:0:
256,192,359991,1,0,0:0:0:0:
256,192,360149,1,8,0:0:0:0:
256,192,360306,1,0,0:0:0:0:
256,192,360464,1,8,0:0:0:0:
256,192,360621,1,0,0:0:0:0:
256,192,361015,1,8,0:0:0:0:
256,192,361408,1,0,0:0:0:0:
256,192,361881,1,8,0:0:0:0:
256,192,362511,1,0,0:0:0:0:
256,192,362826,1,0,0:0:0:0:
256,192,362983,1,8,0:0:0:0:
256,192,363141,1,0,0:0:0:0:
256,192,363613,1,8,0:0:0:0:
256,192,363928,1,0,0:0:0:0:
256,192,364086,1,8,0:0:0:0:
256,192,364558,1,8,0:0:0:0:
256,192,365030,1,8,0:0:0:0:
256,192,365503,1,8,0:0:0:0:
256,192,365975,1,0,0:0:0:0:
256,192,366133,1,0,0:0:0:0:
256,192,366290,1,8,0:0:0:0:
256,192,366448,1,0,0:0:0:0:
256,192,366605,1,8,0:0:0:0:
256,192,366763,1,8,0:0:0:0:
256,192,366920,1,0,0:0:0:0:
256,192,367078,1,8,0:0:0:0:
256,192,367235,1,8,0:0:0:0:
256,192,367393,1,0,0:0:0:0:
256,192,367629,1,0,0:0:0:0:
256,192,367747,1,0,0:0:0:0:
256,192,367865,1,8,0:0:0:0:
256,192,367983,1,8,0:0:0:0:
256,192,368101,1,0,0:0:0:0:
256,192,368219,1,8,0:0:0:0:
256,192,368338,1,0,0:0:0:0:
256,192,368495,1,8,0:0:0:0:
256,192,368652,1,8,0:0:0:0:
256,192,368810,1,0,0:0:0:0:
256,192,368928,1,0,0:0:0:0:
256,192,369046,1,8,0:0:0:0:
256,192,369164,1,8,0:0:0:0:
256,192,369282,1,0,0:0:0:0:
256,192,369519,1,8,0:0:0:0:
256,192,369755,1,8,0:0:0:0:
256,192,369991,1,0,0:0:0:0:
256,192,370109,1,0,0:0:0:0:
256,192,370227,1,8,0:0:0:0:
256,192,370385,1,8,0:0:0:0:
256,192,370542,1,0,0:0:0:0:
256,192,370700,1,0,0:0:0:0:
256,192,370818,1,8,0:0:0:0:
256,192,371054,1,0,0:0:0:0:
256,192,371172,1,8,0:0:0:0:
256,192,371290,1,8,0:0:0:0:
256,192,371408,1,0,0:0:0:0:
256,192,371527,1,0,0:0:0:0:
256,192,371645,1,8,0:0:0:0:
256,192,371999,1,8,0:0:0:0:
256,192,372117,1,0,0:0:0:0:
256,192,372235,1,0,0:0:0:0:
256,192,372471,1,8,0:0:0:0:
256,192,372590,1,0,0:0:0:0:
256,192,372708,1,8,0:0:0:0:
256,192,372944,1,0,0:0:0:0:
256,192,373062,1,8,0:0:0:0:
256,192,373298,1,0,0:0:0:0:
256,192,373534,1,0,0:0:0:0:
256,192,373692,1,0,0:0:0:0:
256,192,373849,1,0,0:0:0:0:
256,192,374007,1,8,0:0:0:0:
256,192,374125,1,8,0:0:0:0:
256,192,374243,1,8,0:0:0:0:
256,192,374361,1,8,0:0:0:0:
256,192,374479,1,0,0:0:0:0:
256,192,374637,1,0,0:0:0:0:
256,192,374794,1,0,0:0:0:0:
256,192,374952,1,8,0:0:0:0:
256,192,375109,1,0,0:0:0:0:
256,192,375267,1,8,0:0:0:0:
256,192,375424,1,0,0:0:0:0:
256,192,375739,1,8,0:0:0:0:
256,192,375897,1,0,0:0:0:0:
256,192,376054,1,8,0:0:0:0:
256,192,376212,1,8,0:0:0:0:
256,192,376369,1,0,0:0:0:0:
256,192,376605,1,0,0:0:0:0:
256,192,376841,1,8,0:0:0:0:
256,192,377550,1,0,0:0:0:0:
256,192,377609,1,8,0:0:0:0:
256,192,377668,1,0,0:0:0:0:
256,192,377727,1,8,0:0:0:0:
256,192,377786,1,0,0:0:0:0:
256,192,377845,1,8,0:0:0:0:
256,192,377904,1,0,0:0:0:0:
256,192,377963,1,8,0:0:0:0:
256,192,378023,1,0,0:0:0:0:
256,192,378141,1,0,0:0:0:0:
256,192,378200,1,8,0:0:0:0:
256,192,378259,1,0,0:0:0:0:
256,192,378318,1,8,0:0:0:0:
256,192,378377,1,0,0:0:0:0:
256,192,378436,1,8,0:0:0:0:
256,192,378495,1,0,0:0:0:0:
256,192,378554,1,8,0:0:0:0:
256,192,378613,1,0,0:0:0:0:
256,192,378672,1,8,0:0:0:0:
256,192,378731,1,0,0:0:0:0:
256,192,378849,1,0,0:0:0:0:
256,192,378908,1,8,0:0:0:0:
256,192,378967,1,0,0:0:0:0:
256,192,379027,1,8,0:0:0:0:
256,192,379086,1,0,0:0:0:0:
256,192,379145,1,8,0:0:0:0:
256,192,379204,1,0,0:0:0:0:
256,192,379263,1,8,0:0:0:0:
256,192,379322,1,0,0:0:0:0:
256,192,379381,1,8,0:0:0:0:
256,192,379440,1,0,0:0:0:0:
256,192,379499,1,8,0:0:0:0:
256,192,379558,1,0,0:0:0:0:
256,192,379617,1,8,0:0:0:0:
256,192,379676,1,0,0:0:0:0:
256,192,379912,1,0,0:0:0:0:
256,192,379971,1,8,0:0:0:0:
256,192,380030,1,0,0:0:0:0:
256,192,380090,1,8,0:0:0:0:
256,192,380149,1,0,0:0:0:0:
256,192,380444,1,0,0:0:0:0:
256,192,380542,1,8,0:0:0:0:
256,192,381015,1,0,0:0:0:0:
256,192,381093,1,8,0:0:0:0:
256,192,381566,1,0,0:0:0:0:
256,192,381645,1,8,0:0:0:0:
256,192,381960,1,0,0:0:0:0:
256,192,382038,1,8,0:0:0:0:
256,192,382353,1,0,0:0:0:0:
256,192,382432,1,8,0:0:0:0:
256,192,382590,1,0,0:0:0:0:
256,192,382668,1,8,0:0:0:0:
256,192,382983,1,0,0:0:0:0:
256,192,383062,1,8,0:0:0:0:
256,192,383219,1,0,0:0:0:0:
256,192,383298,1,8,0:0:0:0:
256,192,383456,1,0,0:0:0:0:
256,192,383534,1,8,0:0:0:0:
256,192,383613,1,8,0:0:0:0:
256,192,383849,1,0,0:0:0:0:
256,192,383928,1,8,0:0:0:0:
256,192,384007,1,8,0:0:0:0:
256,192,384243,1,0,0:0:0:0:
256,192,384322,1,8,0:0:0:0:
256,192,384479,1,0,0:0:0:0:
256,192,384558,1,8,0:0:0:0:
256,192,384715,1,0,0:0:0:0:
256,192,384794,1,8,0:0:0:0:
256,192,384873,1,0,0:0:0:0:
256,192,384952,1,8,0:0:0:0:
256,192,385030,1,8,0:0:0:0:
256,192,385109,1,0,0:0:0:0:
256,192,385188,1,8,0:0:0:0:
256,192,385267,1,8,0:0:0:0:
256,192,385345,1,0,0:0:0:0:
256,192,385424,1,8,0:0:0:0:
256,192,385503,1,8,0:0:0:0:
256,192,385582,1,0,0:0:0:0:
256,192,385660,1,8,0:0:0:0:
256,192,385739,1,8,0:0:0:0:
256,192,385818,1,0,0:0:0:0:
256,192,385877,1,8,0:0:0:0:
256,192,385936,1,8,0:0:0:0:
256,192,385995,1,0,0:0:0:0:
256,192,386054,1,8,0:0:0:0:
256,192,386113,1,0,0:0:0:0:
256,192,386172,1,8,0:0:0:0:
256,192,386231,1,8,0:0:0:0:
256,192,386290,1,0,0:0:0:0:
256,192,386349,1,8,0:0:0:0:
256,192,386408,1,8,0:0:0:0:
256,192,386467,1,0,0:0:0:0:
256,192,386527,1,8,0:0:0:0:
256,192,386586,1,0,0:0:0:0:
256,192,386645,1,8,0:0:0:0:
256,192,386704,1,8,0:0:0:0:
256,192,386763,1,0,0:0:0:0:
256,192,386822,1,8,0:0:0:0:
256,192,386881,1,8,0:0:0:0:
256,192,386940,1,0,0:0:0:0:
256,192,386999,1,8,0:0:0:0:
256,192,387058,1,0,0:0:0:0:
256,192,387117,1,8,0:0:0:0:
256,192,387176,1,8,0:0:0:0:
256,192,387235,1,0,0:0:0:0:
256,192,387294,1,8,0:0:0:0:
256,192,387353,1,8,0:0:0:0:
256,192,387412,1,0,0:0:0:0:
256,192,387471,1,8,0:0:0:0:
256,192,387530,1,0,0:0:0:0:
256,192,387590,1,8,0:0:0:0:
256,192,387649,1,8,0:0:0:0:
256,192,387708,1,0,0:0:0:0:
256,192,387786,1,8,0:0:0:0:
256,192,387865,1,0,0:0:0:0:
256,192,387944,1,8,0:0:0:0:
256,192,388023,1,0,0:0:0:0:
256,192,388101,1,8,0:0:0:0:
256,192,388180,1,0,0:0:0:0:
256,192,388338,1,8,0:0:0:0:
256,192,388495,1,8,0:0:0:0:
256,192,388652,1,4,0:0:0:0:
256,192,388810,12,0,391251,0:0:0:0:
256,192,391487,5,0,0:0:0:0:
256,192,391645,1,8,0:0:0:0:
256,192,391802,1,0,0:0:0:0:
256,192,391960,1,0,0:0:0:0:
256,192,392078,1,8,0:0:0:0:
256,192,392196,1,0,0:0:0:0:
256,192,392314,1,0,0:0:0:0:
256,192,392432,1,8,0:0:0:0:
256,192,392550,1,0,0:0:0:0:
256,192,392668,1,8,0:0:0:0:
256,192,392904,1,0,0:0:0:0:
256,192,393062,1,0,0:0:0:0:
256,192,393219,1,0,0:0:0:0:
256,192,393377,1,8,0:0:0:0:
256,192,393495,1,8,0:0:0:0:
256,192,393613,1,0,0:0:0:0:
256,192,393731,1,8,0:0:0:0:
256,192,393849,1,0,0:0:0:0:
256,192,393944,1,0,0:0:0:0:
256,192,394038,1,8,0:0:0:0:
256,192,394133,1,0,0:0:0:0:
256,192,394227,1,8,0:0:0:0:
256,192,394322,1,0,0:0:0:0:
256,192,394479,1,8,0:0:0:0:
256,192,394952,1,8,0:0:0:0:
256,192,395109,1,8,0:0:0:0:
256,192,395267,1,0,0:0:0:0:
256,192,395385,1,0,0:0:0:0:
256,192,395503,1,8,0:0:0:0:
256,192,395621,1,8,0:0:0:0:
256,192,395739,1,0,0:0:0:0:
256,192,396212,1,0,0:0:0:0:
256,192,396527,1,8,0:0:0:0:
256,192,396684,1,0,0:0:0:0:
256,192,397156,1,4,0:0:0:0:
256,192,397393,1,0,0:0:0:0:
256,192,397865,1,8,0:0:0:0:
256,192,398101,1,0,0:0:0:0:
256,192,398574,1,8,0:0:0:0:
256,192,399046,1,0,0:0:0:0:
256,192,399361,1,8,0:0:0:0:
256,192,399519,1,0,0:0:0:0:
256,192,399873,1,0,0:0:0:0:
256,192,399991,1,8,0:0:0:0:
256,192,400464,1,8,0:0:0:0:
256,192,400936,1,0,0:0:0:0:
256,192,401408,1,8,0:0:0:0:
256,192,401881,1,8,0:0:0:0:
256,192,402353,1,0,0:0:0:0:
256,192,402826,1,8,0:0:0:0:
256,192,403298,1,0,0:0:0:0:
256,192,403534,1,8,0:0:0:0:
256,192,403652,1,8,0:0:0:0:
256,192,403771,1,0,0:0:0:0:
256,192,403928,1,0,0:0:0:0:
256,192,404086,1,0,0:0:0:0:
256,192,404243,1,8,0:0:0:0:
256,192,404558,1,0,0:0:0:0:
256,192,405030,1,8,0:0:0:0:
256,192,405188,1,0,0:0:0:0:
256,192,407550,1,8,0:0:0:0:
256,192,407786,1,0,0:0:0:0:
256,192,408023,1,8,0:0:0:0:
256,192,408259,1,8,0:0:0:0:
256,192,408495,1,0,0:0:0:0:
256,192,408652,1,8,0:0:0:0:
256,192,408810,1,8,0:0:0:0:
256,192,408967,1,0,0:0:0:0:
256,192,409440,1,8,0:0:0:0:
256,192,409912,1,0,0:0:0:0:
256,192,410385,1,8,0:0:0:0:
256,192,410857,1,0,0:0:0:0:
256,192,411330,1,12,0:0:0:0:
256,192,411566,1,8,0:0:0:0:
256,192,411684,1,0,0:0:0:0:
256,192,411802,1,8,0:0:0:0:
256,192,411920,1,8,0:0:0:0:
256,192,412038,1,8,0:0:0:0:
256,192,412156,1,8,0:0:0:0:
256,192,412275,1,0,0:0:0:0:
256,192,412432,1,8,0:0:0:0:
256,192,412590,1,0,0:0:0:0:
256,192,412747,1,8,0:0:0:0:
256,192,412904,1,8,0:0:0:0:
256,192,413062,1,8,0:0:0:0:
256,192,413219,1,0,0:0:0:0:
256,192,413534,1,8,0:0:0:0:
256,192,413692,1,0,0:0:0:0:
256,192,413849,1,8,0:0:0:0:
256,192,414164,1,8,0:0:0:0:
256,192,414282,1,0,0:0:0:0:
256,192,414401,1,8,0:0:0:0:
256,192,414519,1,8,0:0:0:0:
256,192,414637,1,0,0:0:0:0:
256,192,414794,1,8,0:0:0:0:
256,192,414952,1,8,0:0:0:0:
256,192,415109,1,0,0:0:0:0:
256,192,415267,1,0,0:0:0:0:
256,192,415424,1,0,0:0:0:0:
256,192,415582,1,8,0:0:0:0:
256,192,415818,1,0,0:0:0:0:
256,192,416054,1,8,0:0:0:0:
256,192,416408,1,0,0:0:0:0:
256,192,416527,1,8,0:0:0:0:
256,192,416763,1,8,0:0:0:0:
256,192,416881,1,8,0:0:0:0:
256,192,416999,1,0,0:0:0:0:
256,192,417078,1,0,0:0:0:0:
256,192,417156,1,0,0:0:0:0:
256,192,417235,1,8,0:0:0:0:
256,192,417471,1,0,0:0:0:0:
256,192,417629,1,0,0:0:0:0:
256,192,417786,1,8,0:0:0:0:
256,192,417944,1,0,0:0:0:0:
256,192,418101,1,8,0:0:0:0:
256,192,418259,1,8,0:0:0:0:
256,192,418416,1,8,0:0:0:0:
256,192,418574,1,0,0:0:0:0:
256,192,418731,1,0,0:0:0:0:
256,192,418889,1,0,0:0:0:0:
256,192,419046,1,8,0:0:0:0:
256,192,419204,1,0,0:0:0:0:
256,192,419361,1,0,0:0:0:0:
256,192,419519,1,8,0:0:0:0:
256,192,419676,1,0,0:0:0:0:
256,192,419834,1,8,0:0:0:0:
256,192,420149,1,8,0:0:0:0:
256,192,420464,1,0,0:0:0:0:
256,192,420621,1,0,0:0:0:0:
256,192,420936,1,0,0:0:0:0:
256,192,421093,1,8,0:0:0:0:
256,192,421408,1,0,0:0:0:0:
256,192,421723,1,0,0:0:0:0:
256,192,422196,1,8,0:0:0:0:
256,192,422314,1,8,0:0:0:0:
256,192,422432,1,0,0:0:0:0:
256,192,422550,1,0,0:0:0:0:
256,192,422668,1,0,0:0:0:0:
256,192,422983,1,8,0:0:0:0:
256,192,423298,1,0,0:0:0:0:
256,192,423613,1,0,0:0:0:0:
256,192,424243,1,0,0:0:0:0:
256,192,424401,1,8,0:0:0:0:
256,192,424558,1,0,0:0:0:0:
256,192,424794,1,8,0:0:0:0:
256,192,425030,1,8,0:0:0:0:
256,192,425149,1,8,0:0:0:0:
256,192,425267,1,8,0:0:0:0:
256,192,425385,1,8,0:0:0:0:
256,192,425503,1,0,0:0:0:0:
256,192,425975,1,8,0:0:0:0:
256,192,426093,1,0,0:0:0:0:
256,192,426212,1,8,0:0:0:0:
256,192,426330,1,8,0:0:0:0:
256,192,426448,1,0,0:0:0:0:
256,192,426763,1,8,0:0:0:0:
256,192,426920,1,8,0:0:0:0:
256,192,427038,1,0,0:0:0:0:
256,192,427156,1,0,0:0:0:0:
256,192,427275,1,8,0:0:0:0:
256,192,427393,1,0,0:0:0:0:
256,192,427511,1,8,0:0:0:0:
256,192,427629,1,0,0:0:0:0:
256,192,427747,1,0,0:0:0:0:
256,192,427865,1,8,0:0:0:0:
256,192,428180,1,0,0:0:0:0:
256,192,428338,1,8,0:0:0:0:
256,192,428456,1,0,0:0:0:0:
256,192,428574,1,8,0:0:0:0:
256,192,428692,1,8,0:0:0:0:
256,192,428810,1,8,0:0:0:0:
256,192,429125,1,8,0:0:0:0:
256,192,429282,1,0,0:0:0:0:
256,192,429401,1,8,0:0:0:0:
256,192,429519,1,0,0:0:0:0:
256,192,429637,1,0,0:0:0:0:
256,192,429755,1,8,0:0:0:0:
256,192,430070,1,0,0:0:0:0:
256,192,430227,1,8,0:0:0:0:
256,192,430345,1,0,0:0:0:0:
256,192,430464,1,0,0:0:0:0:
256,192,430582,1,0,0:0:0:0:
256,192,430700,1,8,0:0:0:0:
256,192,430857,1,8,0:0:0:0:
256,192,431015,1,8,0:0:0:0:
256,192,431172,1,0,0:0:0:0:
256,192,431645,1,8,0:0:0:0:
256,192,431763,1,8,0:0:0:0:
256,192,431881,1,0,0:0:0:0:
256,192,431999,1,0,0:0:0:0:
256,192,432117,1,8,0:0:0:0:
256,192,432353,1,8,0:0:0:0:
256,192,432590,1,0,0:0:0:0:
256,192,432826,1,0,0:0:0:0:
256,192,433062,1,8,0:0:0:0:
256,192,433377,1,8,0:0:0:0:
256,192,433692,1,0,0:0:0:0:
256,192,434007,1,0,0:0:0:0:
256,192,434322,1,8,0:0:0:0:
256,192,434479,1,8,0:0:0:0:
256,192,434597,1,0,0:0:0:0:
256,192,434715,1,8,0:0:0:0:
256,192,434834,1,0,0:0:0:0:
256,192,435070,1,8,0:0:0:0:
256,192,435424,1,8,0:0:0:0:
256,192,435739,1,0,0:0:0:0:
256,192,436054,1,8,0:0:0:0:
256,192,436369,1,0,0:0:0:0:
256,192,436487,1,8,0:0:0:0:
256,192,436605,1,0,0:0:0:0:
256,192,436723,1,0,0:0:0:0:
256,192,436841,1,8,0:0:0:0:
256,192,436936,1,0,0:0:0:0:
256,192,437030,1,8,0:0:0:0:
256,192,437125,1,8,0:0:0:0:
256,192,437219,1,0,0:0:0:0:
256,192,437314,1,0,0:0:0:0:
256,192,437471,1,8,0:0:0:0:
256,192,437629,1,8,0:0:0:0:
256,192,438023,1,0,0:0:0:0:
256,192,438259,1,8,0:0:0:0:
256,192,438495,1,0,0:0:0:0:
256,192,438613,1,8,0:0:0:0:
256,192,438731,1,8,0:0:0:0:
256,192,438849,1,0,0:0:0:0:
256,192,438967,1,8,0:0:0:0:
256,192,439086,1,8,0:0:0:0:
256,192,439204,1,0,0:0:0:0:
256,192,439322,1,8,0:0:0:0:
256,192,439440,1,0,0:0:0:0:
256,192,439558,1,8,0:0:0:0:
256,192,439676,1,0,0:0:0:0:
256,192,439912,1,8,0:0:0:0:
256,192,440149,1,0,0:0:0:0:
256,192,440267,1,8,0:0:0:0:
256,192,440385,1,0,0:0:0:0:
256,192,440621,1,8,0:0:0:0:
256,192,440739,1,8,0:0:0:0:
256,192,440857,1,0,0:0:0:0:
256,192,440975,1,8,0:0:0:0:
256,192,441093,1,0,0:0:0:0:
256,192,441212,1,0,0:0:0:0:
256,192,441330,1,0,0:0:0:0:
256,192,441448,1,8,0:0:0:0:
256,192,441684,1,8,0:0:0:0:
256,192,441802,1,8,0:0:0:0:
256,192,441920,1,8,0:0:0:0:
256,192,442038,1,0,0:0:0:0:
256,192,442133,1,0,0:0:0:0:
256,192,442227,1,8,0:0:0:0:
256,192,442322,1,8,0:0:0:0:
256,192,442416,1,0,0:0:0:0:
256,192,442511,1,8,0:0:0:0:
256,192,443219,1,0,0:0:0:0:
256,192,443338,1,8,0:0:0:0:
256,192,443692,1,8,0:0:0:0:
256,192,443928,1,0,0:0:0:0:
256,192,444401,1,0,0:0:0:0:
256,192,444519,1,8,0:0:0:0:
256,192,444873,1,8,0:0:0:0:
256,192,445109,1,0,0:0:0:0:
256,192,445582,1,0,0:0:0:0:
256,192,445700,1,8,0:0:0:0:
256,192,446054,1,8,0:0:0:0:
256,192,446290,1,0,0:0:0:0:
256,192,446763,1,0,0:0:0:0:
256,192,446881,1,8,0:0:0:0:
256,192,447235,1,8,0:0:0:0:
256,192,447471,1,0,0:0:0:0:
256,192,447944,1,0,0:0:0:0:
256,192,448180,1,8,0:0:0:0:
256,192,448338,1,8,0:0:0:0:
256,192,448495,1,0,0:0:0:0:
256,192,448652,1,8,0:0:0:0:
256,192,448771,1,8,0:0:0:0:
256,192,448889,1,0,0:0:0:0:
256,192,449007,1,8,0:0:0:0:
256,192,449282,1,0,0:0:0:0:
256,192,449440,1,8,0:0:0:0:
256,192,449912,1,8,0:0:0:0:
256,192,450070,1,0,0:0:0:0:
256,192,450385,1,8,0:0:0:0:
256,192,450542,1,0,0:0:0:0:
256,192,451015,1,0,0:0:0:0:
256,192,451172,1,8,0:0:0:0:
256,192,451251,1,0,0:0:0:0:
256,192,451330,1,0,0:0:0:0:
256,192,451408,1,8,0:0:0:0:
256,192,451487,1,0,0:0:0:0:
256,192,451645,1,0,0:0:0:0:
256,192,451802,1,8,0:0:0:0:
256,192,451959,1,8,0:0:0:0:
256,192,452027,1,0,0:0:0:0:
256,192,452094,1,0,0:0:0:0:
256,192,452162,1,8,0:0:0:0:
256,192,452274,1,0,0:0:0:0:
256,192,452432,1,0,0:0:0:0:
256,192,452590,1,8,0:0:0:0:
256,192,452747,1,8,0:0:0:0:
256,192,452826,1,0,0:0:0:0:
256,192,452904,1,0,0:0:0:0:
256,192,452983,1,8,0:0:0:0:
256,192,453062,1,0,0:0:0:0:
256,192,453456,1,0,0:0:0:0:
256,192,453849,1,12,0:0:0:0:
256,192,454164,1,8,0:0:0:0:
256,192,454217,1,0,0:0:0:0:
256,192,454322,1,8,0:0:0:0:
256,192,454374,1,0,0:0:0:0:
256,192,454637,1,8,0:0:0:0:
256,192,454952,1,8,0:0:0:0:
256,192,455385,1,8,0:0:0:0:
256,192,455503,1,8,0:0:0:0:
256,192,455857,1,0,0:0:0:0:
256,192,456330,1,8,0:0:0:0:
256,192,456448,1,8,0:0:0:0:
256,192,456566,1,8,0:0:0:0:
256,192,456684,1,0,0:0:0:0:
256,192,456861,1,8,0:0:0:0:
256,192,457038,1,8,0:0:0:0:
256,192,457215,1,0,0:0:0:0:
256,192,457393,1,8,0:0:0:0:
256,192,457570,1,0,0:0:0:0:
256,192,457747,1,0,0:0:0:0:
256,192,458101,1,8,0:0:0:0:
256,192,458456,1,0,0:0:0:0:
256,192,458810,1,8,0:0:0:0:
256,192,459164,1,0,0:0:0:0:
256,192,459519,1,8,0:0:0:0:
256,192,459873,1,0,0:0:0:0:
256,192,460227,1,0,0:0:0:0:
256,192,460582,1,8,0:0:0:0:
256,192,460936,1,0,0:0:0:0:
256,192,461054,1,8,0:0:0:0:
256,192,461172,1,0,0:0:0:0:
256,192,461290,1,8,0:0:0:0:
256,192,461408,1,0,0:0:0:0:
256,192,461999,1,0,0:0:0:0:
256,192,462235,1,8,0:0:0:0:
256,192,462471,1,0,0:0:0:0:
256,192,462590,1,0,0:0:0:0:
256,192,462708,1,8,0:0:0:0:
256,192,462826,1,0,0:0:0:0:
256,192,463180,1,0,0:0:0:0:
256,192,463416,1,8,0:0:0:0:
256,192,463652,1,0,0:0:0:0:
256,192,463771,1,0,0:0:0:0:
256,192,463889,1,8,0:0:0:0:
256,192,464007,1,0,0:0:0:0:
256,192,464361,1,0,0:0:0:0:
256,192,464597,1,8,0:0:0:0:
256,192,464834,1,0,0:0:0:0:
256,192,464952,1,0,0:0:0:0:
256,192,465070,1,8,0:0:0:0:
256,192,465188,1,0,0:0:0:0:
256,192,465897,1,8,0:0:0:0:
256,192,466133,1,0,0:0:0:0:
256,192,466290,1,0,0:0:0:0:
256,192,466448,1,8,0:0:0:0:
256,192,466605,1,8,0:0:0:0:
256,192,466920,1,0,0:0:0:0:
256,192,467078,1,0,0:0:0:0:
256,192,467393,1,8,0:0:0:0:
256,192,467708,1,0,0:0:0:0:
256,192,467865,1,8,0:0:0:0:
256,192,468023,1,0,0:0:0:0:
256,192,468180,1,8,0:0:0:0:
256,192,468495,1,0,0:0:0:0:
256,192,468613,1,0,0:0:0:0:
256,192,468731,1,8,0:0:0:0:
256,192,468849,1,0,0:0:0:0:
256,192,468967,1,8,0:0:0:0:
256,192,469204,1,0,0:0:0:0:
256,192,469322,1,0,0:0:0:0:
256,192,469440,1,8,0:0:0:0:
256,192,469558,1,0,0:0:0:0:
256,192,469676,1,0,0:0:0:0:
256,192,469794,1,8,0:0:0:0:
256,192,470857,1,0,0:0:0:0:
256,192,471330,1,8,0:0:0:0:
256,192,471802,1,8,0:0:0:0:
256,192,472747,1,0,0:0:0:0:
256,192,473219,1,8,0:0:0:0:
256,192,473692,1,0,0:0:0:0:
256,192,474164,1,0,0:0:0:0:
256,192,474637,1,8,0:0:0:0:
256,192,475109,1,8,0:0:0:0:
256,192,476054,1,8,0:0:0:0:
256,192,476527,1,4,0:0:0:0:
256,192,476763,1,8,0:0:0:0:
256,192,476999,1,0,0:0:0:0:
256,192,477117,1,8,0:0:0:0:
256,192,477235,1,8,0:0:0:0:
256,192,477353,1,0,0:0:0:0:
256,192,477471,1,8,0:0:0:0:
256,192,477629,1,0,0:0:0:0:
256,192,477786,1,8,0:0:0:0:
256,192,477944,1,8,0:0:0:0:
256,192,478062,1,0,0:0:0:0:
256,192,478180,1,0,0:0:0:0:
256,192,478298,1,8,0:0:0:0:
256,192,478416,1,8,0:0:0:0:
256,192,478652,1,8,0:0:0:0:
256,192,478889,1,0,0:0:0:0:
256,192,479125,1,8,0:0:0:0:
256,192,479243,1,8,0:0:0:0:
256,192,479361,1,0,0:0:0:0:
256,192,479715,1,8,0:0:0:0:
256,192,479834,1,0,0:0:0:0:
256,192,479952,1,0,0:0:0:0:
256,192,480070,1,8,0:0:0:0:
256,192,480306,1,0,0:0:0:0:
256,192,480424,1,8,0:0:0:0:
256,192,480542,1,0,0:0:0:0:
256,192,480660,1,8,0:0:0:0:
256,192,480778,1,8,0:0:0:0:
256,192,480936,1,0,0:0:0:0:
256,192,481093,1,8,0:0:0:0:
256,192,481251,1,0,0:0:0:0:
256,192,481487,1,8,0:0:0:0:
256,192,481723,1,0,0:0:0:0:
256,192,481881,1,8,0:0:0:0:
256,192,482038,1,8,0:0:0:0:
256,192,482196,1,0,0:0:0:0:
256,192,482353,1,0,0:0:0:0:
256,192,482511,1,8,0:0:0:0:
256,192,482668,1,8,0:0:0:0:
256,192,482826,1,8,0:0:0:0:
256,192,482983,1,0,0:0:0:0:
256,192,483141,1,0,0:0:0:0:
256,192,483259,1,0,0:0:0:0:
256,192,483377,1,8,0:0:0:0:
256,192,483495,1,8,0:0:0:0:
256,192,483613,1,0,0:0:0:0:
256,192,483731,1,8,0:0:0:0:
256,192,483849,1,0,0:0:0:0:
256,192,483967,1,0,0:0:0:0:
256,192,484086,1,8,0:0:0:0:
256,192,484322,1,0,0:0:0:0:
256,192,484558,1,8,0:0:0:0:
256,192,484715,1,8,0:0:0:0:
256,192,484873,1,8,0:0:0:0:
256,192,485030,1,0,0:0:0:0:
256,192,485149,1,8,0:0:0:0:
256,192,485267,1,8,0:0:0:0:
256,192,485385,1,0,0:0:0:0:
256,192,485503,1,8,0:0:0:0:
256,192,485660,1,0,0:0:0:0:
256,192,485818,1,8,0:0:0:0:
256,192,485975,1,8,0:0:0:0:
256,192,486212,1,0,0:0:0:0:
256,192,486330,1,8,0:0:0:0:
256,192,486448,1,0,0:0:0:0:
256,192,486684,1,0,0:0:0:0:
256,192,486802,1,8,0:0:0:0:
256,192,487393,1,0,0:0:0:0:
256,192,487550,1,8,0:0:0:0:
256,192,487708,1,0,0:0:0:0:
256,192,487865,1,12,0:0:0:0:
256,192,489755,1,0,0:0:0:0:
256,192,490700,1,0,0:0:0:0:
256,192,491408,1,8,0:0:0:0:
256,192,491881,1,0,0:0:0:0:
256,192,492275,1,8,0:0:0:0:
256,192,492432,1,8,0:0:0:0:
256,192,492590,1,0,0:0:0:0:
256,192,492708,1,0,0:0:0:0:
256,192,492944,1,0,0:0:0:0:
256,192,493180,1,8,0:0:0:0:
256,192,493534,1,0,0:0:0:0:
256,192,493692,1,0,0:0:0:0:
256,192,493849,1,8,0:0:0:0:
256,192,494164,1,0,0:0:0:0:
256,192,494479,1,8,0:0:0:0:
256,192,494597,1,8,0:0:0:0:
256,192,494952,1,0,0:0:0:0:
256,192,495306,1,0,0:0:0:0:
256,192,495424,1,0,0:0:0:0:
256,192,495542,1,8,0:0:0:0:
256,192,495897,1,0,0:0:0:0:
256,192,496015,1,0,0:0:0:0:
256,192,496133,1,8,0:0:0:0:
256,192,496251,1,0,0:0:0:0:
256,192,496369,1,8,0:0:0:0:
256,192,496605,1,8,0:0:0:0:
256,192,496841,1,0,0:0:0:0:
256,192,496960,1,0,0:0:0:0:
256,192,497196,1,0,0:0:0:0:
256,192,497432,1,8,0:0:0:0:
256,192,497668,1,0,0:0:0:0:
256,192,497786,1,0,0:0:0:0:
256,192,497904,1,8,0:0:0:0:
256,192,498023,1,0,0:0:0:0:
256,192,498141,1,8,0:0:0:0:
256,192,498259,1,8,0:0:0:0:
256,192,498574,1,0,0:0:0:0:
256,192,498731,1,0,0:0:0:0:
256,192,499046,1,0,0:0:0:0:
256,192,499204,1,12,0:0:0:0:
256,192,499676,1,0,0:0:0:0:
256,192,499834,1,0,0:0:0:0:
256,192,499991,1,8,0:0:0:0:
256,192,500149,1,0,0:0:0:0:
256,192,500464,1,8,0:0:0:0:
256,192,500778,1,8,0:0:0:0:
256,192,501093,1,0,0:0:0:0:
256,192,501408,1,0,0:0:0:0:
256,192,501723,1,0,0:0:0:0:
256,192,502038,1,8,0:0:0:0:
256,192,502511,1,0,0:0:0:0:
256,192,502668,1,0,0:0:0:0:
256,192,502826,1,8,0:0:0:0:
256,192,502983,1,0,0:0:0:0:
256,192,503141,1,8,0:0:0:0:
256,192,503298,1,8,0:0:0:0:
256,192,503456,1,0,0:0:0:0:
256,192,503613,1,0,0:0:0:0:
256,192,503771,1,0,0:0:0:0:
256,192,503928,1,8,0:0:0:0:
256,192,504164,1,0,0:0:0:0:
256,192,504401,1,0,0:0:0:0:
256,192,504637,1,8,0:0:0:0:
256,192,504873,1,0,0:0:0:0:
256,192,504991,1,8,0:0:0:0:
256,192,505109,1,8,0:0:0:0:
256,192,505464,1,0,0:0:0:0:
256,192,505818,1,0,0:0:0:0:
256,192,506172,1,0,0:0:0:0:
256,192,506527,1,8,0:0:0:0:
256,192,506881,1,0,0:0:0:0:
256,192,506999,1,0,0:0:0:0:
256,192,507117,1,8,0:0:0:0:
256,192,507235,1,0,0:0:0:0:
256,192,507353,1,8,0:0:0:0:
256,192,507471,1,8,0:0:0:0:
256,192,507590,1,0,0:0:0:0:
256,192,507708,1,0,0:0:0:0:
256,192,507826,1,0,0:0:0:0:
256,192,507944,1,8,0:0:0:0:
256,192,508180,1,0,0:0:0:0:
256,192,508298,1,0,0:0:0:0:
256,192,508416,1,8,0:0:0:0:
256,192,508534,1,0,0:0:0:0:
256,192,508652,1,8,0:0:0:0:
256,192,508771,1,8,0:0:0:0:
256,192,508889,1,0,0:0:0:0:
256,192,509007,1,0,0:0:0:0:
256,192,509125,1,0,0:0:0:0:
256,192,509243,1,8,0:0:0:0:
256,192,509597,1,0,0:0:0:0:
256,192,509692,1,0,0:0:0:0:
256,192,509786,1,8,0:0:0:0:
256,192,509881,1,0,0:0:0:0:
256,192,509975,1,8,0:0:0:0:
256,192,510070,1,8,0:0:0:0:
256,192,510188,1,0,0:0:0:0:
256,192,510306,1,0,0:0:0:0:
256,192,510424,1,0,0:0:0:0:
256,192,510542,1,8,0:0:0:0:
256,192,511015,1,0,0:0:0:0:
256,192,511172,1,0,0:0:0:0:
256,192,511330,1,8,0:0:0:0:
256,192,511487,1,0,0:0:0:0:
256,192,511566,1,8,0:0:0:0:
256,192,511645,1,8,0:0:0:0:
256,192,511802,1,0,0:0:0:0:
256,192,511960,1,0,0:0:0:0:
256,192,512117,1,0,0:0:0:0:
256,192,512275,1,8,0:0:0:0:
256,192,512432,1,0,0:0:0:0:
256,192,512511,1,0,0:0:0:0:
256,192,512590,1,8,0:0:0:0:
256,192,512668,1,0,0:0:0:0:
256,192,512826,1,8,0:0:0:0:
256,192,512904,1,8,0:0:0:0:
256,192,512983,1,0,0:0:0:0:
256,192,513062,1,0,0:0:0:0:
256,192,513219,1,0,0:0:0:0:
256,192,513377,1,8,0:0:0:0:
256,192,513692,1,0,0:0:0:0:
256,192,513849,1,0,0:0:0:0:
256,192,513928,1,8,0:0:0:0:
256,192,514007,1,0,0:0:0:0:
256,192,514086,1,8,0:0:0:0:
256,192,514164,1,8,0:0:0:0:
256,192,514243,1,0,0:0:0:0:
256,192,514322,1,0,0:0:0:0:
256,192,514401,1,0,0:0:0:0:
256,192,514479,1,8,0:0:0:0:
256,192,514558,1,0,0:0:0:0:
256,192,514637,1,0,0:0:0:0:
256,192,514715,1,8,0:0:0:0:
256,192,514794,1,0,0:0:0:0:
256,192,514873,1,8,0:0:0:0:
256,192,514952,1,8,0:0:0:0:
256,192,515030,1,0,0:0:0:0:
256,192,515109,1,0,0:0:0:0:
256,192,515188,1,0,0:0:0:0:
256,192,515267,1,8,0:0:0:0:
256,192,515345,1,0,0:0:0:0:
256,192,515424,1,0,0:0:0:0:
256,192,515503,1,8,0:0:0:0:
256,192,515582,1,0,0:0:0:0:
256,192,515660,1,8,0:0:0:0:
256,192,515739,1,8,0:0:0:0:
256,192,516212,1,0,0:0:0:0:
256,192,516527,1,0,0:0:0:0:
256,192,516841,1,0,0:0:0:0:
256,192,517156,1,8,0:0:0:0:
256,192,517629,1,0,0:0:0:0:
256,192,517747,1,0,0:0:0:0:
256,192,517865,1,8,0:0:0:0:
256,192,517983,1,0,0:0:0:0:
256,192,518101,1,8,0:0:0:0:
256,192,518219,1,8,0:0:0:0:
256,192,518338,1,0,0:0:0:0:
256,192,518397,1,0,0:0:0:0:
256,192,518456,1,0,0:0:0:0:
256,192,518515,1,8,0:0:0:0:
256,192,518574,1,0,0:0:0:0:
256,192,518692,1,0,0:0:0:0:
256,192,518751,1,8,0:0:0:0:
256,192,518810,1,0,0:0:0:0:
256,192,518869,1,8,0:0:0:0:
256,192,518928,1,8,0:0:0:0:
256,192,519046,1,0,0:0:0:0:
256,192,519164,1,0,0:0:0:0:
256,192,519282,1,0,0:0:0:0:
256,192,519401,1,8,0:0:0:0:
256,192,519519,1,0,0:0:0:0:
256,192,519578,1,0,0:0:0:0:
256,192,519637,1,8,0:0:0:0:
256,192,519696,1,0,0:0:0:0:
256,192,519755,1,8,0:0:0:0:
256,192,519873,1,8,0:0:0:0:
256,192,519932,1,0,0:0:0:0:
256,192,519991,1,0,0:0:0:0:
256,192,520050,1,0,0:0:0:0:
256,192,520109,1,8,0:0:0:0:
256,192,520227,1,0,0:0:0:0:
256,192,520345,1,0,0:0:0:0:
256,192,520464,1,8,0:0:0:0:
256,192,520582,1,0,0:0:0:0:
256,192,520700,1,8,0:0:0:0:
256,192,520818,1,8,0:0:0:0:
256,192,520936,1,0,0:0:0:0:
256,192,520995,1,0,0:0:0:0:
256,192,521054,1,0,0:0:0:0:
256,192,521113,1,8,0:0:0:0:
256,192,521172,1,0,0:0:0:0:
256,192,521231,1,0,0:0:0:0:
256,192,521290,1,8,0:0:0:0:
256,192,521349,1,0,0:0:0:0:
256,192,521408,1,8,0:0:0:0:
256,192,521467,1,8,0:0:0:0:
256,192,521527,1,0,0:0:0:0:
256,192,521645,1,0,0:0:0:0:
256,192,521763,1,0,0:0:0:0:
256,192,521881,1,12,0:0:0:0:
256,192,522826,1,0,0:0:0:0:
256,192,523015,1,0,0:0:0:0:
256,192,523652,1,8,0:0:0:0:
256,192,524125,1,0,0:0:0:0:
256,192,524479,1,8,0:0:0:0:
256,192,525188,1,8,0:0:0:0:
256,192,525778,1,0,0:0:0:0:
256,192,526133,1,0,0:0:0:0:
256,192,526310,1,0,0:0:0:0:
256,192,526605,1,8,0:0:0:0:
256,192,527845,1,0,0:0:0:0:
256,192,528141,1,0,0:0:0:0:
256,192,528495,1,8,0:0:0:0:
256,192,529676,1,0,0:0:0:0:
256,192,530503,1,8,0:0:0:0:
256,192,530621,1,8,0:0:0:0:
256,192,531566,1,0,0:0:0:0:
256,192,531802,1,0,0:0:0:0:
256,192,532511,1,0,0:0:0:0:
256,192,533219,1,8,0:0:0:0:
