osu file format v14

[General]
AudioFilename: Hana.ogg
AudioLeadIn: 0
PreviewTime: 281317
Countdown: 1
SampleSet: Normal
StackLeniency: 0.7
Mode: 3
LetterboxInBreaks: 0
SpecialStyle: 0
WidescreenStoryboard: 0

[Editor]
DistanceSpacing: 0.8
BeatDivisor: 1
GridSize: 4
TimelineZoom: 2

[Metadata]
Title:Hana
TitleUnicode:花
Artist:ASA-CHANG & Junray
ArtistUnicode:ASA-CHANG & 巡礼
Creator:Xay
Version:Unblooming Flower
Source:Aku no Hana
Tags:xayy lmao mixtape feat chill pill xlm stepmania xayphon aku no hana u-zhaan sade pearls sample a last flower
BeatmapID:1625874
BeatmapSetID:773457

[Difficulty]
HPDrainRate:8
CircleSize:4
OverallDifficulty:8
ApproachRate:5
SliderMultiplier:1.4
SliderTickRate:1

[Events]
//Background and Video events
0,0,"hana.jpg",0,0
//Break Periods
//Storyboard Layer 0 (Background)
//Storyboard Layer 1 (Fail)
//Storyboard Layer 2 (Pass)
//Storyboard Layer 3 (Foreground)
//Storyboard Sound Samples

[TimingPoints]
398,430.188,4,1,0,15,1,0
398,-100.340938440634,4,1,0,15,0,0
828,430.209,4,1,0,15,1,0
828,-100.336040449873,4,1,0,15,0,0
1258,430.188,4,1,0,15,1,0
1258,-100.340938440634,4,1,0,15,0,0
1688,430.209,4,1,0,15,1,0
1688,-100.336040449873,4,1,0,15,0,0
2549,430.188,4,1,0,15,1,0
2549,-100.340938440634,4,1,0,15,0,0
2979,430.209,4,1,0,15,1,0
2979,-100.336040449873,4,1,0,15,0,0
3409,430.188,4,1,0,15,1,0
3409,-100.340938440634,4,1,0,15,0,0
3839,430.209,4,1,0,15,1,0
3839,-100.336040449873,4,1,0,15,0,0
4700,430.188,4,1,0,15,1,0
4700,-100.340938440634,4,1,0,15,0,0
5130,430.209,4,1,0,15,1,0
5130,-100.336040449873,4,1,0,15,0,0
5560,430.188,4,1,0,15,1,0
5560,-100.340938440634,4,1,0,15,0,0
5990,430.209,4,1,0,15,1,0
5990,-100.336040449873,4,1,0,15,0,0
6420,430.188,4,1,0,15,1,0
6420,-100.340938440634,4,1,0,15,0,0
6850,430.209,4,1,0,15,1,0
6850,-100.336040449873,4,1,0,15,0,0
7711,430.188,4,1,0,15,1,0
7711,-100.340938440634,4,1,0,15,0,0
8141,430.209,4,1,0,15,1,0
8141,-100.336040449873,4,1,0,15,0,0
8571,430.188,4,1,0,15,1,0
8571,-100.340938440634,4,1,0,15,0,0
9001,430.209,4,1,0,15,1,0
9001,-100.336040449873,4,1,0,15,0,0
9862,430.188,4,1,0,15,1,0
9862,-100.340938440634,4,1,0,15,0,0
10292,430.209,4,1,0,15,1,0
10292,-100.336040449873,4,1,0,15,0,0
10722,430.188,4,1,0,15,1,0
10722,-100.340938440634,4,1,0,15,0,0
11152,430.209,4,1,0,15,1,0
11152,-100.336040449873,4,1,0,15,0,0
12013,430.188,4,1,0,15,1,0
12013,-100.340938440634,4,1,0,15,0,0
12443,430.209,4,1,0,15,1,0
12443,-100.336040449873,4,1,0,15,0,0
13304,430.188,4,1,0,15,1,0
13304,-100.340938440634,4,1,0,15,0,0
13734,430.209,4,1,0,15,1,0
13734,-100.336040449873,4,1,0,15,0,0
14164,430.188,4,1,0,15,1,0
14164,-100.340938440634,4,1,0,15,0,0
14594,430.209,4,1,0,15,1,0
14594,-100.336040449873,4,1,0,15,0,0
15455,430.188,4,1,0,15,1,0
15455,-100.340938440634,4,1,0,15,0,0
15885,430.209,4,1,0,15,1,0
15885,-100.336040449873,4,1,0,15,0,0
16745,430.188,4,1,0,15,1,0
16745,-100.340938440634,4,1,0,15,0,0
17175,430.209,4,1,0,15,1,0
17175,-100.336040449873,4,1,0,15,0,0
17606,430.188,4,1,0,15,1,0
17606,-100.340938440634,4,1,0,15,0,0
18036,430.209,4,1,0,15,1,0
18036,-100.336040449873,4,1,0,15,0,0
18896,430.188,4,1,0,15,1,0
18896,-100.340938440634,4,1,0,15,0,0
19326,430.209,4,1,0,15,1,0
19326,-100.336040449873,4,1,0,15,0,0
20187,430.188,4,1,0,15,1,0
20187,-100.340938440634,4,1,0,15,0,0
20617,430.209,4,1,0,15,1,0
20617,-100.336040449873,4,1,0,15,0,0
21047,430.188,4,1,0,15,1,0
21047,-100.340938440634,4,1,0,15,0,0
21477,430.209,4,1,0,15,1,0
21477,-100.336040449873,4,1,0,15,0,0
22338,430.188,4,1,0,15,1,0
22338,-100.340938440634,4,1,0,15,0,0
22768,430.209,4,1,0,15,1,0
22768,-100.336040449873,4,1,0,15,0,0
23628,430.188,4,1,0,15,1,0
23628,-100.340938440634,4,1,0,15,0,0
24059,430.209,4,1,0,15,1,0
24059,-100.336040449873,4,1,0,15,0,0
24489,430.188,4,1,0,15,1,0
24489,-100.340938440634,4,1,0,15,0,0
24919,430.209,4,1,0,15,1,0
24919,-100.336040449873,4,1,0,15,0,0
25779,430.188,4,1,0,15,1,0
25779,-100.340938440634,4,1,0,15,0,0
26210,430.209,4,1,0,15,1,0
26210,-100.336040449873,4,1,0,15,0,0
27070,430.188,4,1,0,15,1,0
27070,-100.340938440634,4,1,0,15,0,0
27500,430.209,4,1,0,15,1,0
27500,-100.336040449873,4,1,0,15,0,0
27930,430.188,4,1,0,15,1,0
27930,-100.340938440634,4,1,0,15,0,0
28361,430.209,4,1,0,15,1,0
28361,-100.336040449873,4,1,0,15,0,0
29221,430.188,4,1,0,15,1,0
29221,-100.340938440634,4,1,0,15,0,0
29651,430.209,4,1,0,15,1,0
29651,-100.336040449873,4,1,0,15,0,0
30512,430.188,4,1,0,15,1,0
30512,-100.340938440634,4,1,0,15,0,0
30942,430.209,4,1,0,15,1,0
30942,-100.336040449873,4,1,0,15,0,0
31372,430.188,4,1,0,15,1,0
31372,-100.340938440634,4,1,0,15,0,0
31802,430.209,4,1,0,15,1,0
31802,-100.336040449873,4,1,0,15,0,0
32663,430.188,4,1,0,15,1,0
32663,-100.340938440634,4,1,0,15,0,0
33093,430.209,4,1,0,15,1,0
33093,-100.336040449873,4,1,0,15,0,0
33953,430.188,4,1,0,15,1,0
33953,-100.340938440634,4,1,0,15,0,0
34383,430.209,4,1,0,15,1,0
34383,-100.336040449873,4,1,0,15,0,0
34814,430.188,4,1,0,15,1,0
34814,-100.340938440634,4,1,0,15,0,0
35244,430.209,4,1,0,15,1,0
35244,-100.336040449873,4,1,0,15,0,0
36104,430.188,4,1,0,15,1,0
36104,-100.340938440634,4,1,0,15,0,0
36534,430.209,4,1,0,15,1,0
36534,-100.336040449873,4,1,0,15,0,0
37395,430.188,4,1,0,15,1,0
37395,-100.340938440634,4,1,0,15,0,0
37825,430.209,4,1,0,15,1,0
37825,-100.336040449873,4,1,0,15,0,0
38255,430.188,4,1,0,15,1,0
38255,-100.340938440634,4,1,0,15,0,0
38685,430.209,4,1,0,15,1,0
38685,-100.336040449873,4,1,0,15,0,0
39546,430.188,4,1,0,15,1,0
39546,-100.340938440634,4,1,0,15,0,0
39976,430.209,4,1,0,15,1,0
39976,-100.336040449873,4,1,0,15,0,0
40836,430.188,4,1,0,15,1,0
40836,-100.340938440634,4,1,0,15,0,0
41267,430.209,4,1,0,15,1,0
41267,-100.336040449873,4,1,0,15,0,0
41697,430.188,4,1,0,15,1,0
41697,-100.340938440634,4,1,0,15,0,0
42127,430.209,4,1,0,15,1,0
42127,-100.336040449873,4,1,0,15,0,0
42987,430.188,4,1,0,15,1,0
42987,-100.340938440634,4,1,0,15,0,0
43418,430.209,4,1,0,15,1,0
43418,-100.336040449873,4,1,0,15,0,0
43848,430.188,4,1,0,15,1,0
43848,-100.340938440634,4,1,0,15,0,0
44278,430.209,4,1,0,15,1,0
44278,-100.336040449873,4,1,0,15,0,0
44708,430.188,4,1,0,15,1,0
44708,-100.340938440634,4,1,0,15,0,0
45138,430.209,4,1,0,15,1,0
45138,-100.336040449873,4,1,0,15,0,0
45569,430.188,4,1,0,15,1,0
45569,-100.340938440634,4,1,0,15,0,0
45999,430.209,4,1,0,15,1,0
45999,-100.336040449873,4,1,0,15,0,0
46429,430.188,4,1,0,15,1,0
46429,-100.340938440634,4,1,0,15,0,0
46859,430.209,4,1,0,15,1,0
46859,-100.336040449873,4,1,0,15,0,0
47289,430.188,4,1,0,15,1,0
47289,-100.340938440634,4,1,0,15,0,0
47720,430.209,4,1,0,15,1,0
47720,-100.336040449873,4,1,0,15,0,0
48150,430.188,4,1,0,15,1,0
48150,-100.340938440634,4,1,0,15,0,0
48580,430.209,4,1,0,15,1,0
48580,-100.336040449873,4,1,0,15,0,0
49010,430.188,4,1,0,15,1,0
49010,-100.340938440634,4,1,0,15,0,0
49440,430.209,4,1,0,15,1,0
49440,-100.336040449873,4,1,0,15,0,0
49871,430.188,4,1,0,15,1,0
49871,-100.340938440634,4,1,0,15,0,0
50301,430.209,4,1,0,15,1,0
50301,-100.336040449873,4,1,0,15,0,0
50731,430.188,4,1,0,15,1,0
50731,-100.340938440634,4,1,0,15,0,0
51161,430.209,4,1,0,15,1,0
51161,-100.336040449873,4,1,0,15,0,0
51591,430.188,4,1,0,15,1,0
51591,-100.340938440634,4,1,0,15,0,0
52022,430.209,4,1,0,15,1,0
52022,-100.336040449873,4,1,0,15,0,0
52452,430.188,4,1,0,15,1,0
52452,-100.340938440634,4,1,0,15,0,0
52882,430.209,4,1,0,15,1,0
52882,-100.336040449873,4,1,0,15,0,0
53312,430.188,4,1,0,15,1,0
53312,-100.340938440634,4,1,0,15,0,0
53742,430.209,4,1,0,15,1,0
53742,-100.336040449873,4,1,0,15,0,0
54173,430.188,4,1,0,15,1,0
54173,-100.340938440634,4,1,0,15,0,0
54603,430.209,4,1,0,15,1,0
54603,-100.336040449873,4,1,0,15,0,0
55033,430.188,4,1,0,15,1,0
55033,-100.340938440634,4,1,0,15,0,0
55463,430.209,4,1,0,15,1,0
55463,-100.336040449873,4,1,0,15,0,0
55893,430.188,4,1,0,15,1,0
55893,-100.340938440634,4,1,0,15,0,0
56324,430.209,4,1,0,15,1,0
56324,-100.336040449873,4,1,0,15,0,0
56754,430.188,4,1,0,15,1,0
56754,-100.340938440634,4,1,0,15,0,0
57184,430.209,4,1,0,15,1,0
57184,-100.336040449873,4,1,0,15,0,0
57614,430.188,4,1,0,15,1,0
57614,-100.340938440634,4,1,0,15,0,0
58044,430.209,4,1,0,15,1,0
58044,-100.336040449873,4,1,0,15,0,0
58475,430.188,4,1,0,15,1,0
58475,-100.340938440634,4,1,0,15,0,0
58905,430.209,4,1,0,15,1,0
58905,-100.336040449873,4,1,0,15,0,0
59335,430.188,4,1,0,15,1,0
59335,-100.340938440634,4,1,0,15,0,0
59765,430.209,4,1,0,15,1,0
59765,-100.336040449873,4,1,0,15,0,0
60195,430.188,4,1,0,15,1,0
60195,-100.340938440634,4,1,0,15,0,0
60626,430.209,4,1,0,15,1,0
60626,-100.336040449873,4,1,0,15,0,0
61056,430.188,4,1,0,15,1,0
61056,-100.340938440634,4,1,0,15,0,0
61486,430.209,4,1,0,15,1,0
61486,-100.336040449873,4,1,0,15,0,0
61916,430.188,4,1,0,15,1,0
61916,-100.340938440634,4,1,0,15,0,0
62346,430.209,4,1,0,15,1,0
62346,-100.336040449873,4,1,0,15,0,0
62777,430.188,4,1,0,15,1,0
62777,-100.340938440634,4,1,0,15,0,0
63207,430.209,4,1,0,15,1,0
63207,-100.336040449873,4,1,0,15,0,0
63637,430.188,4,1,0,15,1,0
63637,-100.340938440634,4,1,0,15,0,0
64067,430.209,4,1,0,15,1,0
64067,-100.336040449873,4,1,0,15,0,0
64497,430.188,4,1,0,15,1,0
64497,-100.340938440634,4,1,0,15,0,0
64928,430.209,4,1,0,15,1,0
64928,-100.336040449873,4,1,0,15,0,0
65358,430.188,4,1,0,15,1,0
65358,-100.340938440634,4,1,0,15,0,0
65788,430.209,4,1,0,15,1,0
65788,-100.336040449873,4,1,0,15,0,0
66218,430.188,4,1,0,15,1,0
66218,-100.340938440634,4,1,0,15,0,0
66648,430.209,4,1,0,15,1,0
66648,-100.336040449873,4,1,0,15,0,0
67079,430.188,4,1,0,15,1,0
67079,-100.340938440634,4,1,0,15,0,0
67509,430.209,4,1,0,15,1,0
67509,-100.336040449873,4,1,0,15,0,0
67939,430.188,4,1,0,15,1,0
67939,-100.340938440634,4,1,0,15,0,0
68369,430.209,4,1,0,15,1,0
68369,-100.336040449873,4,1,0,15,0,0
68799,430.188,4,1,0,15,1,0
68799,-100.340938440634,4,1,0,15,0,0
69229,430.209,4,1,0,15,1,0
69229,-100.336040449873,4,1,0,15,0,0
69660,430.188,4,1,0,15,1,0
69660,-100.340938440634,4,1,0,15,0,0
70090,430.209,4,1,0,15,1,0
70090,-100.336040449873,4,1,0,15,0,0
70520,430.188,4,1,0,15,1,0
70520,-100.340938440634,4,1,0,15,0,0
70950,430.209,4,1,0,15,1,0
70950,-100.336040449873,4,1,0,15,0,0
71380,430.188,4,1,0,15,1,0
71380,-100.340938440634,4,1,0,15,0,0
71811,430.209,4,1,0,15,1,0
71811,-100.336040449873,4,1,0,15,0,0
72241,430.188,4,1,0,15,1,0
72241,-100.340938440634,4,1,0,15,0,0
72671,430.209,4,1,0,15,1,0
72671,-100.336040449873,4,1,0,15,0,0
73101,430.188,4,1,0,15,1,0
73101,-100.340938440634,4,1,0,15,0,0
73531,430.209,4,1,0,15,1,0
73531,-100.336040449873,4,1,0,15,0,0
73962,430.188,4,1,0,15,1,0
73962,-100.340938440634,4,1,0,15,0,0
74392,430.209,4,1,0,15,1,0
74392,-100.336040449873,4,1,0,15,0,0
74822,430.188,4,1,0,15,1,0
74822,-100.340938440634,4,1,0,15,0,0
75252,430.209,4,1,0,15,1,0
75252,-100.336040449873,4,1,0,15,0,0
75682,430.188,4,1,0,15,1,0
75682,-100.340938440634,4,1,0,15,0,0
76113,430.209,4,1,0,15,1,0
76113,-100.336040449873,4,1,0,15,0,0
76543,430.188,4,1,0,15,1,0
76543,-100.340938440634,4,1,0,15,0,0
76973,430.209,4,1,0,15,1,0
76973,-100.336040449873,4,1,0,15,0,0
77403,430.188,4,1,0,15,1,0
77403,-100.340938440634,4,1,0,15,0,0
77833,430.209,4,1,0,15,1,0
77833,-100.336040449873,4,1,0,15,0,0
78264,430.188,4,1,0,15,1,0
78264,-100.340938440634,4,1,0,15,0,0
78694,430.209,4,1,0,15,1,0
78694,-100.336040449873,4,1,0,15,0,0
79124,430.188,4,1,0,15,1,0
79124,-100.340938440634,4,1,0,15,0,0
79554,430.209,4,1,0,15,1,0
79554,-100.336040449873,4,1,0,15,0,0
79984,430.188,4,1,0,15,1,0
79984,-100.340938440634,4,1,0,15,0,0
80415,430.209,4,1,0,15,1,0
80415,-100.336040449873,4,1,0,15,0,0
80845,430.188,4,1,0,15,1,0
80845,-100.340938440634,4,1,0,15,0,0
81275,430.209,4,1,0,15,1,0
81275,-100.336040449873,4,1,0,15,0,0
81705,430.188,4,1,0,15,1,0
81705,-100.340938440634,4,1,0,15,0,0
82135,430.209,4,1,0,15,1,0
82135,-100.336040449873,4,1,0,15,0,0
82566,430.188,4,1,0,15,1,0
82566,-100.340938440634,4,1,0,15,0,0
82996,430.209,4,1,0,15,1,0
82996,-100.336040449873,4,1,0,15,0,0
83426,430.188,4,1,0,15,1,0
83426,-100.340938440634,4,1,0,15,0,0
83856,430.209,4,1,0,15,1,0
83856,-100.336040449873,4,1,0,15,0,0
84286,430.188,4,1,0,15,1,0
84286,-100.340938440634,4,1,0,15,0,0
84717,430.209,4,1,0,15,1,0
84717,-100.336040449873,4,1,0,15,0,0
85147,430.188,4,1,0,15,1,0
85147,-100.340938440634,4,1,0,15,0,0
85577,430.209,4,1,0,15,1,0
85577,-100.336040449873,4,1,0,15,0,0
86007,430.188,4,1,0,15,1,0
86007,-100.340938440634,4,1,0,15,0,0
86437,430.209,4,1,0,15,1,0
86437,-100.336040449873,4,1,0,15,0,0
86868,430.188,4,1,0,15,1,0
86868,-100.340938440634,4,1,0,15,0,0
87298,430.209,4,1,0,15,1,0
87298,-100.336040449873,4,1,0,15,0,0
88158,430.188,4,1,0,15,1,0
88158,-100.340938440634,4,1,0,15,0,0
88588,430.209,4,1,0,15,1,0
88588,-100.336040449873,4,1,0,15,0,0
89019,430.188,4,1,0,15,1,0
89019,-100.340938440634,4,1,0,15,0,0
89449,430.209,4,1,0,15,1,0
89449,-100.336040449873,4,1,0,15,0,0
89879,430.188,4,1,0,15,1,0
89879,-100.340938440634,4,1,0,15,0,0
90309,430.209,4,1,0,15,1,0
90309,-100.336040449873,4,1,0,15,0,0
90739,430.188,4,1,0,15,1,0
90739,-100.340938440634,4,1,0,15,0,0
91170,430.209,4,1,0,15,1,0
91170,-100.336040449873,4,1,0,15,0,0
91600,430.188,4,1,0,15,1,0
91600,-100.340938440634,4,1,0,15,0,0
92030,430.209,4,1,0,15,1,0
92030,-100.336040449873,4,1,0,15,0,0
92460,430.188,4,1,0,15,1,0
92460,-100.340938440634,4,1,0,15,0,0
92890,430.209,4,1,0,15,1,0
92890,-100.336040449873,4,1,0,15,0,0
93321,430.188,4,1,0,15,1,0
93321,-100.340938440634,4,1,0,15,0,0
93751,430.209,4,1,0,15,1,0
93751,-100.336040449873,4,1,0,15,0,0
94181,430.188,4,1,0,15,1,0
94181,-100.340938440634,4,1,0,15,0,0
94611,430.209,4,1,0,15,1,0
94611,-100.336040449873,4,1,0,15,0,0
95041,430.188,4,1,0,15,1,0
95041,-100.340938440634,4,1,0,15,0,0
95472,430.209,4,1,0,15,1,0
95472,-100.336040449873,4,1,0,15,0,0
95902,430.188,4,1,0,15,1,0
95902,-100.340938440634,4,1,0,15,0,0
96332,430.209,4,1,0,15,1,0
96332,-100.336040449873,4,1,0,15,0,0
96762,430.188,4,1,0,15,1,0
96762,-100.340938440634,4,1,0,15,0,0
97192,430.209,4,1,0,15,1,0
97192,-100.336040449873,4,1,0,15,0,0
97623,430.188,4,1,0,15,1,0
97623,-100.340938440634,4,1,0,15,0,0
98053,430.209,4,1,0,15,1,0
98053,-100.336040449873,4,1,0,15,0,0
98483,430.188,4,1,0,15,1,0
98483,-100.340938440634,4,1,0,15,0,0
98913,430.209,4,1,0,15,1,0
98913,-100.336040449873,4,1,0,15,0,0
99343,430.188,4,1,0,15,1,0
99343,-100.340938440634,4,1,0,15,0,0
99774,430.209,4,1,0,15,1,0
99774,-100.336040449873,4,1,0,15,0,0
100204,430.188,4,1,0,15,1,0
100204,-100.340938440634,4,1,0,15,0,0
100634,430.209,4,1,0,15,1,0
100634,-100.336040449873,4,1,0,15,0,0
101064,430.188,4,1,0,15,1,0
101064,-100.340938440634,4,1,0,15,0,0
101494,430.209,4,1,0,15,1,0
101494,-100.336040449873,4,1,0,15,0,0
101925,430.188,4,1,0,15,1,0
101925,-100.340938440634,4,1,0,15,0,0
102355,430.209,4,1,0,15,1,0
102355,-100.336040449873,4,1,0,15,0,0
102785,430.188,4,1,0,15,1,0
102785,-100.340938440634,4,1,0,15,0,0
103215,430.209,4,1,0,15,1,0
103215,-100.336040449873,4,1,0,15,0,0
103645,430.188,4,1,0,15,1,0
103645,-100.340938440634,4,1,0,15,0,0
104076,430.209,4,1,0,15,1,0
104076,-100.336040449873,4,1,0,15,0,0
104506,430.188,4,1,0,15,1,0
104506,-100.340938440634,4,1,0,15,0,0
104936,430.209,4,1,0,15,1,0
104936,-100.336040449873,4,1,0,15,0,0
105366,430.188,4,1,0,15,1,0
105366,-100.340938440634,4,1,0,15,0,0
105796,430.209,4,1,0,15,1,0
105796,-100.336040449873,4,1,0,15,0,0
106227,430.188,4,1,0,15,1,0
106227,-100.340938440634,4,1,0,15,0,0
106657,430.209,4,1,0,15,1,0
106657,-100.336040449873,4,1,0,15,0,0
107087,430.188,4,1,0,15,1,0
107087,-100.340938440634,4,1,0,15,0,0
107517,430.209,4,1,0,15,1,0
107517,-100.336040449873,4,1,0,15,0,0
107947,430.188,4,1,0,15,1,0
107947,-100.340938440634,4,1,0,15,0,0
108378,430.209,4,1,0,15,1,0
108378,-100.336040449873,4,1,0,15,0,0
108808,430.188,4,1,0,15,1,0
108808,-100.340938440634,4,1,0,15,0,0
109238,430.209,4,1,0,15,1,0
109238,-100.336040449873,4,1,0,15,0,0
109668,430.188,4,1,0,15,1,0
109668,-100.340938440634,4,1,0,15,0,0
110098,430.209,4,1,0,15,1,0
110098,-100.336040449873,4,1,0,15,0,0
110529,430.188,4,1,0,15,1,0
110529,-100.340938440634,4,1,0,15,0,0
110959,430.209,4,1,0,15,1,0
110959,-100.336040449873,4,1,0,15,0,0
111389,430.188,4,1,0,15,1,0
111389,-100.340938440634,4,1,0,15,0,0
111819,430.209,4,1,0,15,1,0
111819,-100.336040449873,4,1,0,15,0,0
112249,430.188,4,1,0,15,1,0
112249,-100.340938440634,4,1,0,15,0,0
112680,430.209,4,1,0,15,1,0
112680,-100.336040449873,4,1,0,15,0,0
113110,430.188,4,1,0,15,1,0
113110,-100.340938440634,4,1,0,15,0,0
113540,430.209,4,1,0,15,1,0
113540,-100.336040449873,4,1,0,15,0,0
113970,430.188,4,1,0,15,1,0
113970,-100.340938440634,4,1,0,15,0,0
114400,430.209,4,1,0,15,1,0
114400,-100.336040449873,4,1,0,15,0,0
114831,430.188,4,1,0,15,1,0
114831,-100.340938440634,4,1,0,15,0,0
115261,430.209,4,1,0,15,1,0
115261,-100.336040449873,4,1,0,15,0,0
115691,430.188,4,1,0,15,1,0
115691,-100.340938440634,4,1,0,15,0,0
116121,430.209,4,1,0,15,1,0
116121,-100.336040449873,4,1,0,15,0,0
116551,430.188,4,1,0,15,1,0
116551,-100.340938440634,4,1,0,15,0,0
116982,430.209,4,1,0,15,1,0
116982,-100.336040449873,4,1,0,15,0,0
117412,430.188,4,1,0,15,1,0
117412,-100.340938440634,4,1,0,15,0,0
117842,430.209,4,1,0,15,1,0
117842,-100.336040449873,4,1,0,15,0,0
118272,430.188,4,1,0,15,1,0
118272,-100.340938440634,4,1,0,15,0,0
118702,430.209,4,1,0,15,1,0
118702,-100.336040449873,4,1,0,15,0,0
119133,430.188,4,1,0,15,1,0
119133,-100.340938440634,4,1,0,15,0,0
119563,430.209,4,1,0,15,1,0
119563,-100.336040449873,4,1,0,15,0,0
119993,430.188,4,1,0,15,1,0
119993,-100.340938440634,4,1,0,15,0,0
120423,430.209,4,1,0,15,1,0
120423,-100.336040449873,4,1,0,15,0,0
120853,430.188,4,1,0,15,1,0
120853,-100.340938440634,4,1,0,15,0,0
121284,430.209,4,1,0,15,1,0
121284,-100.336040449873,4,1,0,15,0,0
121714,430.188,4,1,0,15,1,0
121714,-100.340938440634,4,1,0,15,0,0
122144,430.209,4,1,0,15,1,0
122144,-100.336040449873,4,1,0,15,0,0
122574,430.2,4,1,0,15,1,0
122574,-100.338139530217,4,1,0,15,0,0

[HitObjects]
64,192,1258,5,0,0:0:0:0:
320,192,1258,1,0,0:0:0:0:
192,0,1258,128,0,6026:1:0:0:0:
320,192,6026,1,0,0:0:0:0:
64,0,6026,128,0,10794:1:0:0:0:
448,192,10794,1,0,0:0:0:0:
320,0,10794,128,0,15455:1:0:0:0:
192,192,15562,1,0,0:0:0:0:
320,0,15562,128,0,17928:1:0:0:0:
192,192,17928,1,0,0:0:0:0:
448,0,17928,128,0,20294:1:0:0:0:
64,192,20294,1,0,0:0:0:0:
320,192,20294,1,0,0:0:0:0:
192,0,20294,128,0,25053:1:0:0:0:
320,192,25053,1,0,0:0:0:0:
64,0,25053,128,0,29830:1:0:0:0:
448,192,29830,1,0,0:0:0:0:
320,0,29830,128,0,34491:1:0:0:0:
192,192,34598,1,0,0:0:0:0:
320,0,34598,128,0,36965:1:0:0:0:
192,192,36965,1,0,0:0:0:0:
448,0,36965,128,0,39331:1:0:0:0:
64,192,39331,1,0,0:0:0:0:
320,192,39331,1,0,0:0:0:0:
192,0,39331,128,0,40191:1:0:0:0:
320,0,40299,128,0,40406:1:0:0:0:
448,0,40568,128,0,40675:1:0:0:0:
320,0,40890,128,0,40998:1:0:0:0:
192,0,41535,128,0,41589:1:0:0:0:
320,0,41697,128,0,41751:1:0:0:0:
192,192,42199,1,0,0:0:0:0:
192,0,42665,128,0,42719:1:0:0:0:
64,192,42799,1,0,0:0:0:0:
320,192,44224,1,0,0:0:0:0:
192,0,44224,128,0,44708:1:0:0:0:
448,192,45138,1,0,0:0:0:0:
64,0,45138,128,0,45712:1:0:0:0:
320,192,45999,1,0,0:0:0:0:
192,0,45999,128,0,46214:1:0:0:0:
192,192,46321,1,0,0:0:0:0:
320,0,46321,128,0,46429:1:0:0:0:
320,192,46644,1,0,0:0:0:0:
448,0,46644,128,0,46752:1:0:0:0:
320,0,46940,128,0,47021:1:0:0:0:
192,192,46967,1,0,0:0:0:0:
192,0,47209,128,0,47289:1:0:0:0:
320,192,47289,1,0,0:0:0:0:
192,0,47504,128,0,47558:1:0:0:0:
448,0,47720,128,0,47773:1:0:0:0:
320,0,48867,128,0,49010:1:0:0:0:
448,0,49010,128,0,49118:1:0:0:0:
192,0,49306,128,0,49333:1:0:0:0:
320,0,49512,128,0,49655:1:0:0:0:
192,0,49871,128,0,50122:1:0:0:0:
448,192,50122,1,0,0:0:0:0:
64,192,50229,1,0,0:0:0:0:
320,0,50552,128,0,50731:1:0:0:0:
192,192,50731,1,0,0:0:0:0:
64,192,51484,1,0,0:0:0:0:
192,0,52057,128,0,52344:1:0:0:0:
320,192,52344,1,0,0:0:0:0:
64,192,52990,1,0,0:0:0:0:
320,192,52990,1,0,0:0:0:0:
320,192,54253,1,0,0:0:0:0:
448,192,54253,1,0,0:0:0:0:
192,192,55069,1,0,0:0:0:0:
320,192,55069,1,0,0:0:0:0:
64,192,55535,1,0,0:0:0:0:
320,192,55535,1,0,0:0:0:0:
192,192,55893,1,0,0:0:0:0:
320,0,56216,128,0,56431:1:0:0:0:
320,192,56754,1,0,0:0:0:0:
192,192,56969,1,0,0:0:0:0:
192,192,57211,1,0,0:0:0:0:
64,192,57507,1,0,0:0:0:0:
320,192,57614,1,0,0:0:0:0:
192,192,57856,1,0,0:0:0:0:
320,192,57964,1,0,0:0:0:0:
64,192,58152,1,0,0:0:0:0:
320,192,58403,1,0,0:0:0:0:
448,192,58403,1,0,0:0:0:0:
192,0,58403,128,0,62696:1:0:0:0:
320,192,62696,1,0,0:0:0:0:
64,0,62696,128,0,66935:1:0:0:0:
448,192,66944,1,0,0:0:0:0:
320,0,66944,128,0,71112:1:0:0:0:
192,192,71273,1,0,0:0:0:0:
320,0,71273,128,0,73531:1:0:0:0:
64,192,73281,1,0,0:0:0:0:
192,192,73460,1,0,0:0:0:0:
448,0,73460,128,0,75503:1:0:0:0:
64,192,75503,1,0,0:0:0:0:
320,192,75503,1,0,0:0:0:0:
192,0,75503,128,0,76328:1:0:0:0:
64,192,76364,1,0,0:0:0:0:
448,0,76364,128,0,76399:1:0:0:0:
448,192,76650,1,0,0:0:0:0:
320,0,76650,128,0,76686:1:0:0:0:
192,0,76919,128,0,76946:1:0:0:0:
64,192,77538,1,0,0:0:0:0:
320,0,77538,128,0,77618:1:0:0:0:
192,192,77816,1,0,0:0:0:0:
320,192,78084,1,0,0:0:0:0:
64,0,78084,128,0,78120:1:0:0:0:
64,192,78515,1,0,0:0:0:0:
448,0,78515,128,0,78622:1:0:0:0:
192,192,79823,1,0,0:0:0:0:
64,0,79823,128,0,80307:1:0:0:0:
448,192,80630,1,0,0:0:0:0:
192,0,80630,128,0,81168:1:0:0:0:
192,192,81472,1,0,0:0:0:0:
448,0,81472,128,0,81535:1:0:0:0:
64,192,81759,1,0,0:0:0:0:
192,0,81759,128,0,81813:1:0:0:0:
448,192,82046,1,0,0:0:0:0:
320,0,82046,128,0,82091:1:0:0:0:
64,192,82351,1,0,0:0:0:0:
320,0,82351,128,0,82422:1:0:0:0:
448,192,82494,1,0,0:0:0:0:
64,192,82709,1,0,0:0:0:0:
192,192,82709,1,0,0:0:0:0:
64,192,82861,1,0,0:0:0:0:
192,192,83068,1,0,0:0:0:0:
448,192,83068,1,0,0:0:0:0:
320,192,84053,1,0,0:0:0:0:
192,192,84251,1,0,0:0:0:0:
320,192,84502,1,0,0:0:0:0:
448,192,84502,1,0,0:0:0:0:
192,192,84690,1,0,0:0:0:0:
64,192,84905,1,0,0:0:0:0:
448,192,85129,1,0,0:0:0:0:
320,192,85335,1,0,0:0:0:0:
64,192,85577,1,0,0:0:0:0:
192,192,85792,1,0,0:0:0:0:
448,192,85792,1,0,0:0:0:0:
192,192,86402,1,0,0:0:0:0:
64,192,86975,1,0,0:0:0:0:
320,192,86975,1,0,0:0:0:0:
192,192,87226,1,0,0:0:0:0:
448,192,87226,1,0,0:0:0:0:
192,192,87836,1,0,0:0:0:0:
320,192,87836,1,0,0:0:0:0:
448,192,87836,1,0,0:0:0:0:
192,192,88983,1,0,0:0:0:0:
320,192,88983,1,0,0:0:0:0:
448,192,88983,1,0,0:0:0:0:
448,192,89628,1,0,0:0:0:0:
192,192,89987,1,0,0:0:0:0:
320,192,89987,1,0,0:0:0:0:
64,192,90327,1,0,0:0:0:0:
192,192,90596,1,0,0:0:0:0:
448,192,90596,1,0,0:0:0:0:
192,192,90874,1,0,0:0:0:0:
448,192,90874,1,0,0:0:0:0:
320,192,91116,1,0,0:0:0:0:
64,192,91331,1,0,0:0:0:0:
192,192,91331,1,0,0:0:0:0:
192,192,91528,1,0,0:0:0:0:
448,192,91528,1,0,0:0:0:0:
192,192,91761,1,0,0:0:0:0:
448,192,91761,1,0,0:0:0:0:
192,192,91949,1,0,0:0:0:0:
192,192,92120,1,0,0:0:0:0:
448,192,92120,1,0,0:0:0:0:
64,192,92299,1,0,0:0:0:0:
192,192,92299,1,0,0:0:0:0:
192,192,92460,1,0,0:0:0:0:
448,192,92460,1,0,0:0:0:0:
64,192,92657,1,0,0:0:0:0:
448,192,92657,1,0,0:0:0:0:
320,0,92657,128,0,93643:1:0:0:0:
192,192,93751,1,0,0:0:0:0:
320,192,93751,1,0,0:0:0:0:
64,0,93751,128,0,94826:1:0:0:0:
448,0,93751,128,0,94826:1:0:0:0:
64,192,96941,1,0,0:0:0:0:
192,0,96941,128,0,96977:1:0:0:0:
320,192,97694,1,0,0:0:0:0:
192,192,97802,1,0,0:0:0:0:
448,0,97802,128,0,97838:1:0:0:0:
192,192,98644,1,0,0:0:0:0:
320,0,98644,128,0,98671:1:0:0:0:
64,192,98967,1,0,0:0:0:0:
192,0,98967,128,0,98994:1:0:0:0:
320,192,99236,1,0,0:0:0:0:
448,0,99236,128,0,99263:1:0:0:0:
64,192,99505,1,0,0:0:0:0:
320,0,99505,128,0,99532:1:0:0:0:
192,0,99666,128,0,99720:1:0:0:0:
320,192,99738,1,0,0:0:0:0:
64,192,99854,1,0,0:0:0:0:
320,0,99989,128,0,100025:1:0:0:0:
192,192,100177,1,0,0:0:0:0:
448,0,100177,128,0,100204:1:0:0:0:
64,192,101243,1,0,0:0:0:0:
320,192,101243,1,0,0:0:0:0:
320,192,102032,1,0,0:0:0:0:
448,192,102032,1,0,0:0:0:0:
192,192,102928,1,0,0:0:0:0:
448,192,102928,1,0,0:0:0:0:
64,192,103251,1,0,0:0:0:0:
192,0,103251,128,0,103287:1:0:0:0:
448,192,103538,1,0,0:0:0:0:
320,0,103538,128,0,103574:1:0:0:0:
448,192,103789,1,0,0:0:0:0:
192,0,103789,128,0,103825:1:0:0:0:
320,192,103968,1,0,0:0:0:0:
192,0,104040,128,0,104076:1:0:0:0:
448,192,104156,1,0,0:0:0:0:
64,0,104318,128,0,104344:1:0:0:0:
192,192,104506,1,0,0:0:0:0:
320,0,104506,128,0,104936:1:0:0:0:
64,192,106047,1,0,0:0:0:0:
320,192,106047,1,0,0:0:0:0:
320,192,106782,1,0,0:0:0:0:
448,192,106782,1,0,0:0:0:0:
192,192,107239,1,0,0:0:0:0:
320,192,107239,1,0,0:0:0:0:
64,192,107553,1,0,0:0:0:0:
192,192,107786,1,0,0:0:0:0:
448,192,107786,1,0,0:0:0:0:
192,192,108055,1,0,0:0:0:0:
448,192,108055,1,0,0:0:0:0:
320,192,108270,1,0,0:0:0:0:
64,192,108503,1,0,0:0:0:0:
192,192,108503,1,0,0:0:0:0:
192,192,108682,1,0,0:0:0:0:
448,192,108682,1,0,0:0:0:0:
192,192,108888,1,0,0:0:0:0:
448,192,108888,1,0,0:0:0:0:
64,192,109077,1,0,0:0:0:0:
320,192,109256,1,0,0:0:0:0:
448,192,109256,1,0,0:0:0:0:
64,192,109453,1,0,0:0:0:0:
192,192,109453,1,0,0:0:0:0:
192,192,109614,1,0,0:0:0:0:
448,192,109614,1,0,0:0:0:0:
64,192,109812,1,0,0:0:0:0:
320,192,109812,1,0,0:0:0:0:
192,0,109812,128,0,113271:1:0:0:0:
320,0,112922,128,0,113271:1:0:0:0:
448,0,113271,128,0,116282:1:0:0:0:
64,0,113271,128,0,116686:1:0:0:0:
448,192,116686,1,0,0:0:0:0:
320,0,116686,128,0,119993:1:0:0:0:
192,192,120127,1,0,0:0:0:0:
320,0,120127,128,0,123515:1:0:0:0:
192,192,123515,1,0,0:0:0:0:
448,0,123515,128,0,126876:1:0:0:0:
64,192,126903,1,0,0:0:0:0:
192,192,126903,1,0,0:0:0:0:
320,192,127199,1,0,0:0:0:0:
320,192,127468,1,0,0:0:0:0:
64,192,127737,1,0,0:0:0:0:
320,192,127979,1,0,0:0:0:0:
320,192,128238,1,0,0:0:0:0:
448,192,128238,1,0,0:0:0:0:
64,192,128946,1,0,0:0:0:0:
192,192,129117,1,0,0:0:0:0:
192,192,129350,1,0,0:0:0:0:
320,192,129565,1,0,0:0:0:0:
448,192,129565,1,0,0:0:0:0:
448,192,130183,1,0,0:0:0:0:
64,0,130183,128,0,130533:1:0:0:0:
64,192,130694,1,0,0:0:0:0:
448,0,130694,128,0,131017:1:0:0:0:
448,192,131178,1,0,0:0:0:0:
64,0,131178,128,0,131393:1:0:0:0:
320,192,132200,1,0,0:0:0:0:
320,192,132791,1,0,0:0:0:0:
448,192,133222,1,0,0:0:0:0:
192,192,133401,1,0,0:0:0:0:
64,0,133401,128,0,133616:1:0:0:0:
192,192,133670,1,0,0:0:0:0:
192,192,133992,1,0,0:0:0:0:
64,0,133992,128,0,134136:1:0:0:0:
320,192,134243,1,0,0:0:0:0:
320,192,134530,1,0,0:0:0:0:
448,192,134808,1,0,0:0:0:0:
64,192,135373,1,0,0:0:0:0:
192,192,135373,1,0,0:0:0:0:
448,192,135561,1,0,0:0:0:0:
320,192,135821,1,0,0:0:0:0:
64,192,136645,1,0,0:0:0:0:
192,192,136645,1,0,0:0:0:0:
192,192,136914,1,0,0:0:0:0:
320,192,137147,1,0,0:0:0:0:
192,192,137416,1,0,0:0:0:0:
64,192,138527,1,0,0:0:0:0:
192,192,138527,1,0,0:0:0:0:
448,192,138778,1,0,0:0:0:0:
320,192,139065,1,0,0:0:0:0:
64,192,139639,1,0,0:0:0:0:
192,192,139639,1,0,0:0:0:0:
320,192,139872,1,0,0:0:0:0:
320,192,140033,1,0,0:0:0:0:
320,192,140159,1,0,0:0:0:0:
320,192,140302,1,0,0:0:0:0:
320,192,140427,1,0,0:0:0:0:
320,192,140571,1,0,0:0:0:0:
320,192,140696,1,0,0:0:0:0:
320,192,140911,1,0,0:0:0:0:
320,192,141109,1,0,0:0:0:0:
320,192,141306,1,0,0:0:0:0:
192,192,141503,1,0,0:0:0:0:
192,192,141772,1,0,0:0:0:0:
320,192,142041,1,0,0:0:0:0:
448,192,142041,1,0,0:0:0:0:
64,192,142310,1,0,0:0:0:0:
192,192,142310,1,0,0:0:0:0:
320,192,142498,1,0,0:0:0:0:
192,192,142704,1,0,0:0:0:0:
448,192,142704,1,0,0:0:0:0:
64,192,142955,1,0,0:0:0:0:
192,192,143116,1,0,0:0:0:0:
320,192,143116,1,0,0:0:0:0:
448,192,143116,1,0,0:0:0:0:
64,192,144353,1,0,0:0:0:0:
320,192,144353,1,0,0:0:0:0:
64,192,144550,1,0,0:0:0:0:
320,192,144550,1,0,0:0:0:0:
64,192,144765,1,0,0:0:0:0:
192,192,144765,1,0,0:0:0:0:
64,192,145034,1,0,0:0:0:0:
448,192,145267,1,0,0:0:0:0:
192,192,145572,1,0,0:0:0:0:
320,192,145841,1,0,0:0:0:0:
192,192,146074,1,0,0:0:0:0:
64,192,146361,1,0,0:0:0:0:
320,192,146647,1,0,0:0:0:0:
448,192,146647,1,0,0:0:0:0:
192,192,146934,1,0,0:0:0:0:
320,192,147167,1,0,0:0:0:0:
448,192,147167,1,0,0:0:0:0:
64,192,147445,1,0,0:0:0:0:
192,192,147705,1,0,0:0:0:0:
448,192,147705,1,0,0:0:0:0:
192,192,148368,1,0,0:0:0:0:
448,192,148368,1,0,0:0:0:0:
192,192,148601,1,0,0:0:0:0:
448,192,148601,1,0,0:0:0:0:
192,192,148834,1,0,0:0:0:0:
320,192,148834,1,0,0:0:0:0:
64,192,149067,1,0,0:0:0:0:
320,192,149354,1,0,0:0:0:0:
192,192,149623,1,0,0:0:0:0:
192,192,149892,1,0,0:0:0:0:
64,192,150161,1,0,0:0:0:0:
320,192,150430,1,0,0:0:0:0:
192,192,150698,1,0,0:0:0:0:
448,192,150698,1,0,0:0:0:0:
64,192,150949,1,0,0:0:0:0:
320,192,151236,1,0,0:0:0:0:
448,192,151236,1,0,0:0:0:0:
192,192,151487,1,0,0:0:0:0:
64,192,151756,1,0,0:0:0:0:
448,192,151756,1,0,0:0:0:0:
64,192,152437,1,0,0:0:0:0:
448,192,152437,1,0,0:0:0:0:
64,192,152688,1,0,0:0:0:0:
448,192,152688,1,0,0:0:0:0:
64,192,152867,1,0,0:0:0:0:
320,192,152867,1,0,0:0:0:0:
64,192,153100,1,0,0:0:0:0:
192,192,153351,1,0,0:0:0:0:
64,192,153602,1,0,0:0:0:0:
320,192,153871,1,0,0:0:0:0:
64,192,154122,1,0,0:0:0:0:
448,192,154373,1,0,0:0:0:0:
192,192,154606,1,0,0:0:0:0:
448,192,154606,1,0,0:0:0:0:
320,192,154857,1,0,0:0:0:0:
192,192,155126,1,0,0:0:0:0:
320,192,155126,1,0,0:0:0:0:
448,192,155359,1,0,0:0:0:0:
192,192,155610,1,0,0:0:0:0:
448,192,155610,1,0,0:0:0:0:
320,192,156201,1,0,0:0:0:0:
448,192,156201,1,0,0:0:0:0:
192,192,156363,1,0,0:0:0:0:
448,192,156363,1,0,0:0:0:0:
192,192,156560,1,0,0:0:0:0:
320,192,156560,1,0,0:0:0:0:
64,192,156739,1,0,0:0:0:0:
192,192,156936,1,0,0:0:0:0:
64,192,157205,1,0,0:0:0:0:
448,192,157205,1,0,0:0:0:0:
64,192,157420,1,0,0:0:0:0:
192,192,157653,1,0,0:0:0:0:
320,192,157851,1,0,0:0:0:0:
320,192,158030,1,0,0:0:0:0:
448,192,158030,1,0,0:0:0:0:
64,192,158209,1,0,0:0:0:0:
192,192,158352,1,0,0:0:0:0:
320,192,158352,1,0,0:0:0:0:
64,192,158550,1,0,0:0:0:0:
192,192,158550,1,0,0:0:0:0:
448,192,158550,1,0,0:0:0:0:
64,192,159141,1,0,0:0:0:0:
192,192,159141,1,0,0:0:0:0:
448,192,159320,1,0,0:0:0:0:
320,192,159535,1,0,0:0:0:0:
320,192,159921,1,0,0:0:0:0:
64,192,160109,1,0,0:0:0:0:
320,192,160324,1,0,0:0:0:0:
448,192,160620,1,0,0:0:0:0:
64,192,161534,1,0,0:0:0:0:
320,192,161534,1,0,0:0:0:0:
320,192,162126,1,0,0:0:0:0:
448,192,162126,1,0,0:0:0:0:
320,192,162717,1,0,0:0:0:0:
448,192,162717,1,0,0:0:0:0:
192,192,162932,1,0,0:0:0:0:
320,192,163120,1,0,0:0:0:0:
192,192,163309,1,0,0:0:0:0:
448,192,163309,1,0,0:0:0:0:
64,192,163470,1,0,0:0:0:0:
320,192,163551,1,0,0:0:0:0:
320,192,163712,1,0,0:0:0:0:
64,192,163802,1,0,0:0:0:0:
448,0,163802,128,0,164088:1:0:0:0:
64,192,164519,1,0,0:0:0:0:
192,192,164653,1,0,0:0:0:0:
320,192,164814,1,0,0:0:0:0:
448,192,164814,1,0,0:0:0:0:
64,192,164949,1,0,0:0:0:0:
448,192,165110,1,0,0:0:0:0:
320,192,165271,1,0,0:0:0:0:
192,192,165433,1,0,0:0:0:0:
64,192,165567,1,0,0:0:0:0:
64,192,165738,1,0,0:0:0:0:
448,192,165738,1,0,0:0:0:0:
192,192,166159,1,0,0:0:0:0:
192,192,166526,1,0,0:0:0:0:
320,192,166526,1,0,0:0:0:0:
192,192,166723,1,0,0:0:0:0:
448,192,166723,1,0,0:0:0:0:
64,192,167118,1,0,0:0:0:0:
320,192,167118,1,0,0:0:0:0:
192,192,167924,1,0,0:0:0:0:
320,192,167924,1,0,0:0:0:0:
448,192,167924,1,0,0:0:0:0:
320,192,168426,1,0,0:0:0:0:
448,192,168426,1,0,0:0:0:0:
192,192,168731,1,0,0:0:0:0:
320,192,168731,1,0,0:0:0:0:
448,192,168731,1,0,0:0:0:0:
64,192,168946,1,0,0:0:0:0:
192,192,168946,1,0,0:0:0:0:
64,192,169143,1,0,0:0:0:0:
192,192,169143,1,0,0:0:0:0:
320,192,169143,1,0,0:0:0:0:
192,192,169340,1,0,0:0:0:0:
320,192,169340,1,0,0:0:0:0:
448,192,169340,1,0,0:0:0:0:
64,192,169502,1,0,0:0:0:0:
192,192,169502,1,0,0:0:0:0:
320,192,169645,1,0,0:0:0:0:
192,192,169753,1,0,0:0:0:0:
64,192,169923,1,0,0:0:0:0:
192,192,169923,1,0,0:0:0:0:
448,192,169923,1,0,0:0:0:0:
320,192,170040,1,0,0:0:0:0:
320,192,170165,1,0,0:0:0:0:
448,192,170165,1,0,0:0:0:0:
64,192,170273,1,0,0:0:0:0:
192,192,170380,1,0,0:0:0:0:
320,192,170380,1,0,0:0:0:0:
448,192,170380,1,0,0:0:0:0:
64,192,170515,1,0,0:0:0:0:
320,0,170515,128,0,171617:1:0:0:0:
192,0,170515,128,0,173302:1:0:0:0:
320,192,173302,1,0,0:0:0:0:
64,0,173302,128,0,176062:1:0:0:0:
448,192,176062,1,0,0:0:0:0:
320,0,176062,128,0,178608:1:0:0:0:
192,192,178751,1,0,0:0:0:0:
320,0,178751,128,0,179934:1:0:0:0:
448,192,179934,1,0,0:0:0:0:
320,192,180006,1,0,0:0:0:0:
64,192,180069,1,0,0:0:0:0:
192,192,180069,1,0,0:0:0:0:
320,192,180140,1,0,0:0:0:0:
448,192,180140,1,0,0:0:0:0:
64,192,180723,1,0,0:0:0:0:
448,192,180723,1,0,0:0:0:0:
192,192,180830,1,0,0:0:0:0:
320,192,180902,1,0,0:0:0:0:
448,192,180956,1,0,0:0:0:0:
64,192,181028,1,0,0:0:0:0:
192,192,181028,1,0,0:0:0:0:
448,192,181108,1,0,0:0:0:0:
320,192,181171,1,0,0:0:0:0:
64,192,181261,1,0,0:0:0:0:
192,192,181261,1,0,0:0:0:0:
448,192,181261,1,0,0:0:0:0:
448,192,181529,1,0,0:0:0:0:
320,192,181601,1,0,0:0:0:0:
192,192,181691,1,0,0:0:0:0:
320,192,181727,1,0,0:0:0:0:
64,192,181798,1,0,0:0:0:0:
192,192,181798,1,0,0:0:0:0:
320,192,181870,1,0,0:0:0:0:
448,192,181942,1,0,0:0:0:0:
64,192,181978,1,0,0:0:0:0:
320,192,181978,1,0,0:0:0:0:
192,192,182076,1,0,0:0:0:0:
320,192,182139,1,0,0:0:0:0:
448,192,182211,1,0,0:0:0:0:
320,192,182533,1,0,0:0:0:0:
64,192,182838,1,0,0:0:0:0:
192,192,182838,1,0,0:0:0:0:
192,192,182990,1,0,0:0:0:0:
320,192,182990,1,0,0:0:0:0:
448,192,182990,1,0,0:0:0:0:
192,192,183340,1,0,0:0:0:0:
320,192,183340,1,0,0:0:0:0:
448,192,183340,1,0,0:0:0:0:
64,192,183949,1,0,0:0:0:0:
192,192,183949,1,0,0:0:0:0:
448,192,183949,1,0,0:0:0:0:
192,192,184362,1,0,0:0:0:0:
320,192,184362,1,0,0:0:0:0:
448,192,184362,1,0,0:0:0:0:
64,192,184595,1,0,0:0:0:0:
192,192,184595,1,0,0:0:0:0:
448,192,184595,1,0,0:0:0:0:
64,192,184756,1,0,0:0:0:0:
192,192,184756,1,0,0:0:0:0:
448,192,184756,1,0,0:0:0:0:
64,192,184917,1,0,0:0:0:0:
192,192,185079,1,0,0:0:0:0:
448,192,185079,1,0,0:0:0:0:
192,192,185240,1,0,0:0:0:0:
320,192,185303,1,0,0:0:0:0:
64,192,185401,1,0,0:0:0:0:
192,192,185473,1,0,0:0:0:0:
320,192,185527,1,0,0:0:0:0:
448,192,185527,1,0,0:0:0:0:
448,192,185778,1,0,0:0:0:0:
64,192,186011,1,0,0:0:0:0:
320,192,186011,1,0,0:0:0:0:
64,192,186387,1,0,0:0:0:0:
192,192,186387,1,0,0:0:0:0:
320,192,186486,1,0,0:0:0:0:
448,192,186486,1,0,0:0:0:0:
192,192,186602,1,0,0:0:0:0:
64,192,186746,1,0,0:0:0:0:
192,192,186746,1,0,0:0:0:0:
320,192,186835,1,0,0:0:0:0:
448,192,186835,1,0,0:0:0:0:
192,192,186961,1,0,0:0:0:0:
192,192,187615,1,0,0:0:0:0:
320,192,187678,1,0,0:0:0:0:
64,192,187714,1,0,0:0:0:0:
192,192,187767,1,0,0:0:0:0:
448,192,187821,1,0,0:0:0:0:
64,192,187929,1,0,0:0:0:0:
192,192,187929,1,0,0:0:0:0:
320,192,188215,1,0,0:0:0:0:
64,192,188556,1,0,0:0:0:0:
320,192,188556,1,0,0:0:0:0:
448,192,188556,1,0,0:0:0:0:
64,192,188852,1,0,0:0:0:0:
192,192,188852,1,0,0:0:0:0:
448,192,189363,1,0,0:0:0:0:
320,0,189363,128,0,189524:1:0:0:0:
64,192,189524,1,0,0:0:0:0:
64,192,189990,1,0,0:0:0:0:
320,192,190151,1,0,0:0:0:0:
448,192,190151,1,0,0:0:0:0:
192,192,190313,1,0,0:0:0:0:
320,192,190600,1,0,0:0:0:0:
192,192,190797,1,0,0:0:0:0:
64,192,190949,1,0,0:0:0:0:
448,192,190949,1,0,0:0:0:0:
320,192,191110,1,0,0:0:0:0:
320,192,191424,1,0,0:0:0:0:
320,192,191567,1,0,0:0:0:0:
320,192,191747,1,0,0:0:0:0:
448,192,191747,1,0,0:0:0:0:
192,192,191863,1,0,0:0:0:0:
64,192,191971,1,0,0:0:0:0:
192,192,192078,1,0,0:0:0:0:
320,192,192213,1,0,0:0:0:0:
448,192,192213,1,0,0:0:0:0:
192,192,192401,1,0,0:0:0:0:
64,192,192562,1,0,0:0:0:0:
448,192,192562,1,0,0:0:0:0:
320,192,192697,1,0,0:0:0:0:
192,192,192840,1,0,0:0:0:0:
448,192,192840,1,0,0:0:0:0:
192,192,193315,1,0,0:0:0:0:
320,192,193315,1,0,0:0:0:0:
64,192,193638,1,0,0:0:0:0:
192,192,193638,1,0,0:0:0:0:
320,192,193638,1,0,0:0:0:0:
192,192,193799,1,0,0:0:0:0:
320,192,193799,1,0,0:0:0:0:
448,192,193799,1,0,0:0:0:0:
192,192,193934,1,0,0:0:0:0:
320,192,193934,1,0,0:0:0:0:
64,192,194113,1,0,0:0:0:0:
320,192,194113,1,0,0:0:0:0:
448,192,194113,1,0,0:0:0:0:
192,192,194256,1,0,0:0:0:0:
320,192,194256,1,0,0:0:0:0:
64,192,194435,1,0,0:0:0:0:
192,192,194435,1,0,0:0:0:0:
320,192,194597,1,0,0:0:0:0:
448,192,194597,1,0,0:0:0:0:
64,192,194722,1,0,0:0:0:0:
192,192,194722,1,0,0:0:0:0:
448,192,194722,1,0,0:0:0:0:
64,192,194848,1,0,0:0:0:0:
320,192,194848,1,0,0:0:0:0:
64,192,194955,1,0,0:0:0:0:
192,192,194955,1,0,0:0:0:0:
320,192,195063,1,0,0:0:0:0:
448,192,195063,1,0,0:0:0:0:
64,192,195224,1,0,0:0:0:0:
320,192,195224,1,0,0:0:0:0:
320,192,195385,1,0,0:0:0:0:
448,192,195385,1,0,0:0:0:0:
192,192,195457,1,0,0:0:0:0:
320,192,195511,1,0,0:0:0:0:
64,192,195565,1,0,0:0:0:0:
192,192,195592,1,0,0:0:0:0:
320,192,195610,1,0,0:0:0:0:
448,192,195636,1,0,0:0:0:0:
64,192,195663,1,0,0:0:0:0:
192,192,195681,1,0,0:0:0:0:
320,192,195708,1,0,0:0:0:0:
64,192,195843,1,0,0:0:0:0:
448,192,195843,1,0,0:0:0:0:
192,192,195977,1,0,0:0:0:0:
320,192,196111,1,0,0:0:0:0:
448,192,196111,1,0,0:0:0:0:
64,192,196246,1,0,0:0:0:0:
192,192,196380,1,0,0:0:0:0:
320,192,196380,1,0,0:0:0:0:
448,192,196488,1,0,0:0:0:0:
320,192,196569,1,0,0:0:0:0:
192,192,196676,1,0,0:0:0:0:
64,192,196811,1,0,0:0:0:0:
320,192,196811,1,0,0:0:0:0:
448,192,196811,1,0,0:0:0:0:
192,192,197079,1,0,0:0:0:0:
448,192,197357,1,0,0:0:0:0:
64,192,197752,1,0,0:0:0:0:
64,192,198047,1,0,0:0:0:0:
192,192,198370,1,0,0:0:0:0:
64,192,198478,1,0,0:0:0:0:
320,192,198478,1,0,0:0:0:0:
448,192,198478,1,0,0:0:0:0:
64,192,198612,1,0,0:0:0:0:
192,192,198737,1,0,0:0:0:0:
320,192,198737,1,0,0:0:0:0:
448,192,198737,1,0,0:0:0:0:
192,192,198899,1,0,0:0:0:0:
320,192,198962,1,0,0:0:0:0:
192,192,199015,1,0,0:0:0:0:
64,192,199069,1,0,0:0:0:0:
448,192,199069,1,0,0:0:0:0:
320,192,199096,1,0,0:0:0:0:
192,192,199150,1,0,0:0:0:0:
320,192,199311,1,0,0:0:0:0:
64,192,199544,1,0,0:0:0:0:
448,192,199544,1,0,0:0:0:0:
320,192,199598,1,0,0:0:0:0:
64,192,199652,1,0,0:0:0:0:
192,192,199652,1,0,0:0:0:0:
320,192,199741,1,0,0:0:0:0:
448,192,199741,1,0,0:0:0:0:
64,192,200171,1,0,0:0:0:0:
192,0,200171,128,0,200279:1:0:0:0:
320,0,200387,128,0,200494:1:0:0:0:
64,192,200817,1,0,0:0:0:0:
448,192,200817,1,0,0:0:0:0:
320,192,201005,1,0,0:0:0:0:
192,192,201113,1,0,0:0:0:0:
320,192,201220,1,0,0:0:0:0:
448,192,201301,1,0,0:0:0:0:
320,192,201408,1,0,0:0:0:0:
64,0,201408,128,0,201462:1:0:0:0:
320,192,201821,1,0,0:0:0:0:
448,0,201821,128,0,201874:1:0:0:0:
192,192,201874,1,0,0:0:0:0:
64,192,201946,1,0,0:0:0:0:
192,192,202027,1,0,0:0:0:0:
320,0,202027,128,0,202080:1:0:0:0:
192,192,202457,1,0,0:0:0:0:
64,0,202457,128,0,202672:1:0:0:0:
320,192,202672,1,0,0:0:0:0:
192,0,202672,128,0,202887:1:0:0:0:
448,192,202887,1,0,0:0:0:0:
320,0,202887,128,0,203075:1:0:0:0:
448,192,203075,1,0,0:0:0:0:
64,0,203075,128,0,203183:1:0:0:0:
192,192,203290,1,0,0:0:0:0:
448,0,203290,128,0,203344:1:0:0:0:
192,192,203748,1,0,0:0:0:0:
320,192,203936,1,0,0:0:0:0:
448,192,203936,1,0,0:0:0:0:
64,192,204025,1,0,0:0:0:0:
192,192,204025,1,0,0:0:0:0:
320,192,204133,1,0,0:0:0:0:
320,192,204258,1,0,0:0:0:0:
64,192,204563,1,0,0:0:0:0:
192,0,204563,128,0,204886:1:0:0:0:
320,0,204886,128,0,204922:1:0:0:0:
64,192,204975,1,0,0:0:0:0:
448,192,204975,1,0,0:0:0:0:
192,192,205190,1,0,0:0:0:0:
448,192,205190,1,0,0:0:0:0:
192,192,205388,1,0,0:0:0:0:
320,192,205459,1,0,0:0:0:0:
192,192,205531,1,0,0:0:0:0:
64,192,205576,1,0,0:0:0:0:
320,192,205603,1,0,0:0:0:0:
448,192,205603,1,0,0:0:0:0:
192,192,205639,1,0,0:0:0:0:
64,192,205818,1,0,0:0:0:0:
64,192,206033,1,0,0:0:0:0:
320,192,206140,1,0,0:0:0:0:
192,192,206248,1,0,0:0:0:0:
448,192,206356,1,0,0:0:0:0:
64,0,206463,128,0,206517:1:0:0:0:
320,0,206463,128,0,206517:1:0:0:0:
64,0,207082,128,0,207135:1:0:0:0:
320,0,207082,128,0,207135:1:0:0:0:
64,192,207503,1,0,0:0:0:0:
448,192,207727,1,0,0:0:0:0:
192,192,207915,1,0,0:0:0:0:
320,0,207915,128,0,208130:1:0:0:0:
64,192,208130,1,0,0:0:0:0:
448,192,208130,1,0,0:0:0:0:
320,192,208560,1,0,0:0:0:0:
448,192,208560,1,0,0:0:0:0:
64,192,208758,1,0,0:0:0:0:
320,192,208829,1,0,0:0:0:0:
192,192,208901,1,0,0:0:0:0:
320,192,208973,1,0,0:0:0:0:
448,192,208973,1,0,0:0:0:0:
64,192,209008,1,0,0:0:0:0:
192,192,209080,1,0,0:0:0:0:
320,192,209188,1,0,0:0:0:0:
448,192,209188,1,0,0:0:0:0:
64,0,209259,128,0,209367:1:0:0:0:
320,192,209403,1,0,0:0:0:0:
448,192,209403,1,0,0:0:0:0:
192,192,209582,1,0,0:0:0:0:
64,192,210012,1,0,0:0:0:0:
320,192,210012,1,0,0:0:0:0:
448,192,210227,1,0,0:0:0:0:
192,192,210335,1,0,0:0:0:0:
192,192,210442,1,0,0:0:0:0:
64,192,210550,1,0,0:0:0:0:
320,192,210658,1,0,0:0:0:0:
448,192,210658,1,0,0:0:0:0:
320,192,210765,1,0,0:0:0:0:
448,192,210765,1,0,0:0:0:0:
64,192,210944,1,0,0:0:0:0:
320,192,210944,1,0,0:0:0:0:
192,192,211052,1,0,0:0:0:0:
448,192,211052,1,0,0:0:0:0:
448,192,211231,1,0,0:0:0:0:
64,192,211267,1,0,0:0:0:0:
192,192,211267,1,0,0:0:0:0:
320,192,211303,1,0,0:0:0:0:
448,192,211339,1,0,0:0:0:0:
320,192,211410,1,0,0:0:0:0:
192,192,211446,1,0,0:0:0:0:
64,192,211482,1,0,0:0:0:0:
192,192,211554,1,0,0:0:0:0:
320,192,211626,1,0,0:0:0:0:
448,192,211661,1,0,0:0:0:0:
320,192,211697,1,0,0:0:0:0:
192,192,211733,1,0,0:0:0:0:
64,192,211769,1,0,0:0:0:0:
320,192,211841,1,0,0:0:0:0:
64,192,212002,1,0,0:0:0:0:
192,0,212002,128,0,212029:1:0:0:0:
192,0,212217,128,0,212244:1:0:0:0:
192,192,212432,1,0,0:0:0:0:
448,0,212432,128,0,212459:1:0:0:0:
448,0,212629,128,0,212665:1:0:0:0:
64,192,212844,1,0,0:0:0:0:
320,0,212844,128,0,212880:1:0:0:0:
64,192,213060,1,0,0:0:0:0:
448,192,213060,1,0,0:0:0:0:
448,192,213167,1,0,0:0:0:0:
320,192,213275,1,0,0:0:0:0:
64,192,213346,1,0,0:0:0:0:
192,192,213346,1,0,0:0:0:0:
320,192,213454,1,0,0:0:0:0:
192,192,213561,1,0,0:0:0:0:
320,192,213561,1,0,0:0:0:0:
320,192,213777,1,0,0:0:0:0:
192,192,213866,1,0,0:0:0:0:
64,192,214207,1,0,0:0:0:0:
64,192,214422,1,0,0:0:0:0:
320,192,214422,1,0,0:0:0:0:
320,192,214637,1,0,0:0:0:0:
320,192,214744,1,0,0:0:0:0:
64,192,214852,1,0,0:0:0:0:
448,0,214852,128,0,214960:1:0:0:0:
448,192,215282,1,0,0:0:0:0:
64,0,215282,128,0,215461:1:0:0:0:
320,192,215461,1,0,0:0:0:0:
320,192,215677,1,0,0:0:0:0:
448,0,215677,128,0,215963:1:0:0:0:
192,192,215748,1,0,0:0:0:0:
320,192,215820,1,0,0:0:0:0:
192,192,215892,1,0,0:0:0:0:
320,192,215963,1,0,0:0:0:0:
192,192,216035,1,0,0:0:0:0:
64,192,216107,1,0,0:0:0:0:
320,192,216107,1,0,0:0:0:0:
320,192,216223,1,0,0:0:0:0:
448,192,216223,1,0,0:0:0:0:
64,192,216286,1,0,0:0:0:0:
192,192,216286,1,0,0:0:0:0:
448,192,216358,1,0,0:0:0:0:
64,192,216438,1,0,0:0:0:0:
320,192,216438,1,0,0:0:0:0:
192,0,216501,128,0,216860:1:0:0:0:
448,0,216501,128,0,216860:1:0:0:0:
192,192,217971,1,0,0:0:0:0:
320,0,217971,128,0,218025:1:0:0:0:
64,192,218186,1,0,0:0:0:0:
192,192,218294,1,0,0:0:0:0:
192,192,218401,1,0,0:0:0:0:
320,192,218509,1,0,0:0:0:0:
192,192,218616,1,0,0:0:0:0:
448,192,218616,1,0,0:0:0:0:
64,192,218831,1,0,0:0:0:0:
64,192,218939,1,0,0:0:0:0:
192,192,218939,1,0,0:0:0:0:
448,192,219046,1,0,0:0:0:0:
320,0,219154,128,0,219226:1:0:0:0:
192,0,219297,128,0,219369:1:0:0:0:
64,192,219477,1,0,0:0:0:0:
192,192,219584,1,0,0:0:0:0:
320,192,219692,1,0,0:0:0:0:
448,192,219799,1,0,0:0:0:0:
64,192,219907,1,0,0:0:0:0:
448,192,219907,1,0,0:0:0:0:
64,192,220283,1,0,0:0:0:0:
192,192,220283,1,0,0:0:0:0:
192,192,220516,1,0,0:0:0:0:
448,192,220588,1,0,0:0:0:0:
64,192,220642,1,0,0:0:0:0:
448,192,220696,1,0,0:0:0:0:
192,192,220767,1,0,0:0:0:0:
64,192,220803,1,0,0:0:0:0:
320,192,220839,1,0,0:0:0:0:
192,192,220911,1,0,0:0:0:0:
448,192,220911,1,0,0:0:0:0:
192,0,221144,128,0,221197:1:0:0:0:
320,0,221341,128,0,221413:1:0:0:0:
64,192,221556,1,0,0:0:0:0:
192,0,221556,128,0,221592:1:0:0:0:
192,0,221950,128,0,222004:1:0:0:0:
320,0,222058,128,0,222112:1:0:0:0:
448,0,222165,128,0,222219:1:0:0:0:
64,192,222596,1,0,0:0:0:0:
320,0,222811,128,0,222865:1:0:0:0:
320,192,222990,1,0,0:0:0:0:
192,0,222990,128,0,223205:1:0:0:0:
448,192,223205,1,0,0:0:0:0:
64,192,223429,1,0,0:0:0:0:
64,192,223886,1,0,0:0:0:0:
448,192,224065,1,0,0:0:0:0:
320,192,224137,1,0,0:0:0:0:
192,192,224209,1,0,0:0:0:0:
320,192,224263,1,0,0:0:0:0:
64,192,224370,1,0,0:0:0:0:
448,192,224424,1,0,0:0:0:0:
320,192,224675,1,0,0:0:0:0:
448,192,224675,1,0,0:0:0:0:
64,192,224782,1,0,0:0:0:0:
192,192,224782,1,0,0:0:0:0:
320,192,224890,1,0,0:0:0:0:
448,192,224890,1,0,0:0:0:0:
64,192,224998,1,0,0:0:0:0:
192,192,224998,1,0,0:0:0:0:
320,0,225105,128,0,225177:1:0:0:0:
448,0,225320,128,0,225392:1:0:0:0:
320,192,225535,1,0,0:0:0:0:
192,0,225607,128,0,225679:1:0:0:0:
320,192,225679,1,0,0:0:0:0:
448,0,225750,128,0,225822:1:0:0:0:
192,192,225966,1,0,0:0:0:0:
320,0,225966,128,0,226037:1:0:0:0:
64,192,226145,1,0,0:0:0:0:
320,192,226252,1,0,0:0:0:0:
192,192,226360,1,0,0:0:0:0:
192,192,226467,1,0,0:0:0:0:
64,192,226575,1,0,0:0:0:0:
320,192,226575,1,0,0:0:0:0:
64,192,227005,1,0,0:0:0:0:
192,192,227005,1,0,0:0:0:0:
320,192,227086,1,0,0:0:0:0:
448,192,227167,1,0,0:0:0:0:
64,192,227247,1,0,0:0:0:0:
192,192,227247,1,0,0:0:0:0:
320,192,227382,1,0,0:0:0:0:
448,192,227489,1,0,0:0:0:0:
64,192,227597,1,0,0:0:0:0:
192,192,227597,1,0,0:0:0:0:
320,192,227758,1,0,0:0:0:0:
448,192,227919,1,0,0:0:0:0:
64,192,228269,1,0,0:0:0:0:
192,192,228269,1,0,0:0:0:0:
320,192,228367,1,0,0:0:0:0:
448,192,228457,1,0,0:0:0:0:
192,192,228547,1,0,0:0:0:0:
64,192,228636,1,0,0:0:0:0:
320,192,228636,1,0,0:0:0:0:
192,192,228995,1,0,0:0:0:0:
448,192,228995,1,0,0:0:0:0:
64,192,229183,1,0,0:0:0:0:
192,192,229183,1,0,0:0:0:0:
64,192,229371,1,0,0:0:0:0:
192,192,229371,1,0,0:0:0:0:
320,192,229371,1,0,0:0:0:0:
64,192,229551,1,0,0:0:0:0:
320,192,229551,1,0,0:0:0:0:
448,192,229551,1,0,0:0:0:0:
192,192,229801,1,0,0:0:0:0:
320,192,229801,1,0,0:0:0:0:
192,192,230043,1,0,0:0:0:0:
448,192,230285,1,0,0:0:0:0:
64,0,230285,128,0,230626:1:0:0:0:
320,192,230635,1,0,0:0:0:0:
448,0,230635,128,0,230904:1:0:0:0:
320,192,230985,1,0,0:0:0:0:
64,0,230985,128,0,231388:1:0:0:0:
192,192,231388,1,0,0:0:0:0:
448,0,231388,128,0,231737:1:0:0:0:
448,192,231872,1,0,0:0:0:0:
320,0,231872,128,0,231899:1:0:0:0:
192,0,231952,128,0,231979:1:0:0:0:
192,192,232087,1,0,0:0:0:0:
64,0,232087,128,0,232114:1:0:0:0:
64,0,232436,128,0,232463:1:0:0:0:
448,0,232436,128,0,232463:1:0:0:0:
192,0,232436,128,0,235986:1:0:0:0:
320,0,232436,128,0,236792:1:0:0:0:
64,192,236577,1,0,0:0:0:0:
192,0,236577,128,0,239158:1:0:0:0:
64,0,239158,128,0,240592:1:0:0:0:
192,192,240592,1,0,0:0:0:0:
320,0,240592,128,0,243030:1:0:0:0:
192,0,243030,128,0,244464:1:0:0:0:
448,192,244608,1,0,0:0:0:0:
192,0,244608,128,0,246687:1:0:0:0:
448,0,246687,128,0,248193:1:0:0:0:
320,192,248694,1,0,0:0:0:0:
64,0,248694,128,0,249483:1:0:0:0:
448,0,248694,128,0,249483:1:0:0:0:
192,0,249483,128,0,252781:1:0:0:0:
320,192,252781,1,0,0:0:0:0:
64,0,252781,128,0,256797:1:0:0:0:
448,192,256797,1,0,0:0:0:0:
320,0,256797,128,0,260776:1:0:0:0:
192,192,260883,1,0,0:0:0:0:
320,0,260883,128,0,262819:1:0:0:0:
192,192,262819,1,0,0:0:0:0:
448,0,262819,128,0,264943:1:0:0:0:
64,192,264943,1,0,0:0:0:0:
320,192,264943,1,0,0:0:0:0:
192,0,264943,128,0,265687:1:0:0:0:
64,192,265687,1,0,0:0:0:0:
320,0,265687,128,0,265759:1:0:0:0:
448,0,265965,128,0,266019:1:0:0:0:
320,0,266261,128,0,266333:1:0:0:0:
192,0,266799,128,0,266852:1:0:0:0:
64,192,267050,1,0,0:0:0:0:
192,0,267310,128,0,267363:1:0:0:0:
192,192,267659,1,0,0:0:0:0:
448,192,267713,1,0,0:0:0:0:
320,0,267713,128,0,267767:1:0:0:0:
64,0,268950,128,0,269003:1:0:0:0:
320,0,268950,128,0,269003:1:0:0:0:
192,0,269756,128,0,269810:1:0:0:0:
448,0,269756,128,0,269810:1:0:0:0:
320,192,270563,1,0,0:0:0:0:
64,0,270563,128,0,270635:1:0:0:0:
320,0,270832,128,0,270886:1:0:0:0:
448,0,271074,128,0,271128:1:0:0:0:
64,192,271137,1,0,0:0:0:0:
192,192,271137,1,0,0:0:0:0:
192,192,271370,1,0,0:0:0:0:
320,0,271370,128,0,271423:1:0:0:0:
64,192,271558,1,0,0:0:0:0:
448,192,271558,1,0,0:0:0:0:
64,192,271746,1,0,0:0:0:0:
192,192,271746,1,0,0:0:0:0:
448,0,271880,128,0,271907:1:0:0:0:
320,192,272069,1,0,0:0:0:0:
192,0,272069,128,0,272096:1:0:0:0:
192,192,273001,1,0,0:0:0:0:
448,192,273171,1,0,0:0:0:0:
320,192,273395,1,0,0:0:0:0:
192,192,273574,1,0,0:0:0:0:
320,192,273789,1,0,0:0:0:0:
64,192,274005,1,0,0:0:0:0:
320,192,274193,1,0,0:0:0:0:
192,192,274381,1,0,0:0:0:0:
192,192,274632,1,0,0:0:0:0:
448,192,274632,1,0,0:0:0:0:
64,0,275214,128,0,275698:1:0:0:0:
320,192,275698,1,0,0:0:0:0:
448,0,275698,128,0,275806:1:0:0:0:
320,192,275967,1,0,0:0:0:0:
192,0,275967,128,0,276021:1:0:0:0:
192,192,276505,1,0,0:0:0:0:
448,0,276505,128,0,276559:1:0:0:0:
64,192,277043,1,0,0:0:0:0:
448,192,277043,1,0,0:0:0:0:
192,0,277043,128,0,277097:1:0:0:0:
320,192,277581,1,0,0:0:0:0:
64,0,277581,128,0,277634:1:0:0:0:
64,192,278271,1,0,0:0:0:0:
448,0,278271,128,0,278307:1:0:0:0:
448,192,278665,1,0,0:0:0:0:
192,0,278665,128,0,278737:1:0:0:0:
64,192,278952,1,0,0:0:0:0:
192,0,278952,128,0,279024:1:0:0:0:
448,192,279167,1,0,0:0:0:0:
320,0,279167,128,0,279239:1:0:0:0:
192,192,279490,1,0,0:0:0:0:
448,192,279490,1,0,0:0:0:0:
64,192,279678,1,0,0:0:0:0:
192,192,279678,1,0,0:0:0:0:
64,192,279893,1,0,0:0:0:0:
192,192,280081,1,0,0:0:0:0:
448,192,280081,1,0,0:0:0:0:
192,192,280278,1,0,0:0:0:0:
448,192,280278,1,0,0:0:0:0:
192,192,280458,1,0,0:0:0:0:
320,192,280637,1,0,0:0:0:0:
448,192,280637,1,0,0:0:0:0:
64,192,280780,1,0,0:0:0:0:
192,192,280780,1,0,0:0:0:0:
320,192,280942,1,0,0:0:0:0:
448,192,280942,1,0,0:0:0:0:
64,192,281103,1,0,0:0:0:0:
448,192,281103,1,0,0:0:0:0:
192,0,281103,128,0,284464:1:0:0:0:
320,192,284464,1,0,0:0:0:0:
64,0,284464,128,0,287771:1:0:0:0:
192,192,287663,1,0,0:0:0:0:
320,192,287771,1,0,0:0:0:0:
448,0,287771,128,0,287843:1:0:0:0:
448,0,288058,128,0,288129:1:0:0:0:
320,0,288201,128,0,288273:1:0:0:0:
64,0,288345,128,0,288416:1:0:0:0:
320,0,288488,128,0,288560:1:0:0:0:
192,0,288631,128,0,288703:1:0:0:0:
320,192,288775,1,0,0:0:0:0:
64,192,288954,1,0,0:0:0:0:
192,0,288954,128,0,289062:1:0:0:0:
320,0,289169,128,0,289277:1:0:0:0:
192,192,289348,1,0,0:0:0:0:
448,0,289348,128,0,289456:1:0:0:0:
192,192,289761,1,0,0:0:0:0:
448,192,289761,1,0,0:0:0:0:
192,192,290164,1,0,0:0:0:0:
320,192,290164,1,0,0:0:0:0:
192,0,290567,128,0,290621:1:0:0:0:
64,0,290782,128,0,290836:1:0:0:0:
448,192,290944,1,0,0:0:0:0:
320,0,290944,128,0,290997:1:0:0:0:
448,192,291356,1,0,0:0:0:0:
64,0,291356,128,0,291410:1:0:0:0:
192,192,291499,1,0,0:0:0:0:
320,192,291643,1,0,0:0:0:0:
192,192,291804,1,0,0:0:0:0:
64,192,291965,1,0,0:0:0:0:
192,192,292100,1,0,0:0:0:0:
320,192,292100,1,0,0:0:0:0:
192,192,292234,1,0,0:0:0:0:
320,192,292414,1,0,0:0:0:0:
448,192,292414,1,0,0:0:0:0:
192,192,292539,1,0,0:0:0:0:
320,192,292862,1,0,0:0:0:0:
448,192,292862,1,0,0:0:0:0:
64,192,293148,1,0,0:0:0:0:
192,192,293148,1,0,0:0:0:0:
192,192,293310,1,0,0:0:0:0:
320,192,293310,1,0,0:0:0:0:
448,192,293310,1,0,0:0:0:0:
64,192,293758,1,0,0:0:0:0:
192,192,293758,1,0,0:0:0:0:
192,192,293883,1,0,0:0:0:0:
320,192,293883,1,0,0:0:0:0:
320,192,294009,1,0,0:0:0:0:
448,192,294009,1,0,0:0:0:0:
192,192,294116,1,0,0:0:0:0:
320,192,294296,1,0,0:0:0:0:
448,192,294296,1,0,0:0:0:0:
64,192,294493,1,0,0:0:0:0:
192,192,294654,1,0,0:0:0:0:
320,192,294654,1,0,0:0:0:0:
64,192,295031,1,0,0:0:0:0:
320,192,295031,1,0,0:0:0:0:
64,192,295228,1,0,0:0:0:0:
192,192,295228,1,0,0:0:0:0:
320,192,295407,1,0,0:0:0:0:
448,192,295407,1,0,0:0:0:0:
192,192,295461,1,0,0:0:0:0:
64,192,295515,1,0,0:0:0:0:
192,192,295550,1,0,0:0:0:0:
320,192,295595,1,0,0:0:0:0:
448,192,295640,1,0,0:0:0:0:
320,192,295685,1,0,0:0:0:0:
192,192,295730,1,0,0:0:0:0:
64,192,295783,1,0,0:0:0:0:
448,192,295783,1,0,0:0:0:0:
64,192,296214,1,0,0:0:0:0:
320,0,296214,128,0,296321:1:0:0:0:
64,192,296751,1,0,0:0:0:0:
320,192,296751,1,0,0:0:0:0:
448,192,296841,1,0,0:0:0:0:
192,192,296913,1,0,0:0:0:0:
320,192,296913,1,0,0:0:0:0:
320,192,297047,1,0,0:0:0:0:
192,192,297199,1,0,0:0:0:0:
64,192,297379,1,0,0:0:0:0:
192,192,297576,1,0,0:0:0:0:
320,192,297576,1,0,0:0:0:0:
320,192,297773,1,0,0:0:0:0:
192,192,297934,1,0,0:0:0:0:
64,192,298114,1,0,0:0:0:0:
192,192,298293,1,0,0:0:0:0:
320,192,298293,1,0,0:0:0:0:
320,192,298472,1,0,0:0:0:0:
192,192,298669,1,0,0:0:0:0:
64,192,298831,1,0,0:0:0:0:
192,192,299028,1,0,0:0:0:0:
320,192,299028,1,0,0:0:0:0:
448,192,299028,1,0,0:0:0:0:
64,0,299368,128,0,299413:1:0:0:0:
64,0,299924,128,0,299960:1:0:0:0:
192,192,300265,1,0,0:0:0:0:
448,192,300265,1,0,0:0:0:0:
64,0,300265,128,0,300301:1:0:0:0:
192,192,300516,1,0,0:0:0:0:
448,192,300516,1,0,0:0:0:0:
64,0,300758,128,0,300784:1:0:0:0:
64,0,301000,128,0,301026:1:0:0:0:
192,192,301107,1,0,0:0:0:0:
320,0,301107,128,0,301537:1:0:0:0:
64,0,301537,128,0,301591:1:0:0:0:
192,192,301591,1,0,0:0:0:0:
448,192,301591,1,0,0:0:0:0:
192,192,301699,1,0,0:0:0:0:
448,192,301699,1,0,0:0:0:0:
192,192,302003,1,0,0:0:0:0:
320,192,302003,1,0,0:0:0:0:
192,192,302111,1,0,0:0:0:0:
448,192,302111,1,0,0:0:0:0:
64,192,302218,1,0,0:0:0:0:
320,192,302218,1,0,0:0:0:0:
64,192,302326,1,0,0:0:0:0:
192,192,302326,1,0,0:0:0:0:
320,192,302398,1,0,0:0:0:0:
192,192,302559,1,0,0:0:0:0:
320,192,302613,1,0,0:0:0:0:
320,192,302828,1,0,0:0:0:0:
448,192,302828,1,0,0:0:0:0:
64,192,303043,1,0,0:0:0:0:
192,192,303043,1,0,0:0:0:0:
448,192,303688,1,0,0:0:0:0:
64,0,303688,128,0,303760:1:0:0:0:
320,192,304119,1,0,0:0:0:0:
448,0,304119,128,0,304190:1:0:0:0:
448,192,304522,1,0,0:0:0:0:
192,0,304522,128,0,304576:1:0:0:0:
320,0,304683,128,0,304737:1:0:0:0:
448,192,304845,1,0,0:0:0:0:
64,0,304845,128,0,304898:1:0:0:0:
192,192,305140,1,0,0:0:0:0:
64,0,305140,128,0,305194:1:0:0:0:
192,0,305355,128,0,305570:1:0:0:0:
320,192,305570,1,0,0:0:0:0:
320,192,305786,1,0,0:0:0:0:
192,192,305929,1,0,0:0:0:0:
64,192,306072,1,0,0:0:0:0:
320,192,306198,1,0,0:0:0:0:
64,192,306377,1,0,0:0:0:0:
192,192,306377,1,0,0:0:0:0:
448,192,306619,1,0,0:0:0:0:
192,192,306834,1,0,0:0:0:0:
320,192,306915,1,0,0:0:0:0:
64,192,307049,1,0,0:0:0:0:
448,0,307049,128,0,307076:1:0:0:0:
64,192,307668,1,0,0:0:0:0:
320,0,307668,128,0,307704:1:0:0:0:
192,0,308071,128,0,308098:1:0:0:0:
320,192,308313,1,0,0:0:0:0:
64,192,308421,1,0,0:0:0:0:
448,192,308501,1,0,0:0:0:0:
192,192,308609,1,0,0:0:0:0:
448,192,308716,1,0,0:0:0:0:
320,0,308716,128,0,308743:1:0:0:0:
320,192,309353,1,0,0:0:0:0:
64,192,309550,1,0,0:0:0:0:
320,192,309550,1,0,0:0:0:0:
448,192,309711,1,0,0:0:0:0:
320,192,309747,1,0,0:0:0:0:
192,192,309783,1,0,0:0:0:0:
64,192,309855,1,0,0:0:0:0:
448,192,309926,1,0,0:0:0:0:
320,192,309998,1,0,0:0:0:0:
192,192,310061,1,0,0:0:0:0:
320,192,310105,1,0,0:0:0:0:
64,192,310159,1,0,0:0:0:0:
448,192,310213,1,0,0:0:0:0:
320,192,310276,1,0,0:0:0:0:
192,192,310330,1,0,0:0:0:0:
64,192,310392,1,0,0:0:0:0:
448,192,310392,1,0,0:0:0:0:
64,192,310589,1,0,0:0:0:0:
192,192,310589,1,0,0:0:0:0:
320,192,310715,1,0,0:0:0:0:
64,192,310805,1,0,0:0:0:0:
192,192,310805,1,0,0:0:0:0:
320,192,310930,1,0,0:0:0:0:
64,192,311002,1,0,0:0:0:0:
448,192,311002,1,0,0:0:0:0:
320,192,311217,1,0,0:0:0:0:
64,0,311217,128,0,311432:1:0:0:0:
320,192,311432,1,0,0:0:0:0:
192,0,311432,128,0,311647:1:0:0:0:
448,192,311647,1,0,0:0:0:0:
320,0,311647,128,0,311755:1:0:0:0:
64,192,311898,1,0,0:0:0:0:
448,192,311898,1,0,0:0:0:0:
192,192,311952,1,0,0:0:0:0:
320,192,311997,1,0,0:0:0:0:
448,192,312041,1,0,0:0:0:0:
64,192,312077,1,0,0:0:0:0:
192,192,312077,1,0,0:0:0:0:
320,192,312481,1,0,0:0:0:0:
448,192,312481,1,0,0:0:0:0:
192,192,312696,1,0,0:0:0:0:
320,192,312803,1,0,0:0:0:0:
448,192,312803,1,0,0:0:0:0:
64,192,313126,1,0,0:0:0:0:
320,192,313126,1,0,0:0:0:0:
192,192,313332,1,0,0:0:0:0:
448,192,313332,1,0,0:0:0:0:
64,192,313440,1,0,0:0:0:0:
192,192,313529,1,0,0:0:0:0:
448,192,313529,1,0,0:0:0:0:
320,192,313655,1,0,0:0:0:0:
64,192,313744,1,0,0:0:0:0:
192,192,313744,1,0,0:0:0:0:
320,192,313834,1,0,0:0:0:0:
64,192,313959,1,0,0:0:0:0:
192,192,313959,1,0,0:0:0:0:
448,192,314049,1,0,0:0:0:0:
64,192,314174,1,0,0:0:0:0:
320,192,314174,1,0,0:0:0:0:
64,192,314372,1,0,0:0:0:0:
320,192,314372,1,0,0:0:0:0:
192,192,314802,1,0,0:0:0:0:
64,192,314999,1,0,0:0:0:0:
448,192,314999,1,0,0:0:0:0:
320,192,315089,1,0,0:0:0:0:
64,192,315196,1,0,0:0:0:0:
448,192,315196,1,0,0:0:0:0:
192,192,315304,1,0,0:0:0:0:
448,192,315429,1,0,0:0:0:0:
320,0,315429,128,0,315806:1:0:0:0:
320,192,316057,1,0,0:0:0:0:
64,0,316057,128,0,316110:1:0:0:0:
192,192,316469,1,0,0:0:0:0:
320,192,316684,1,0,0:0:0:0:
448,192,316684,1,0,0:0:0:0:
192,192,316899,1,0,0:0:0:0:
320,192,316989,1,0,0:0:0:0:
448,192,316989,1,0,0:0:0:0:
64,192,317096,1,0,0:0:0:0:
64,192,317311,1,0,0:0:0:0:
64,192,317526,1,0,0:0:0:0:
320,192,317526,1,0,0:0:0:0:
448,192,317634,1,0,0:0:0:0:
192,192,317742,1,0,0:0:0:0:
320,192,317742,1,0,0:0:0:0:
448,192,317849,1,0,0:0:0:0:
64,192,317957,1,0,0:0:0:0:
192,192,317957,1,0,0:0:0:0:
320,192,318154,1,0,0:0:0:0:
192,192,318566,1,0,0:0:0:0:
320,192,318566,1,0,0:0:0:0:
448,192,318566,1,0,0:0:0:0:
64,192,318781,1,0,0:0:0:0:
192,192,318781,1,0,0:0:0:0:
320,192,318987,1,0,0:0:0:0:
192,192,319211,1,0,0:0:0:0:
448,192,319211,1,0,0:0:0:0:
64,192,319319,1,0,0:0:0:0:
192,192,319409,1,0,0:0:0:0:
320,192,319409,1,0,0:0:0:0:
64,192,319516,1,0,0:0:0:0:
320,192,319606,1,0,0:0:0:0:
448,192,319606,1,0,0:0:0:0:
192,192,319821,1,0,0:0:0:0:
320,192,319928,1,0,0:0:0:0:
192,192,320036,1,0,0:0:0:0:
448,192,320036,1,0,0:0:0:0:
64,192,320117,1,0,0:0:0:0:
320,192,320117,1,0,0:0:0:0:
192,192,320197,1,0,0:0:0:0:
64,192,320287,1,0,0:0:0:0:
448,192,320287,1,0,0:0:0:0:
192,192,320359,1,0,0:0:0:0:
320,192,320359,1,0,0:0:0:0:
192,192,320466,1,0,0:0:0:0:
448,192,320466,1,0,0:0:0:0:
192,192,321085,1,0,0:0:0:0:
320,192,321085,1,0,0:0:0:0:
64,192,321300,1,0,0:0:0:0:
192,192,321300,1,0,0:0:0:0:
448,192,321407,1,0,0:0:0:0:
64,192,321515,1,0,0:0:0:0:
192,192,321515,1,0,0:0:0:0:
320,192,321622,1,0,0:0:0:0:
192,192,321730,1,0,0:0:0:0:
448,192,321730,1,0,0:0:0:0:
448,192,321936,1,0,0:0:0:0:
320,192,322008,1,0,0:0:0:0:
192,192,322061,1,0,0:0:0:0:
320,192,322151,1,0,0:0:0:0:
192,192,322223,1,0,0:0:0:0:
64,192,322277,1,0,0:0:0:0:
448,0,322330,128,0,322581:1:0:0:0:
64,192,322581,1,0,0:0:0:0:
320,192,322581,1,0,0:0:0:0:
192,192,322761,1,0,0:0:0:0:
448,192,322761,1,0,0:0:0:0:
64,192,322976,1,0,0:0:0:0:
192,192,322976,1,0,0:0:0:0:
320,192,323191,1,0,0:0:0:0:
448,0,323191,128,0,323227:1:0:0:0:
192,192,323612,1,0,0:0:0:0:
64,0,323612,128,0,323720:1:0:0:0:
320,192,323720,1,0,0:0:0:0:
192,192,323800,1,0,0:0:0:0:
64,0,323800,128,0,323890:1:0:0:0:
320,192,323890,1,0,0:0:0:0:
192,192,323988,1,0,0:0:0:0:
64,0,323988,128,0,324069:1:0:0:0:
448,192,324105,1,0,0:0:0:0:
192,192,324230,1,0,0:0:0:0:
448,192,324230,1,0,0:0:0:0:
320,192,324445,1,0,0:0:0:0:
64,192,324661,1,0,0:0:0:0:
192,192,324661,1,0,0:0:0:0:
448,192,324714,1,0,0:0:0:0:
64,192,324768,1,0,0:0:0:0:
320,192,324876,1,0,0:0:0:0:
192,192,324983,1,0,0:0:0:0:
320,192,325073,1,0,0:0:0:0:
448,192,325073,1,0,0:0:0:0:
320,192,325180,1,0,0:0:0:0:
192,192,325288,1,0,0:0:0:0:
192,192,325396,1,0,0:0:0:0:
448,192,325485,1,0,0:0:0:0:
64,0,325485,128,0,325915:1:0:0:0:
320,192,325915,1,0,0:0:0:0:
448,192,325915,1,0,0:0:0:0:
320,192,326023,1,0,0:0:0:0:
192,192,326130,1,0,0:0:0:0:
64,192,326220,1,0,0:0:0:0:
320,192,326328,1,0,0:0:0:0:
448,192,326381,1,0,0:0:0:0:
192,192,326435,1,0,0:0:0:0:
448,192,326507,1,0,0:0:0:0:
320,192,326561,1,0,0:0:0:0:
64,192,326614,1,0,0:0:0:0:
192,192,326668,1,0,0:0:0:0:
64,192,326758,1,0,0:0:0:0:
448,192,326758,1,0,0:0:0:0:
320,192,326821,1,0,0:0:0:0:
448,192,326892,1,0,0:0:0:0:
192,192,326946,1,0,0:0:0:0:
64,192,327027,1,0,0:0:0:0:
320,192,327107,1,0,0:0:0:0:
64,192,327161,1,0,0:0:0:0:
192,192,327161,1,0,0:0:0:0:
320,192,327269,1,0,0:0:0:0:
64,192,327376,1,0,0:0:0:0:
192,192,327484,1,0,0:0:0:0:
448,192,327591,1,0,0:0:0:0:
320,192,327636,1,0,0:0:0:0:
192,192,327672,1,0,0:0:0:0:
64,192,327708,1,0,0:0:0:0:
448,192,327735,1,0,0:0:0:0:
320,192,327762,1,0,0:0:0:0:
192,192,327797,1,0,0:0:0:0:
64,192,327833,1,0,0:0:0:0:
448,192,327860,1,0,0:0:0:0:
320,192,327896,1,0,0:0:0:0:
192,192,327923,1,0,0:0:0:0:
64,192,327959,1,0,0:0:0:0:
448,192,327986,1,0,0:0:0:0:
320,192,328013,1,0,0:0:0:0:
192,192,328102,1,0,0:0:0:0:
320,192,328174,1,0,0:0:0:0:
64,192,328264,1,0,0:0:0:0:
320,192,328335,1,0,0:0:0:0:
192,192,328425,1,0,0:0:0:0:
448,192,328425,1,0,0:0:0:0:
64,192,328497,1,0,0:0:0:0:
320,192,328497,1,0,0:0:0:0:
192,192,328568,1,0,0:0:0:0:
64,192,328640,1,0,0:0:0:0:
448,192,328640,1,0,0:0:0:0:
64,192,328855,1,0,0:0:0:0:
448,192,328855,1,0,0:0:0:0:
192,0,328855,128,0,330146:1:0:0:0:
320,192,330146,1,0,0:0:0:0:
448,0,330146,128,0,330361:1:0:0:0:
192,192,330361,1,0,0:0:0:0:
320,0,330361,128,0,330576:1:0:0:0:
448,192,330468,1,0,0:0:0:0:
64,192,330576,1,0,0:0:0:0:
192,0,330576,128,0,330791:1:0:0:0:
320,192,330952,1,0,0:0:0:0:
192,192,331042,1,0,0:0:0:0:
448,192,331167,1,0,0:0:0:0:
192,192,331365,1,0,0:0:0:0:
64,0,331365,128,0,331454:1:0:0:0:
64,192,331571,1,0,0:0:0:0:
320,0,331571,128,0,331651:1:0:0:0:
448,192,331795,1,0,0:0:0:0:
64,0,331795,128,0,331884:1:0:0:0:
192,192,331893,1,0,0:0:0:0:
320,192,331992,1,0,0:0:0:0:
192,192,332082,1,0,0:0:0:0:
320,192,332189,1,0,0:0:0:0:
448,192,332189,1,0,0:0:0:0:
64,0,332225,128,0,332297:1:0:0:0:
192,192,332619,1,0,0:0:0:0:
448,192,332619,1,0,0:0:0:0:
192,192,332781,1,0,0:0:0:0:
448,192,332781,1,0,0:0:0:0:
64,192,332906,1,0,0:0:0:0:
192,192,332906,1,0,0:0:0:0:
192,192,333032,1,0,0:0:0:0:
320,192,333032,1,0,0:0:0:0:
192,192,333193,1,0,0:0:0:0:
64,192,333336,1,0,0:0:0:0:
320,192,333336,1,0,0:0:0:0:
320,192,333462,1,0,0:0:0:0:
448,192,333462,1,0,0:0:0:0:
192,192,333677,1,0,0:0:0:0:
320,192,333784,1,0,0:0:0:0:
448,192,333838,1,0,0:0:0:0:
192,192,333892,1,0,0:0:0:0:
448,192,333982,1,0,0:0:0:0:
320,192,334089,1,0,0:0:0:0:
64,192,334179,1,0,0:0:0:0:
192,192,334179,1,0,0:0:0:0:
320,192,334501,1,0,0:0:0:0:
64,0,334501,128,0,334932:1:0:0:0:
320,192,334932,1,0,0:0:0:0:
448,192,334932,1,0,0:0:0:0:
192,192,335039,1,0,0:0:0:0:
64,192,335147,1,0,0:0:0:0:
448,192,335147,1,0,0:0:0:0:
192,192,335362,1,0,0:0:0:0:
320,192,335559,1,0,0:0:0:0:
64,192,335667,1,0,0:0:0:0:
64,192,335774,1,0,0:0:0:0:
320,192,335873,1,0,0:0:0:0:
192,192,335980,1,0,0:0:0:0:
448,192,336204,1,0,0:0:0:0:
192,192,336249,1,0,0:0:0:0:
448,192,336303,1,0,0:0:0:0:
64,192,336348,1,0,0:0:0:0:
320,192,336401,1,0,0:0:0:0:
64,192,336509,1,0,0:0:0:0:
192,192,336509,1,0,0:0:0:0:
192,192,336599,1,0,0:0:0:0:
320,192,336706,1,0,0:0:0:0:
64,192,336814,1,0,0:0:0:0:
448,192,336814,1,0,0:0:0:0:
192,192,337029,1,0,0:0:0:0:
448,192,337029,1,0,0:0:0:0:
64,192,337101,1,0,0:0:0:0:
192,192,337163,1,0,0:0:0:0:
448,192,337217,1,0,0:0:0:0:
192,192,337280,1,0,0:0:0:0:
320,192,337352,1,0,0:0:0:0:
448,0,337441,128,0,337567:1:0:0:0:
64,192,337674,1,0,0:0:0:0:
320,192,337674,1,0,0:0:0:0:
448,192,337674,1,0,0:0:0:0:
320,192,337871,1,0,0:0:0:0:
192,192,337943,1,0,0:0:0:0:
320,192,337997,1,0,0:0:0:0:
64,192,338069,1,0,0:0:0:0:
448,192,338131,1,0,0:0:0:0:
192,0,338293,128,0,338346:1:0:0:0:
448,192,338499,1,0,0:0:0:0:
320,0,338499,128,0,338570:1:0:0:0:
64,192,338929,1,0,0:0:0:0:
448,192,338929,1,0,0:0:0:0:
192,192,339019,1,0,0:0:0:0:
448,192,339019,1,0,0:0:0:0:
192,192,339126,1,0,0:0:0:0:
320,192,339126,1,0,0:0:0:0:
64,192,339234,1,0,0:0:0:0:
320,0,339234,128,0,339538:1:0:0:0:
64,192,339538,1,0,0:0:0:0:
448,192,339538,1,0,0:0:0:0:
192,192,339664,1,0,0:0:0:0:
320,192,339664,1,0,0:0:0:0:
64,192,339771,1,0,0:0:0:0:
448,192,339771,1,0,0:0:0:0:
192,192,339897,1,0,0:0:0:0:
320,192,339897,1,0,0:0:0:0:
320,192,340022,1,0,0:0:0:0:
448,192,340022,1,0,0:0:0:0:
64,0,340112,128,0,340148:1:0:0:0:
192,192,340291,1,0,0:0:0:0:
320,192,340291,1,0,0:0:0:0:
64,0,340497,128,0,340605:1:0:0:0:
192,0,340703,128,0,340919:1:0:0:0:
320,0,340919,128,0,341116:1:0:0:0:
64,192,341116,1,0,0:0:0:0:
448,0,341116,128,0,341331:1:0:0:0:
320,0,341331,128,0,341654:1:0:0:0:
64,192,341654,1,0,0:0:0:0:
192,192,341654,1,0,0:0:0:0:
192,192,341842,1,0,0:0:0:0:
448,192,341949,1,0,0:0:0:0:
320,192,342057,1,0,0:0:0:0:
448,192,342057,1,0,0:0:0:0:
192,192,342164,1,0,0:0:0:0:
64,192,342272,1,0,0:0:0:0:
192,192,342272,1,0,0:0:0:0:
320,0,342379,128,0,342433:1:0:0:0:
64,192,342487,1,0,0:0:0:0:
448,0,342487,128,0,342729:1:0:0:0:
64,192,342890,1,0,0:0:0:0:
320,192,342890,1,0,0:0:0:0:
192,192,342980,1,0,0:0:0:0:
448,192,343025,1,0,0:0:0:0:
320,192,343070,1,0,0:0:0:0:
192,192,343105,1,0,0:0:0:0:
64,192,343213,1,0,0:0:0:0:
320,192,343321,1,0,0:0:0:0:
192,192,343428,1,0,0:0:0:0:
64,192,343751,1,0,0:0:0:0:
448,192,343751,1,0,0:0:0:0:
192,192,343858,1,0,0:0:0:0:
320,192,343966,1,0,0:0:0:0:
448,192,343966,1,0,0:0:0:0:
64,192,344073,1,0,0:0:0:0:
320,192,344181,1,0,0:0:0:0:
192,192,344288,1,0,0:0:0:0:
448,192,344288,1,0,0:0:0:0:
64,192,344396,1,0,0:0:0:0:
192,192,344396,1,0,0:0:0:0:
448,192,344790,1,0,0:0:0:0:
192,0,344790,128,0,344844:1:0:0:0:
192,0,345149,128,0,345633:1:0:0:0:
64,192,345230,1,0,0:0:0:0:
448,192,345230,1,0,0:0:0:0:
448,192,345633,1,0,0:0:0:0:
320,192,345669,1,0,0:0:0:0:
192,192,345705,1,0,0:0:0:0:
64,192,345740,1,0,0:0:0:0:
448,192,345776,1,0,0:0:0:0:
320,192,345812,1,0,0:0:0:0:
192,192,345848,1,0,0:0:0:0:
64,192,345920,1,0,0:0:0:0:
320,192,345991,1,0,0:0:0:0:
448,192,346063,1,0,0:0:0:0:
64,192,346135,1,0,0:0:0:0:
192,192,346206,1,0,0:0:0:0:
448,192,346278,1,0,0:0:0:0:
320,192,346350,1,0,0:0:0:0:
64,192,346422,1,0,0:0:0:0:
192,192,346493,1,0,0:0:0:0:
448,192,346565,1,0,0:0:0:0:
320,192,346637,1,0,0:0:0:0:
192,192,346708,1,0,0:0:0:0:
64,192,346780,1,0,0:0:0:0:
320,192,346852,1,0,0:0:0:0:
448,192,346923,1,0,0:0:0:0:
192,192,346995,1,0,0:0:0:0:
64,192,347067,1,0,0:0:0:0:
320,192,347139,1,0,0:0:0:0:
448,192,347210,1,0,0:0:0:0:
192,192,347282,1,0,0:0:0:0:
64,192,347354,1,0,0:0:0:0:
448,192,347425,1,0,0:0:0:0:
320,192,347497,1,0,0:0:0:0:
64,192,347569,1,0,0:0:0:0:
192,192,347640,1,0,0:0:0:0:
320,192,347712,1,0,0:0:0:0:
448,192,347784,1,0,0:0:0:0:
192,192,347856,1,0,0:0:0:0:
64,192,347927,1,0,0:0:0:0:
448,192,347999,1,0,0:0:0:0:
320,192,348071,1,0,0:0:0:0:
64,192,348142,1,0,0:0:0:0:
192,192,348214,1,0,0:0:0:0:
320,192,348286,1,0,0:0:0:0:
448,192,348357,1,0,0:0:0:0:
192,192,348429,1,0,0:0:0:0:
320,192,348501,1,0,0:0:0:0:
192,192,348573,1,0,0:0:0:0:
64,0,348573,128,0,348644:1:0:0:0:
192,192,348779,1,0,0:0:0:0:
448,192,348779,1,0,0:0:0:0:
320,0,348985,128,0,349030:1:0:0:0:
64,192,349397,1,0,0:0:0:0:
320,0,349397,128,0,349451:1:0:0:0:
192,0,349594,128,0,349621:1:0:0:0:
64,192,349827,1,0,0:0:0:0:
320,192,349971,1,0,0:0:0:0:
448,192,349971,1,0,0:0:0:0:
64,192,350078,1,0,0:0:0:0:
192,192,350222,1,0,0:0:0:0:
320,0,350222,128,0,350258:1:0:0:0:
448,192,350455,1,0,0:0:0:0:
192,192,350544,1,0,0:0:0:0:
64,192,350580,1,0,0:0:0:0:
320,192,350652,1,0,0:0:0:0:
448,0,350652,128,0,350724:1:0:0:0:
192,192,350876,1,0,0:0:0:0:
64,192,350975,1,0,0:0:0:0:
320,192,351082,1,0,0:0:0:0:
448,0,351082,128,0,351154:1:0:0:0:
64,192,351297,1,0,0:0:0:0:
320,192,351297,1,0,0:0:0:0:
192,0,351512,128,0,351584:1:0:0:0:
320,0,351709,128,0,351763:1:0:0:0:
64,192,351925,1,0,0:0:0:0:
192,192,351925,1,0,0:0:0:0:
320,192,352005,1,0,0:0:0:0:
192,192,352140,1,0,0:0:0:0:
320,192,352229,1,0,0:0:0:0:
192,192,352355,1,0,0:0:0:0:
448,0,352355,128,0,352462:1:0:0:0:
320,192,352624,1,0,0:0:0:0:
64,0,352624,128,0,352731:1:0:0:0:
448,192,352892,1,0,0:0:0:0:
320,192,352919,1,0,0:0:0:0:
64,192,352973,1,0,0:0:0:0:
192,0,352973,128,0,353108:1:0:0:0:
64,0,354022,128,0,354076:1:0:0:0:
192,0,354022,128,0,354076:1:0:0:0:
320,0,354452,128,0,355097:1:0:0:0:
64,192,355259,1,0,0:0:0:0:
448,192,355259,1,0,0:0:0:0:
320,0,355259,128,0,355420:1:0:0:0:
192,192,355420,1,0,0:0:0:0:
448,192,355420,1,0,0:0:0:0:
64,0,355420,128,0,355581:1:0:0:0:
320,192,355707,1,0,0:0:0:0:
448,192,355707,1,0,0:0:0:0:
192,192,355832,1,0,0:0:0:0:
320,192,355976,1,0,0:0:0:0:
64,192,356119,1,0,0:0:0:0:
192,192,356119,1,0,0:0:0:0:
320,192,356244,1,0,0:0:0:0:
448,192,356244,1,0,0:0:0:0:
64,192,356370,1,0,0:0:0:0:
192,192,356531,1,0,0:0:0:0:
320,192,356531,1,0,0:0:0:0:
320,192,356961,1,0,0:0:0:0:
448,192,356961,1,0,0:0:0:0:
192,192,357087,1,0,0:0:0:0:
320,192,357194,1,0,0:0:0:0:
448,192,357194,1,0,0:0:0:0:
64,192,357329,1,0,0:0:0:0:
192,192,357329,1,0,0:0:0:0:
320,192,357410,1,0,0:0:0:0:
448,192,357490,1,0,0:0:0:0:
192,192,357571,1,0,0:0:0:0:
64,192,357678,1,0,0:0:0:0:
192,192,357678,1,0,0:0:0:0:
192,192,357947,1,0,0:0:0:0:
448,192,357947,1,0,0:0:0:0:
192,192,358055,1,0,0:0:0:0:
448,192,358055,1,0,0:0:0:0:
64,192,358180,1,0,0:0:0:0:
192,192,358324,1,0,0:0:0:0:
448,192,358324,1,0,0:0:0:0:
192,192,358431,1,0,0:0:0:0:
320,192,358431,1,0,0:0:0:0:
448,192,358593,1,0,0:0:0:0:
320,192,358682,1,0,0:0:0:0:
64,192,358772,1,0,0:0:0:0:
192,192,358772,1,0,0:0:0:0:
448,192,358888,1,0,0:0:0:0:
192,192,359005,1,0,0:0:0:0:
320,192,359005,1,0,0:0:0:0:
64,192,359112,1,0,0:0:0:0:
192,192,359112,1,0,0:0:0:0:
320,192,359238,1,0,0:0:0:0:
448,192,359319,1,0,0:0:0:0:
320,192,359399,1,0,0:0:0:0:
64,192,359507,1,0,0:0:0:0:
448,192,359507,1,0,0:0:0:0:
192,192,359758,1,0,0:0:0:0:
320,192,359758,1,0,0:0:0:0:
192,192,359865,1,0,0:0:0:0:
448,192,359865,1,0,0:0:0:0:
64,192,359991,1,0,0:0:0:0:
320,192,360116,1,0,0:0:0:0:
448,192,360116,1,0,0:0:0:0:
64,192,360475,1,0,0:0:0:0:
192,192,360475,1,0,0:0:0:0:
192,192,360582,1,0,0:0:0:0:
448,192,360582,1,0,0:0:0:0:
192,192,360941,1,0,0:0:0:0:
320,0,360941,128,0,360977:1:0:0:0:
320,192,361210,1,0,0:0:0:0:
64,0,361210,128,0,361254:1:0:0:0:
192,192,361443,1,0,0:0:0:0:
448,0,361443,128,0,361496:1:0:0:0:
448,192,361676,1,0,0:0:0:0:
64,0,361676,128,0,361721:1:0:0:0:
320,192,362034,1,0,0:0:0:0:
448,192,362034,1,0,0:0:0:0:
192,192,362160,1,0,0:0:0:0:
448,192,362285,1,0,0:0:0:0:
64,192,362411,1,0,0:0:0:0:
320,192,362500,1,0,0:0:0:0:
192,192,362590,1,0,0:0:0:0:
320,192,362680,1,0,0:0:0:0:
64,192,362769,1,0,0:0:0:0:
192,192,362769,1,0,0:0:0:0:
448,192,362895,1,0,0:0:0:0:
320,192,363020,1,0,0:0:0:0:
64,192,363146,1,0,0:0:0:0:
448,192,363146,1,0,0:0:0:0:
192,0,363146,128,0,363271:1:0:0:0:
192,192,363504,1,0,0:0:0:0:
320,192,363630,1,0,0:0:0:0:
192,192,363755,1,0,0:0:0:0:
64,192,363863,1,0,0:0:0:0:
320,192,363997,1,0,0:0:0:0:
448,192,363997,1,0,0:0:0:0:
192,192,364105,1,0,0:0:0:0:
320,192,364212,1,0,0:0:0:0:
64,192,364400,1,0,0:0:0:0:
448,192,364400,1,0,0:0:0:0:
192,0,364400,128,0,364535:1:0:0:0:
192,192,364947,1,0,0:0:0:0:
320,192,365019,1,0,0:0:0:0:
192,192,365046,1,0,0:0:0:0:
448,192,365099,1,0,0:0:0:0:
64,192,365135,1,0,0:0:0:0:
192,192,365189,1,0,0:0:0:0:
448,192,365243,1,0,0:0:0:0:
320,192,365315,1,0,0:0:0:0:
64,192,365404,1,0,0:0:0:0:
448,192,365404,1,0,0:0:0:0:
192,0,365404,128,0,365637:1:0:0:0:
320,0,366067,128,0,367143:1:0:0:0:
192,0,367143,128,0,367519:1:0:0:0:
448,0,367519,128,0,368218:1:0:0:0:
192,192,368218,1,0,0:0:0:0:
320,192,368218,1,0,0:0:0:0:
64,192,368353,1,0,0:0:0:0:
320,192,368353,1,0,0:0:0:0:
192,192,368460,1,0,0:0:0:0:
448,192,368460,1,0,0:0:0:0:
64,192,368595,1,0,0:0:0:0:
192,192,368595,1,0,0:0:0:0:
320,192,368684,1,0,0:0:0:0:
448,192,368684,1,0,0:0:0:0:
64,192,368774,1,0,0:0:0:0:
192,192,368774,1,0,0:0:0:0:
320,192,368864,1,0,0:0:0:0:
448,192,368864,1,0,0:0:0:0:
64,192,368953,1,0,0:0:0:0:
320,192,368953,1,0,0:0:0:0:
192,192,369312,1,0,0:0:0:0:
320,192,369312,1,0,0:0:0:0:
192,192,369437,1,0,0:0:0:0:
448,192,369437,1,0,0:0:0:0:
64,192,369563,1,0,0:0:0:0:
320,192,369563,1,0,0:0:0:0:
192,192,369670,1,0,0:0:0:0:
320,192,369670,1,0,0:0:0:0:
192,192,369796,1,0,0:0:0:0:
448,192,369796,1,0,0:0:0:0:
64,192,369921,1,0,0:0:0:0:
320,192,369921,1,0,0:0:0:0:
64,192,370405,1,0,0:0:0:0:
448,192,370405,1,0,0:0:0:0:
192,192,370441,1,0,0:0:0:0:
64,192,370504,1,0,0:0:0:0:
320,192,370504,1,0,0:0:0:0:
448,192,370567,1,0,0:0:0:0:
192,192,370620,1,0,0:0:0:0:
320,192,370620,1,0,0:0:0:0:
448,192,370692,1,0,0:0:0:0:
64,192,370764,1,0,0:0:0:0:
320,192,370764,1,0,0:0:0:0:
192,192,371499,1,0,0:0:0:0:
320,192,371499,1,0,0:0:0:0:
192,192,371633,1,0,0:0:0:0:
448,192,371633,1,0,0:0:0:0:
320,192,371741,1,0,0:0:0:0:
64,192,371848,1,0,0:0:0:0:
448,192,371848,1,0,0:0:0:0:
320,192,371956,1,0,0:0:0:0:
448,192,371956,1,0,0:0:0:0:
192,192,372117,1,0,0:0:0:0:
64,192,372520,1,0,0:0:0:0:
320,192,372574,1,0,0:0:0:0:
192,192,372628,1,0,0:0:0:0:
448,192,372628,1,0,0:0:0:0:
320,192,372709,1,0,0:0:0:0:
448,192,372762,1,0,0:0:0:0:
64,192,372816,1,0,0:0:0:0:
192,192,372816,1,0,0:0:0:0:
320,192,372879,1,0,0:0:0:0:
192,192,372951,1,0,0:0:0:0:
448,192,372951,1,0,0:0:0:0:
320,192,373703,1,0,0:0:0:0:
448,192,373703,1,0,0:0:0:0:
192,192,373757,1,0,0:0:0:0:
64,192,373811,1,0,0:0:0:0:
320,192,373865,1,0,0:0:0:0:
448,192,373865,1,0,0:0:0:0:
192,192,373892,1,0,0:0:0:0:
320,192,373945,1,0,0:0:0:0:
64,192,374026,1,0,0:0:0:0:
192,192,374026,1,0,0:0:0:0:
192,192,374743,1,0,0:0:0:0:
448,192,374743,1,0,0:0:0:0:
448,192,374886,1,0,0:0:0:0:
64,192,375030,1,0,0:0:0:0:
192,192,375030,1,0,0:0:0:0:
320,192,375137,1,0,0:0:0:0:
192,192,375245,1,0,0:0:0:0:
448,192,375245,1,0,0:0:0:0:
64,192,375388,1,0,0:0:0:0:
192,192,375388,1,0,0:0:0:0:
320,192,375496,1,0,0:0:0:0:
448,192,375496,1,0,0:0:0:0:
64,192,375854,1,0,0:0:0:0:
192,192,375908,1,0,0:0:0:0:
320,192,375962,1,0,0:0:0:0:
448,192,375962,1,0,0:0:0:0:
64,192,376043,1,0,0:0:0:0:
192,192,376096,1,0,0:0:0:0:
320,192,376150,1,0,0:0:0:0:
64,192,376213,1,0,0:0:0:0:
448,192,376213,1,0,0:0:0:0:
64,192,376553,1,0,0:0:0:0:
320,192,376553,1,0,0:0:0:0:
192,192,376661,1,0,0:0:0:0:
448,192,376769,1,0,0:0:0:0:
320,192,376876,1,0,0:0:0:0:
192,192,376984,1,0,0:0:0:0:
448,0,376984,128,0,377199:1:0:0:0:
320,192,377217,1,0,0:0:0:0:
192,0,377217,128,0,377432:1:0:0:0:
320,192,377432,1,0,0:0:0:0:
64,0,377432,128,0,377539:1:0:0:0:
192,192,377539,1,0,0:0:0:0:
448,192,377539,1,0,0:0:0:0:
320,192,377647,1,0,0:0:0:0:
64,192,377754,1,0,0:0:0:0:
192,192,377754,1,0,0:0:0:0:
192,192,377862,1,0,0:0:0:0:
320,192,377952,1,0,0:0:0:0:
64,192,378023,1,0,0:0:0:0:
320,192,378023,1,0,0:0:0:0:
192,192,378113,1,0,0:0:0:0:
448,192,378113,1,0,0:0:0:0:
64,192,378203,1,0,0:0:0:0:
320,192,378203,1,0,0:0:0:0:
192,192,378310,1,0,0:0:0:0:
320,192,378418,1,0,0:0:0:0:
448,192,378418,1,0,0:0:0:0:
320,192,378525,1,0,0:0:0:0:
192,192,378597,1,0,0:0:0:0:
192,192,378669,1,0,0:0:0:0:
448,192,378669,1,0,0:0:0:0:
64,192,378776,1,0,0:0:0:0:
320,192,378776,1,0,0:0:0:0:
192,192,378866,1,0,0:0:0:0:
448,192,378866,1,0,0:0:0:0:
320,192,378973,1,0,0:0:0:0:
192,192,379081,1,0,0:0:0:0:
64,192,379188,1,0,0:0:0:0:
448,192,379188,1,0,0:0:0:0:
192,192,379296,1,0,0:0:0:0:
320,0,379296,128,0,379511:1:0:0:0:
448,192,379511,1,0,0:0:0:0:
192,0,379511,128,0,379726:1:0:0:0:
320,192,379726,1,0,0:0:0:0:
448,0,379726,128,0,379941:1:0:0:0:
64,192,380183,1,0,0:0:0:0:
448,192,380183,1,0,0:0:0:0:
320,192,380264,1,0,0:0:0:0:
320,192,380372,1,0,0:0:0:0:
64,192,380497,1,0,0:0:0:0:
192,192,380497,1,0,0:0:0:0:
320,192,380605,1,0,0:0:0:0:
448,192,380605,1,0,0:0:0:0:
64,192,380730,1,0,0:0:0:0:
192,192,380730,1,0,0:0:0:0:
192,192,380855,1,0,0:0:0:0:
448,0,380855,128,0,381053:1:0:0:0:
320,192,380963,1,0,0:0:0:0:
64,192,381053,1,0,0:0:0:0:
192,0,381053,128,0,381286:1:0:0:0:
448,192,381286,1,0,0:0:0:0:
64,0,381286,128,0,381501:1:0:0:0:
320,192,381501,1,0,0:0:0:0:
448,192,381501,1,0,0:0:0:0:
192,192,381555,1,0,0:0:0:0:
320,192,381644,1,0,0:0:0:0:
192,192,381734,1,0,0:0:0:0:
64,192,381823,1,0,0:0:0:0:
448,192,381823,1,0,0:0:0:0:
320,192,381949,1,0,0:0:0:0:
192,0,382056,128,0,382307:1:0:0:0:
320,192,382164,1,0,0:0:0:0:
64,192,382325,1,0,0:0:0:0:
448,0,382325,128,0,382764:1:0:0:0:
192,192,382845,1,0,0:0:0:0:
64,0,382845,128,0,384566:1:0:0:0:
448,0,382845,128,0,384566:1:0:0:0:
192,192,386717,1,0,0:0:0:0:
448,192,386860,1,0,0:0:0:0:
448,192,387111,1,0,0:0:0:0:
192,192,387416,1,0,0:0:0:0:
192,192,387631,1,0,0:0:0:0:
64,192,387810,1,0,0:0:0:0:
64,0,388922,128,0,389083:1:0:0:0:
320,192,389083,1,0,0:0:0:0:
320,192,389244,1,0,0:0:0:0:
192,192,389325,1,0,0:0:0:0:
448,0,389540,128,0,389755:1:0:0:0:
