osu file format v14

[General]
AudioFilename: audio.mp3
AudioLeadIn: 0
PreviewTime: 90439
Countdown: 1
SampleSet: Soft
StackLeniency: 0.7
Mode: 0
LetterboxInBreaks: 0
WidescreenStoryboard: 0

[Editor]
Bookmarks: 57439
DistanceSpacing: 0.2
BeatDivisor: 3
GridSize: 4
TimelineZoom: 2.2

[Metadata]
Title:Jazz is Rad
TitleUnicode:Jazz is Rad
Artist:ARM(IOSYS)+Brasscapsule
ArtistUnicode:ARM(IOSYS)+Brasscapsule
Creator:Zetera
Version:Cool and Good
Source:jubeat clan
Tags:
BeatmapID:1779635
BeatmapSetID:851308

[Difficulty]
HPDrainRate:7
CircleSize:4
OverallDifficulty:8
ApproachRate:9
SliderMultiplier:2.5
SliderTickRate:1

[Events]
//Background and Video events
0,0,"res pls.jpg",0,0
//Break Periods
2,44138,44839
//Storyboard Layer 0 (Background)
//Storyboard Layer 1 (Fail)
//Storyboard Layer 2 (Pass)
//Storyboard Layer 3 (Foreground)
//Storyboard Sound Samples

[TimingPoints]
1939,375,4,2,1,40,1,0
1939,-100,4,2,1,70,0,0
2595,-250,4,2,1,70,0,0
3439,-100,4,2,1,70,0,0
4095,-250,4,2,1,70,0,0
5032,-90.9090909090909,4,2,1,70,0,0
5595,-222.222222222222,4,2,1,70,0,0
6532,-90.9090909090909,4,2,1,70,0,0
8032,-62.5,4,2,1,70,0,0
8314,-125,4,2,1,70,0,0
8595,-100,4,2,1,70,0,0
8782,-66.6666666666667,4,2,1,70,0,0
9064,-133.333333333333,4,2,1,70,0,0
9345,-52.6315789473684,4,2,1,70,0,0
9532,-111.111111111111,4,2,1,70,0,0
10095,-52.6315789473684,4,2,1,70,0,0
10282,-111.111111111111,4,2,1,70,0,0
10845,-52.6315789473684,4,2,1,70,0,0
11032,-111.111111111111,4,2,1,70,0,0
11595,-52.6315789473684,4,2,1,70,0,0
11782,-111.111111111111,4,2,1,70,0,0
15439,-83.3333333333333,4,2,2,70,0,1
16095,-58.8235294117647,4,2,2,70,0,1
16376,-71.4285714285714,4,2,2,70,0,1
16939,-83.3333333333333,4,2,2,70,0,1
17595,-55.5555555555556,4,2,2,70,0,1
18064,-71.4285714285714,4,2,2,70,0,1
18439,-111.111111111111,4,2,2,70,0,1
19189,-66.6666666666667,4,2,2,70,0,1
19939,-133.333333333333,4,2,1,70,0,1
20689,-100,4,2,2,70,0,1
21439,-83.3333333333333,4,2,2,70,0,1
22095,-58.8235294117647,4,2,2,70,0,1
22376,-71.4285714285714,4,2,2,70,0,1
22939,-83.3333333333333,4,2,2,70,0,1
23314,-142.857142857143,4,2,2,70,0,1
23595,-55.5555555555556,4,2,2,70,0,1
24064,-66.6666666666667,4,2,2,70,0,1
24439,-66.6666666666667,4,2,1,70,0,1
24720,-100,4,2,1,70,0,1
25001,-125,4,2,1,70,0,1
26689,-125,4,3,0,70,0,1
27439,-250,4,2,2,70,0,0
27720,-250,4,2,2,5,0,0
27814,-76.9230769230769,4,2,2,70,0,0
28189,-133.333333333333,4,2,2,70,0,0
31564,-100,4,2,2,70,0,0
31939,-83.3333333333333,4,2,2,70,0,0
32314,-100,4,2,2,50,0,0
32689,-125,4,2,2,30,0,0
33064,-166.666666666667,4,2,2,10,0,0
33439,-166.666666666667,4,2,2,40,0,0
33626,-83.3333333333334,4,2,2,70,0,0
34001,-111.111111111111,4,2,2,70,0,0
34939,-71.4285714285714,4,2,1,70,0,0
36814,-142.857142857143,4,2,1,70,0,0
37095,-100,4,2,1,70,0,0
37470,-100,4,2,1,5,0,0
37564,-100,4,2,1,70,0,0
37939,-71.4285714285714,4,2,1,70,0,0
38314,-142.857142857143,4,2,1,70,0,0
38689,-100,4,2,1,70,0,0
39439,-71.4285714285714,4,2,1,70,0,0
39814,-142.857142857143,4,2,1,70,0,0
40095,-100,4,2,1,70,0,0
41032,-71.4285714285714,4,2,1,70,0,0
41314,-142.857142857143,4,2,1,70,0,0
41595,-50,4,2,1,70,0,0
45439,-125,4,2,1,70,0,0
51439,-100,4,2,2,70,0,0
55564,-71.4285714285714,4,2,2,70,0,0
56126,-142.857142857143,4,2,2,70,0,0
56595,-100,4,2,2,70,0,0
57064,-76.9230769230769,4,2,2,70,0,0
58657,-111.111111111111,4,2,2,70,0,0
58939,-76.9230769230769,4,2,2,70,0,0
63720,-90.9090909090909,4,2,2,70,0,0
64564,-83.3333333333333,4,2,2,70,0,0
64939,-76.9230769230769,4,2,2,70,0,0
66626,-86.9565217391304,4,2,2,70,0,0
68032,-100,4,2,2,70,0,0
68314,-125,4,2,2,70,0,0
68689,-166.666666666667,4,2,2,70,0,0
69064,-83.3333333333333,4,2,2,70,0,0
69439,-133.333333333333,4,2,2,70,0,0
71501,-66.6666666666667,4,2,2,70,0,0
71689,-100,4,2,2,70,0,0
72814,-58.8235294117647,4,2,2,70,0,0
73189,-133.333333333333,4,2,2,70,0,0
75439,-66.6666666666667,4,2,2,70,0,0
76189,-133.333333333333,4,2,2,70,0,0
76939,-200,4,2,2,70,0,0
79376,-100,4,2,2,70,0,0
79939,-250,4,2,2,70,0,0
81439,-83.3333333333333,4,2,2,70,0,0
84157,-100,4,2,2,70,0,0
86689,-125,4,2,2,70,0,0
87814,-100,4,2,2,70,0,0
90064,-133.333333333333,4,2,2,70,0,0
90439,-200,4,2,2,70,0,0
90814,-200,4,2,2,5,0,0
91095,-66.6666666666667,4,2,2,55,0,0
93439,-57.1428571428571,4,2,2,55,0,0
93673,-57.1428571428571,4,2,2,5,0,0
93720,-57.1428571428571,4,2,2,55,0,0
93814,-41.6666666666667,4,2,2,55,0,0
93954,-41.6666666666667,4,2,2,5,0,0
94001,-83.3333333333333,4,2,2,55,0,0
94235,-83.3333333333333,4,2,2,5,0,0
94282,-125,4,2,2,55,0,0
94517,-125,4,2,2,5,0,0
94564,-58.8235294117647,4,2,2,55,0,0
94939,-66.6666666666667,4,2,2,70,0,1
95689,-50,4,2,2,70,0,1
96157,-100,4,2,2,70,0,1
96439,-66.6666666666667,4,2,2,70,0,1
97095,-40,4,2,2,70,0,1
97189,-50,4,2,2,70,0,1
97376,-100,4,2,2,70,0,1
97939,-66.6666666666667,4,2,2,70,0,1
98689,-50,4,2,2,70,0,1
99439,-100,4,2,1,70,0,1
100189,-66.6666666666667,4,2,2,70,0,1
101689,-50,4,2,2,70,0,1
102157,-100,4,2,2,70,0,1
102439,-66.6666666666667,4,2,2,70,0,1
103095,-40,4,2,2,70,0,1
103189,-50,4,2,2,70,0,1
103329,-100,4,2,2,70,0,1
103939,-83.3333333333333,4,2,1,70,0,1
104595,-125,4,2,1,70,0,1
105439,-90.9090909090909,4,2,1,70,0,0
105720,-76.9230769230769,4,2,1,70,0,0
106189,-90.9090909090909,4,2,1,70,0,0
106470,-76.9230769230769,4,2,1,70,0,0
106939,-90.9090909090909,4,2,1,70,0,0
107220,-76.9230769230769,4,2,1,70,0,0
107689,-90.9090909090909,4,2,1,70,0,0
107970,-76.9230769230769,4,2,1,70,0,0
108439,-83.3333333333333,4,2,1,70,0,0
109282,-111.111111111111,4,2,1,70,0,0
110126,-166.666666666667,4,2,1,70,0,0
110407,-250,4,2,1,70,0,0
110689,-500,4,2,1,70,0,0

[Colours]
Combo1 : 199,208,176
Combo2 : 73,207,245
Combo3 : 251,191,68
Combo4 : 255,128,192
Combo5 : 105,203,154

[HitObjects]
303,129,1564,5,2,0:0:0:0:
318,127,1657,1,0,0:0:0:0:
333,126,1751,1,2,0:0:0:0:
349,125,1845,1,2,0:0:0:0:
362,124,1939,5,0,1:0:0:0:
388,136,2032,2,0,B|408:116|408:116|387:9,1,125,12|0,0:1|0:0,0:0:0:0:
321,201,2314,2,0,B|301:221|301:221|322:328,1,125,0|0,1:0|0:0,0:0:0:0:
512,261,2595,6,0,L|386:248,1,125,4|2,1:2|0:0,0:0:0:0:
96,219,3251,1,0,0:0:0:0:
113,215,3345,1,2,0:0:0:0:
130,211,3439,5,0,1:0:0:0:
202,177,3532,2,0,P|176:241|180:302,1,125,12|0,1:0|0:0,0:0:0:0:
132,128,3814,2,0,P|107:60|53:15,1,125,0|0,1:0|0:0,0:0:0:0:
191,33,4095,6,0,L|301:20,1,100,4|0,1:2|0:0,0:0:0:0:
403,67,4564,2,0,L|348:75,1,50,2|0,0:0|0:0,0:0:0:0:
272,135,4845,2,0,L|309:129,1,25,0|2,0:0|0:0,0:0:0:0:
428,178,5032,6,0,B|449:220|449:220|426:335,1,137.500004196167,12|0,1:0|0:0,0:0:0:0:
365,373,5314,2,0,B|344:331|344:331|367:216,1,137.500004196167,0|0,1:0|0:0,0:0:0:0:
508,156,5595,6,0,P|467:173|403:175,1,84.3749974250795,4|0,1:2|0:0,0:0:0:0:
149,81,6064,1,2,0:0:0:0:
166,89,6157,1,0,0:0:0:0:
184,95,6251,1,2,0:0:0:0:
203,97,6345,1,2,0:0:0:0:
222,95,6439,5,0,1:0:0:0:
276,38,6532,2,0,P|255:122|253:214,1,137.500004196167,12|0,1:0|0:0,0:0:0:0:
154,11,6814,2,0,P|158:95|172:155,1,137.500004196167,0|0,1:0|0:0,0:0:0:0:
26,41,7095,6,0,P|42:71|63:98,1,68.7500020980836,4|0,1:2|0:0,1:0:0:0:
25,178,7282,1,0,1:0:0:0:
23,191,7376,1,0,1:0:0:0:
21,204,7470,1,0,1:0:0:0:
19,217,7564,1,0,1:0:0:0:
17,230,7657,1,0,1:0:0:0:
15,243,7751,1,0,1:0:0:0:
165,274,7939,5,4,1:3:0:0:
172,287,8032,2,0,B|106:293|106:293|64:334|64:334|-15:339,1,200,12|0,1:0|2:0,0:0:0:0:
117,111,8314,6,0,L|100:227,1,100,8|0,1:0|0:0,0:0:0:0:
158,369,8595,2,0,L|263:358,1,62.5,8|0,1:0|0:0,0:0:0:0:
361,217,8782,54,0,B|407:250|407:250|390:382,1,187.500007152558,2|0,1:3|0:0,0:0:0:0:
277,298,9064,6,0,L|323:293,1,46.8750017881394,2|8,0:3|1:0,0:0:0:0:
422,123,9345,54,0,B|402:-13|402:-13,1,118.749996829033,4|0,1:2|0:0,0:0:0:0:
472,203,9532,6,0,B|325:221,1,112.499996566773,10|0,1:3|0:0,0:0:0:0:
323,292,9814,2,0,L|334:377,1,56.2499982833863,8|0,0:1|0:0,0:0:0:0:
323,76,10095,54,0,B|266:57|266:57|214:86,1,118.749996829033,4|8,1:2|0:3,0:0:0:0:
158,166,10282,6,0,L|277:178,1,112.499996566773,2|0,1:3|0:0,0:0:0:0:
137,22,10564,1,2,0:3:0:0:
125,33,10657,2,0,L|132:103,1,56.2499982833863,8|0,1:0|0:0,0:0:0:0:
42,71,10845,54,0,L|57:225,1,118.749996829033,12|0,1:2|0:0,0:0:0:0:
163,252,11032,6,0,B|94:264|94:264|79:293|79:293|8:307,1,168.749994850159,2|2,1:3|0:3,0:0:0:0:
0,296,11407,1,8,0:1:0:0:
243,353,11595,54,0,L|255:205,1,118.749996829033,4|0,1:2|0:0,0:0:0:0:
226,98,11782,6,0,B|290:110|290:110|305:139|305:139|374:151,1,168.749994850159,2|2,1:3|0:3,0:0:0:0:
393,144,12157,1,8,0:1:0:0:
142,165,12345,5,4,1:0:0:0:
256,192,12439,12,0,15064,0:0:0:0:
285,103,15439,6,0,B|346:104|346:104|367:84|367:84|443:84,1,149.999995422363,12|2,1:0|0:0,0:0:0:0:
488,22,15720,1,0,0:0:0:0:
498,18,15814,2,0,P|525:93|460:170,1,149.999995422363,10|2,1:3|0:0,0:0:0:0:
238,26,16095,5,2,0:1:0:0:
238,26,16189,2,2,L|109:36,1,106.250002026558,8|0,1:3|0:0,0:1:0:0:
290,190,16376,6,0,L|100:173,1,174.999994659424,2|10,2:1|1:3,0:0:0:0:
13,96,16657,2,0,B|-16:130|-16:130|14:316,1,174.999994659424,2|0,0:1|0:0,0:0:0:0:
224,299,16939,38,0,B|180:361|180:361|98:296,1,149.999995422363,8|2,1:0|0:0,0:0:0:0:
291,353,17220,1,0,0:0:0:0:
291,353,17314,2,0,L|459:337,1,149.999995422363,10|2,1:3|0:0,0:0:0:0:
486,165,17595,6,0,L|420:157,1,56.2499982833863,2|0,0:1|0:1,0:0:0:0:
423,154,17689,2,0,L|409:-25,1,112.499996566773,8|0,1:0|0:0,0:0:0:0:
431,248,17876,1,2,0:1:0:0:
329,43,18064,5,10,1:3:0:0:
330,61,18157,2,2,B|243:68|151:50|151:50,1,174.999994659424,2|0,0:1|0:0,0:1:0:0:
28,118,18439,38,0,P|47:175|65:258,1,112.499996566773,12|2,1:0|0:0,1:0:0:0:
31,304,18720,1,0,0:0:0:0:
24,309,18814,2,0,B|140:314,1,112.499996566773,10|2,1:3|0:2,0:0:0:0:
174,244,19095,1,2,2:1:0:0:
228,357,19189,6,0,P|241:299|281:262,1,93.7500035762788,8|0,1:0|0:0,0:0:0:0:
360,259,19376,2,0,L|141:241,1,187.500007152558,2|10,0:1|1:3,0:0:0:0:
188,116,19657,2,2,P|263:217|241:322,1,187.500007152558,0|0,0:0|0:0,0:1:0:0:
337,361,19939,38,2,L|475:345,1,125.000004768372,10|0,1:3|0:3,0:1:0:0:
360,259,20314,2,2,L|437:265,2,62.5000023841859,10|0|0,1:3|0:0|0:0,0:1:0:0:
449,162,20689,54,0,L|308:181,1,125,10|0,1:0|0:0,0:0:0:0:
348,71,20970,2,0,L|418:82,1,62.5,2|10,0:1|0:3,0:0:0:0:
254,54,21251,1,2,0:1:0:0:
1,176,21439,22,0,P|76:226|136:191,1,149.999995422363,12|2,1:0|0:0,0:0:0:0:
201,171,21720,1,0,0:0:0:0:
124,205,21814,2,0,P|88:217|76:345,1,149.999995422363,10|2,1:3|0:0,0:0:0:0:
75,146,22095,5,2,0:1:0:0:
75,146,22189,2,2,L|82:34,1,106.250002026558,8|0,1:0|0:0,0:1:0:0:
140,284,22376,6,2,B|203:261|203:261|147:411,1,174.999994659424,2|10,0:2|1:3,0:1:0:0:
201,171,22657,2,2,L|381:190,1,174.999994659424,0|0,0:0|0:0,0:1:0:0:
457,304,22939,38,0,B|491:328|491:328|473:178,1,149.999995422363,8|2,1:0|0:0,0:0:0:0:
348,17,23220,1,0,0:0:0:0:
424,22,23314,6,0,B|436:42|436:42|431:135,1,87.499997329712,10|2,1:3|0:0,0:0:0:0:
235,336,23595,6,0,L|303:332,1,56.2499982833863,2|0,0:1|0:0,0:0:0:0:
298,336,23689,2,0,B|303:262|276:181|276:181,1,112.499996566773,8|0,1:0|0:0,0:0:0:0:
309,134,23876,1,2,0:0:0:0:
166,31,24064,37,2,1:3:0:0:
177,36,24157,2,0,B|195:121|179:232|179:232,1,187.500007152558,2|0,0:1|0:0,0:0:0:0:
108,160,24439,37,8,1:3:0:0:
91,171,24532,1,0,0:0:0:0:
74,182,24626,1,2,0:3:0:0:
59,193,24720,2,0,P|52:132|48:57,1,125,0|0,1:0|0:0,0:0:0:0:
262,192,25001,5,2,0:3:0:0:
278,207,25095,2,0,B|291:122|281:68|281:68,1,125,8|8,1:0|1:3,0:0:0:0:
185,238,25439,54,0,P|186:276|194:310,1,66.6666666666667,10|2,1:3|0:3,0:0:0:0:
364,250,25689,2,0,P|367:212|366:177,1,66.6666666666667,10|8,1:3|0:1,0:0:0:0:
83,187,25939,21,8,1:1:0:0:
83,187,26220,2,0,B|63:218|63:218|82:357,1,150,4|2,1:0|0:0,0:0:0:0:
35,69,26689,1,8,0:0:0:0:
63,103,26782,1,8,0:0:0:0:
107,107,26876,1,8,0:0:0:0:
149,92,26970,1,8,0:0:0:0:
172,53,27064,1,4,0:0:0:0:
213,36,27157,1,4,0:0:0:0:
257,42,27251,1,4,0:0:0:0:
289,73,27345,1,4,0:0:0:0:
298,116,27439,38,0,L|297:195,1,75,8|0,0:1|0:0,0:0:0:0:
364,248,27814,6,0,B|398:216|398:216|383:98,1,162.499992561341,12|2,1:0|0:0,0:0:0:0:
423,321,28189,1,8,0:1:0:0:
407,334,28282,2,0,L|271:325,1,93.7500035762788,2|0,0:0|0:0,0:0:0:0:
224,289,28564,2,0,P|242:362|241:424,1,93.7500035762788,12|2,1:3|0:0,0:0:0:0:
297,190,28939,6,0,L|303:29,1,140.625005364418,8|2,0:3|0:0,0:0:0:0:
232,7,29314,2,0,P|187:11|155:20,2,46.8750017881394,8|0|2,3:3|0:0|0:0,0:0:0:0:
28,113,29689,53,8,0:1:0:0:
39,126,29782,2,0,P|95:133|148:118,1,93.7500035762788,2|0,0:0|0:0,0:0:0:0:
149,111,30064,2,0,L|140:233,1,93.7500035762788,8|0,3:3|1:0,0:0:0:0:
39,292,30439,5,8,0:1:0:0:
215,331,30626,2,0,B|266:297|266:297|253:136,1,187.500007152558,4|2,1:0|0:0,0:0:0:0:
330,339,31189,1,8,0:1:0:0:
341,348,31282,2,0,P|398:356|467:348,1,93.7500035762788,2|2,0:0|0:0,0:0:0:0:
471,226,31564,2,0,B|502:209|502:209|486:256|493:333,1,125,8|2,3:0|0:0,0:0:0:0:
345,31,31939,54,0,P|334:104|364:264,1,224.999993133545,12|0,1:3|0:0,0:0:0:0:
237,76,32314,6,0,P|227:137|235:199,1,125,12|0,0:3|0:0,0:0:0:0:
136,124,32595,53,4,0:3:0:0:
136,124,32689,2,0,P|136:170|159:233,1,100,8|4,0:1|0:3,0:0:0:0:
47,165,33064,6,0,P|53:210|63:233,2,49.9999984741211,6|4|4,0:3|0:3|0:3,0:0:0:0:
71,55,33439,1,8,1:0:0:0:
23,314,33626,54,0,L|176:327,1,149.999995422363,4|8,1:0|0:1,0:0:0:0:
196,329,33907,1,0,0:0:0:0:
214,331,34001,1,2,0:0:0:0:
302,161,34189,5,0,0:0:0:0:
321,167,34282,2,0,L|341:292,1,112.499996566773,2|2,0:0|0:0,0:0:0:0:
344,291,34564,2,0,P|402:302|463:288,1,112.499996566773,8|2,3:0|0:0,0:0:0:0:
430,112,34845,53,0,0:0:0:0:
414,103,34939,2,0,L|407:205,1,87.499997329712,10|0,0:3|0:0,0:0:0:0:
321,167,35126,2,0,L|327:67,1,87.499997329712,2|0,0:3|0:0,0:0:0:0:
234,28,35314,1,8,0:1:0:0:
218,36,35407,2,0,L|229:230,1,174.999994659424,2|2,0:3|0:3,0:0:0:0:
149,345,35689,6,0,B|156:279|154:244|154:244,1,87.499997329712,4|2,0:2|0:3,0:0:0:0:
70,310,35876,2,0,B|63:243|53:210|53:210,1,87.499997329712,2|2,0:2|0:3,0:0:0:0:
12,136,36064,1,2,0:3:0:0:
29,133,36157,1,0,0:0:0:0:
46,130,36251,1,2,0:0:0:0:
63,127,36345,1,2,0:0:0:0:
80,125,36439,5,4,1:0:0:0:
134,64,36532,2,0,B|177:79|177:79|161:250,1,174.999994659424,8|0,1:0|0:0,0:0:0:0:
70,310,36814,2,0,L|166:295,1,87.499997329712,8|0,1:0|0:0,0:0:0:0:
297,369,37095,6,0,B|247:325|239:259|239:259|247:325|200:390,1,250,4|0,1:2|0:0,0:0:0:0:
345,289,37564,1,2,0:0:0:0:
357,290,37657,1,0,0:0:0:0:
369,292,37751,1,0,0:0:0:0:
381,293,37845,1,0,0:0:0:0:
393,295,37939,5,4,1:0:0:0:
459,344,38032,2,0,B|489:313|489:313|451:142,1,174.999994659424,8|0,1:1|0:0,0:0:0:0:
292,195,38314,2,0,L|390:209,1,87.499997329712,8|0,1:0|0:0,0:0:0:0:
452,25,38595,6,0,B|446:7|421:-13|374:-1|353:55|404:132,1,174.999994659424,4|0,1:2|0:0,0:0:0:0:
284,293,39064,1,2,0:0:0:0:
271,294,39157,1,0,0:0:0:0:
258,295,39251,1,2,0:0:0:0:
245,296,39345,1,2,0:0:0:0:
232,297,39439,5,4,1:0:0:0:
172,360,39532,2,0,B|139:333|139:333|162:157,1,174.999994659424,8|0,1:0|0:0,0:0:0:0:
283,128,39814,2,0,B|192:116,1,87.499997329712,8|0,1:0|0:0,0:0:0:0:
11,143,40095,6,0,P|26:118|141:224,1,250,4|0,1:2|0:0,0:0:0:0:
230,24,40564,1,2,0:0:0:0:
242,23,40657,1,0,0:0:0:0:
254,21,40751,1,2,0:0:0:0:
266,20,40845,1,2,0:0:0:0:
278,19,40939,5,4,1:0:0:0:
348,64,41032,2,0,B|324:92|324:92|341:272,1,174.999994659424,8|0,1:3|0:0,0:0:0:0:
400,283,41314,2,0,P|452:284|494:273,1,87.499997329712,8|0,1:3|0:0,0:0:0:0:
238,132,41595,6,0,P|181:118|129:125,50,62.5,12|0|0|0|0|0|0|0|0|0|0|0|0|0|0|0|0|0|0|0|0|0|0|0|0|0|0|0|0|0|0|0|0|0|0|0|0|0|0|0|0|0|0|0|0|0|0|0|0|0|2,1:0|0:0|0:0|0:0|0:0|0:0|0:0|0:0|0:0|0:0|0:0|0:0|0:0|0:0|0:0|0:0|0:0|0:0|0:0|0:0|0:0|0:0|0:0|0:0|0:0|0:0|0:0|0:0|0:0|0:0|0:0|0:0|0:0|0:0|0:0|0:0|0:0|0:0|0:0|0:0|0:0|0:0|0:0|0:0|0:0|0:0|0:0|0:0|0:0|0:0|0:0,0:0:0:0:
23,73,45439,69,8,1:0:0:0:
126,58,45626,2,0,L|246:42,1,100,2|0,0:0|1:0,0:0:0:0:
241,42,45907,2,0,P|226:83|224:143,1,100,2|2,0:0|0:0,0:0:0:0:
316,196,46189,22,0,P|324:159|324:125,1,50,8|2,1:0|0:0,0:0:0:0:
321,134,46376,2,0,L|436:143,1,100,0|0,0:0|1:0,0:0:0:0:
405,43,46751,1,2,0:0:0:0:
487,270,46939,37,8,1:0:0:0:
395,259,47126,2,0,L|408:367,1,100,2|0,0:0|1:0,0:0:0:0:
399,366,47407,2,0,P|342:371|297:364,1,100,2|2,0:0|0:0,0:0:0:0:
148,350,47689,22,0,P|183:343|222:345,1,50,8|0,1:0|0:0,0:0:0:0:
214,353,47876,2,0,L|207:249,1,100,2|0,0:0|1:0,0:0:0:0:
32,311,48251,37,2,0:0:0:0:
32,311,48345,1,0,0:0:0:0:
32,311,48439,1,8,1:0:0:0:
102,79,48626,2,0,L|95:180,1,100,2|0,0:0|1:0,0:0:0:0:
93,189,48907,2,0,P|60:142|8:116,1,100,2|2,0:0|0:0,0:0:0:0:
248,120,49189,21,8,1:0:0:0:
239,113,49282,2,0,P|197:139|170:181,1,100,2|2,0:0|0:0,0:0:0:0:
178,196,49564,2,0,L|185:295,1,100,0|2,1:0|0:0,0:0:0:0:
282,33,49939,37,8,1:3:0:0:
282,33,50032,1,0,0:0:0:0:
371,39,50220,1,0,0:0:0:0:
371,39,50314,1,0,1:0:0:0:
459,48,50501,1,8,0:3:0:0:
459,48,50595,1,8,0:3:0:0:
459,48,50689,2,0,L|462:129,2,50,8|0|0,1:0|0:0|0:0,0:0:0:0:
337,284,51064,21,8,0:1:0:0:
353,131,51251,1,0,1:0:0:0:
421,359,51439,5,4,1:0:0:0:
351,152,51626,2,0,L|493:167,1,125,2|10,0:0|0:3,0:0:0:0:
339,262,51907,2,0,L|171:249,1,125,2|0,0:0|0:0,0:0:0:0:
30,271,52189,5,8,1:3:0:0:
21,277,52282,2,0,B|-8:295|-8:295|2:166,1,125,2|2,0:0|0:0,0:0:0:0:
96,78,52564,2,0,L|84:223,1,125,2|2,1:3|0:0,0:0:0:0:
27,25,52939,5,8,1:0:0:0:
287,132,53126,2,0,B|320:80|320:80|284:2,1,125,2|10,0:0|1:3,0:0:0:0:
210,64,53407,2,0,B|176:115|176:115|212:193,1,125,2|2,0:0|0:0,0:0:0:0:
268,278,53689,1,8,1:0:0:0:
282,250,53782,1,2,0:0:0:0:
310,236,53876,1,0,0:0:0:0:
341,240,53970,1,2,0:0:0:0:
367,256,54064,1,2,1:3:0:0:
397,255,54157,1,0,0:0:0:0:
422,236,54251,1,2,0:0:0:0:
427,205,54345,1,0,0:0:0:0:
416,175,54439,6,0,L|428:347,1,125,8|2,1:0|0:0,0:0:0:0:
374,65,54814,1,10,1:3:0:0:
328,126,54907,2,0,L|336:1,1,125,2|2,0:0|0:0,0:0:0:0:
271,194,55189,6,0,L|190:187,1,62.5,8|0,1:0|0:0,0:0:0:0:
67,127,55376,2,0,L|148:134,1,62.5,2|0,0:0|0:0,0:0:0:0:
131,308,55564,5,10,1:3:0:0:
131,308,55657,1,0,0:0:0:0:
131,308,55751,2,0,B|126:218,1,87.499997329712,2|0,0:0|0:0,0:0:0:0:
217,26,55939,1,8,1:0:0:0:
254,300,56126,6,0,L|260:376,1,43.749998664856,2|0,0:3|0:0,0:0:0:0:
337,336,56314,2,0,P|396:337|458:314,1,87.499997329712,10|2,0:3|0:0,0:0:0:0:
339,175,56595,6,0,P|349:216|379:264,1,62.5,2|0,0:3|0:0,0:0:0:0:
446,129,56782,2,0,P|434:201|449:255,1,125,2|0,0:3|0:0,0:0:0:0:
489,62,57064,5,2,1:3:0:0:
501,59,57157,1,0,0:0:0:0:
512,57,57251,2,0,P|443:28|407:40,1,81.2499962806703,2|0,0:0|0:0,0:0:0:0:
366,79,57439,22,0,P|397:24|318:28,1,162.499992561341,12|0,1:3|0:0,0:0:0:0:
305,165,57720,1,4,0:3:0:0:
310,159,57814,2,0,P|276:121|283:70,1,81.2499962806703,10|0,1:3|0:0,0:0:0:0:
134,38,58001,2,0,P|189:30|219:62,1,81.2499962806703,4|0,0:3|0:0,0:0:0:0:
50,81,58189,37,8,1:0:0:0:
58,75,58282,1,0,0:0:0:0:
66,69,58376,2,0,P|128:70|133:171,1,162.499992561341,4|10,0:3|1:3,0:0:0:0:
34,261,58657,2,0,P|17:213|81:182,1,112.499996566773,4|0,0:3|0:0,0:0:0:0:
278,218,58939,22,0,B|188:204|214:279|107:245,1,162.499992561341,12|0,1:3|0:0,0:0:0:0:
251,380,59220,1,4,0:3:0:0:
264,376,59314,2,0,L|254:281,1,81.2499962806703,10|0,1:3|0:0,0:0:0:0:
306,140,59501,2,0,P|356:205|336:263,1,81.2499962806703,4|0,0:3|0:0,0:0:0:0:
388,357,59689,37,8,1:0:0:0:
378,357,59782,1,0,0:0:0:0:
367,357,59876,2,0,P|365:281|441:286,1,162.499992561341,4|10,0:3|1:3,0:0:0:0:
503,160,60157,2,0,P|470:192|425:191,1,81.2499962806703,4|8,0:3|0:1,0:0:0:0:
308,0,60439,22,0,P|341:54|299:145,1,162.499992561341,12|0,1:3|0:0,0:0:0:0:
134,43,60720,1,4,0:3:0:0:
158,34,60814,2,0,L|244:42,1,81.2499962806703,10|0,1:3|0:0,0:0:0:0:
317,271,61001,2,0,P|259:253|229:209,1,81.2499962806703,4|0,0:3|0:0,0:0:0:0:
149,132,61189,37,8,1:0:0:0:
164,128,61282,1,0,0:0:0:0:
183,124,61376,2,0,B|209:210|137:184|172:296,1,162.499992561341,4|10,0:3|1:3,0:0:0:0:
106,56,61657,2,0,P|56:111|109:206,1,162.499992561341,4|0,0:3|0:0,0:0:0:0:
245,240,61939,22,0,L|461:216,1,162.499992561341,12|0,1:3|0:0,0:0:0:0:
404,55,62220,1,4,0:3:0:0:
390,47,62314,2,0,P|356:100|365:151,1,81.2499962806703,10|0,1:3|0:0,0:0:0:0:
499,185,62501,2,0,P|480:153|390:146,1,81.2499962806703,4|0,0:3|0:0,0:0:0:0:
373,322,62689,37,8,1:0:0:0:
405,325,62782,1,0,0:0:0:0:
437,329,62876,1,2,0:0:0:0:
200,85,63064,2,2,L|189:187,1,81.2499962806703,10|0,1:3|0:0,0:1:0:0:
252,320,63251,2,2,L|243:222,1,81.2499962806703,8|2,1:3|0:1,0:1:0:0:
24,313,63439,6,2,P|36:237|129:227,1,162.499992561341,12|0,1:3|0:0,0:1:0:0:
177,297,63720,1,4,0:3:0:0:
168,310,63814,2,0,P|133:309|104:293,1,68.7500020980836,10|0,1:3|0:0,0:0:0:0:
14,149,64001,2,0,P|31:119|60:102,1,68.7500020980836,4|0,0:3|0:0,0:0:0:0:
163,22,64189,5,4,1:3:0:0:
180,28,64282,2,0,L|192:179,1,137.500004196167,0|4,0:0|0:3,0:0:0:0:
280,224,64564,2,0,P|318:237|373:221,1,74.9999977111817,10|0,1:3|0:0,0:0:0:0:
308,0,64751,2,0,P|278:48|285:91,1,74.9999977111817,4|0,0:3|0:0,0:0:0:0:
511,193,64939,38,0,P|454:135|367:215,1,162.499992561341,12|0,1:3|0:0,0:0:0:0:
351,232,65220,2,0,L|359:61,1,162.499992561341,8|0,1:0|0:0,0:0:0:0:
311,0,65501,22,0,P|227:13|206:80,1,162.499992561341,4|8,1:0|1:0,0:0:0:0:
212,95,65782,2,0,L|20:76,1,162.499992561341,0|0,1:0|0:0,0:0:0:0:
59,264,66064,2,2,L|167:253,1,81.2499962806703,14|0,0:3|0:0,0:1:0:0:
91,172,66251,2,0,L|-6:163,1,81.2499962806703,2|0,0:1|0:0,0:0:0:0:
112,346,66439,53,8,1:0:0:0:
215,176,66626,2,0,P|245:222|247:277,1,71.8750013709069,4|0,0:3|0:0,0:0:0:0:
333,169,66814,2,0,P|329:265|278:337,1,143.750002741814,10|0,1:3|0:0,0:0:0:0:
373,354,67095,1,0,0:0:0:0:
446,305,67189,1,8,1:0:0:0:
460,307,67282,1,0,0:3:0:0:
474,309,67376,1,4,0:3:0:0:
488,311,67470,1,0,0:0:0:0:
502,313,67564,1,10,1:3:0:0:
416,224,67751,1,4,0:3:0:0:
210,350,67939,5,8,1:0:0:0:
180,354,68032,2,0,P|178:318|182:283,2,62.5,4|0|0,0:3|0:0|0:0,0:0:0:0:
0,210,68314,38,0,P|56:229|124:261,1,100,14|0,1:3|0:0,0:0:0:0:
184,124,68595,5,4,0:3:0:0:
174,111,68689,2,0,P|129:148|92:171,1,74.9999977111817,8|2,1:0|0:0,3:0:0:0:
36,13,68970,1,0,0:0:0:0:
40,0,69064,2,0,P|94:20|132:41,1,74.9999977111817,8|0,1:0|3:0,3:0:0:0:
19,175,69251,2,0,P|9:117|8:73,1,74.9999977111817,2|0,0:0|3:0,3:0:0:0:
173,229,69439,6,0,B|222:239|266:240|266:240|327:311|327:311|375:306|437:320,1,281.250010728836,12|0,1:0|0:0,0:0:0:0:
419,101,70189,6,0,B|496:39|496:39|468:226,1,281.250010728836,2|0,1:3|0:0,0:0:0:0:
246,349,70939,6,0,L|230:218,1,93.7500035762788,8|0,1:1|0:0,0:0:0:0:
321,32,71220,2,0,L|309:125,1,93.7500035762788,8|0,1:1|0:0,0:0:0:0:
210,307,71501,6,0,L|222:201,1,93.7500035762788,8|0,1:1|0:0,0:0:0:0:
62,138,71689,6,0,B|112:23|112:23|223:125,2,250,10|2|12,1:3|0:0|1:0,0:0:0:0:
48,313,72626,5,8,0:1:0:0:
48,313,72720,1,8,0:1:0:0:
48,313,72814,2,0,L|172:295,1,106.250002026558,8|0,1:0|0:0,0:0:0:0:
216,248,73001,2,0,P|236:295|221:346,1,106.250002026558,8|0,0:1|0:0,0:0:0:0:
66,232,73189,6,0,L|56:37,1,187.500007152558,10|2,1:3|0:0,0:0:0:0:
139,22,73751,1,2,0:0:0:0:
454,292,73939,6,0,P|385:307|320:308,1,125.000004768372,8|0,1:0|0:0,0:0:0:0:
239,326,74220,6,2,P|260:258|295:196,1,125.000004768372,8|0,1:0|0:0,0:1:0:0:
332,146,74501,6,0,P|379:198|407:240,1,93.7500035762788,8|10,1:0|1:3,3:0:0:0:
159,305,74876,5,2,0:0:0:0:
135,309,74970,1,0,0:0:0:0:
111,313,75064,1,2,0:0:0:0:
90,301,75157,1,0,0:0:0:0:
66,305,75251,1,2,0:0:0:0:
42,309,75345,1,0,0:0:0:0:
15,301,75439,6,0,P|13:247|4:191,1,93.7500035762788,12|0,1:0|0:0,0:0:0:0:
84,104,75626,2,0,B|152:113|177:44|160:-28|94:-38|22:-22|20:28|21:82|61:102|61:102|102:162|102:162|82:283,1,468.750017881394,8|0,0:1|0:0,0:0:0:0:
220,350,76189,5,10,1:3:0:0:
307,358,76376,2,2,L|296:272,1,46.8750017881394,10|0,0:1|0:0,0:1:0:0:
272,267,76501,2,0,L|277:202,1,46.8750017881394,2|0,0:1|0:0,0:0:0:0:
311,178,76626,2,0,L|300:112,1,46.8750017881394,2|2,0:1|0:1,0:0:0:0:
310,55,76751,5,0,0:0:0:0:
320,47,76845,1,0,0:0:0:0:
329,43,76939,2,0,P|395:48|418:57,1,62.5,8|0,1:0|0:0,0:0:0:0:
496,147,77220,2,0,P|430:142|407:133,1,62.5,8|0,1:0|0:0,0:0:0:0:
422,125,77501,1,8,1:0:0:0:
20,26,77689,5,2,1:3:0:0:
212,31,77876,1,0,0:0:0:0:
191,36,77970,1,2,1:0:0:0:
60,109,78157,1,0,0:0:0:0:
81,104,78251,1,2,1:0:0:0:
193,263,78439,5,8,1:0:0:0:
202,133,78626,2,0,L|163:128,7,20.8333333333333,2|0|0|0|0|0|0|0,0:0|0:0|0:0|0:0|0:0|0:0|0:0|0:0,0:0:0:0:
43,362,79189,5,10,1:3:0:0:
27,196,79376,2,0,L|74:190,10,31.25,2|0|0|0|0|0|0|0|0|0|0,0:0|0:0|0:0|0:0|0:0|0:0|0:0|0:0|0:0|0:0|0:0,0:0:0:0:
222,339,79939,6,0,L|378:350,1,150,12|0,1:0|0:0,0:0:0:0:
468,356,80689,5,2,0:3:0:0:
461,214,80939,1,10,0:3:0:0:
456,345,81189,5,10,0:3:0:0:
448,222,81439,2,0,P|446:142|454:53,1,149.999995422363,12|2,1:0|0:0,0:0:0:0:
382,17,81720,1,0,0:0:0:0:
358,27,81814,2,0,P|317:22|265:23,1,74.9999977111817,10|0,1:3|0:0,0:0:0:0:
230,101,82001,1,2,0:0:0:0:
193,92,82095,1,0,0:0:0:0:
156,83,82189,5,8,1:0:0:0:
151,89,82282,1,0,0:0:0:0:
146,95,82376,1,2,0:0:0:0:
141,101,82470,1,0,0:0:0:0:
137,107,82564,2,0,L|141:4,1,74.9999977111817,10|0,1:3|0:0,0:0:0:0:
48,100,82751,2,0,L|58:185,1,74.9999977111817,2|0,0:0|0:0,0:0:0:0:
193,273,82939,5,8,1:0:0:0:
148,269,83032,1,0,0:0:0:0:
102,265,83126,2,0,P|95:330|98:358,1,74.9999977111817,2|0,0:0|0:0,0:0:0:0:
236,187,83314,6,0,L|176:192,2,49.9999984741211,10|0|0,1:3|0:0|0:0,0:0:0:0:
266,327,83501,2,0,L|359:335,1,74.9999977111817,2|0,0:0|0:0,0:0:0:0:
494,267,83689,6,0,B|516:300|516:300|508:392,1,74.9999977111817,8|0,1:0|0:0,0:0:0:0:
405,269,83876,2,0,L|413:93,1,149.999995422363,2|10,0:0|1:3,0:0:0:0:
497,32,84157,2,0,L|489:164,1,125,2|0,0:0|0:0,0:0:0:0:
287,67,84439,6,0,P|339:59|384:65,1,62.5,8|0,1:0|0:0,0:0:0:0:
329,145,84626,1,2,0:0:0:0:
265,355,84814,6,0,P|213:363|168:357,1,62.5,10|0,1:3|0:0,0:0:0:0:
223,277,85001,1,2,0:0:0:0:
113,36,85189,6,0,L|121:180,1,125,8|2,1:0|0:0,0:0:0:0:
0,249,85470,1,0,0:0:0:0:
12,238,85564,2,0,P|44:228|76:225,1,62.5,10|0,1:3|0:0,0:0:0:0:
257,194,85751,2,0,P|210:188|172:172,1,62.5,2|0,0:0|0:0,0:0:0:0:
220,296,85939,5,8,1:0:0:0:
237,342,86032,1,0,0:0:0:0:
285,356,86126,1,2,0:0:0:0:
332,338,86220,1,0,0:0:0:0:
354,292,86314,1,10,1:3:0:0:
337,245,86407,1,0,0:0:0:0:
355,198,86501,1,2,0:0:0:0:
403,186,86595,1,0,0:0:0:0:
442,216,86689,6,2,P|451:267|455:350,1,100,8|2,1:0|0:1,0:1:0:0:
512,174,86970,1,0,0:0:0:0:
503,151,87064,2,2,P|493:82|494:15,1,100,10|2,1:3|0:1,0:1:0:0:
431,193,87345,1,0,0:0:0:0:
443,216,87439,6,4,L|275:207,1,150,12|0,1:0|0:0,0:0:0:0:
263,298,87814,2,0,P|303:298|341:289,1,62.5,10|0,1:3|0:0,0:0:0:0:
324,130,88001,1,2,0:0:0:0:
321,119,88095,1,0,0:0:0:0:
318,108,88189,2,0,P|287:103|255:103,1,62.5,8|0,1:0|0:0,0:0:0:0:
164,199,88376,2,0,L|172:101,1,62.5,2|0,0:0|0:0,0:0:0:0:
67,24,88564,2,0,L|76:148,1,125,10|2,1:3|0:0,0:0:0:0:
30,222,88845,5,0,0:0:0:0:
24,234,88939,2,0,P|40:295|45:355,1,62.5,8|0,1:0|0:0,0:0:0:0:
113,326,89126,1,2,0:0:0:0:
248,374,89314,2,0,P|264:313|269:253,1,62.5,10|0,1:3|0:0,0:0:0:0:
337,282,89501,1,2,0:0:0:0:
492,352,89689,5,8,1:0:0:0:
470,357,89782,2,0,L|478:203,1,125,2|2,0:0|0:0,0:0:0:0:
427,175,90064,2,0,L|315:190,1,93.7500035762788,10|0,1:3|0:0,0:0:0:0:
485,107,90470,5,2,0:0:0:0:
406,46,91095,5,0,0:0:0:0:
406,46,91142,1,0,0:0:0:0:
406,46,91189,1,0,0:0:0:0:
406,46,91235,1,2,0:0:0:0:
282,72,91845,2,0,L|224:80,4,46.8750017881394,0|0|0|0|2,0:0|0:0|0:0|0:0|0:0,0:0:0:0:
28,104,93439,5,0,0:0:0:0:
40,110,93532,2,0,L|128:277,1,164.062501564622,2|0,0:0|0:0,0:0:0:0:
164,20,93720,5,0,0:0:0:0:
152,33,93814,2,0,L|112:283,1,224.999993133545,2|0,0:0|0:0,0:0:0:0:
80,134,94001,5,0,0:0:0:0:
93,145,94095,2,0,L|119:265,1,112.499996566773,2|0,0:0|0:0,0:0:0:0:
168,178,94282,5,0,0:0:0:0:
151,188,94376,2,0,L|112:263,1,75
53,40,94564,5,0,0:0:0:0:
71,47,94657,2,0,L|119:270,1,212.500004053116,2|0,0:0|0:0,0:0:0:0:
320,7,94939,22,0,B|313:89|313:89|300:106|300:106|293:225,1,187.500007152558,12|2,1:0|0:0,0:0:0:0:
363,244,95220,1,0,0:0:0:0:
363,244,95314,2,0,B|491:224|491:224|393:209,1,187.500007152558,10|2,1:3|0:0,0:0:0:0:
222,35,95595,5,2,0:1:0:0:
222,35,95689,2,2,B|211:190,1,125,8|0,1:0|0:0,0:1:0:0:
115,254,95876,2,0,B|106:289|50:269|51:223|89:184|167:200|135:297|272:245,1,250,2|10,0:1|1:3,0:0:0:0:
433,215,96157,6,0,P|363:202|298:261,1,125,2|0,0:1|0:0,0:0:0:0:
228,346,96439,38,0,L|209:112,1,187.500007152558,8|2,1:0|0:0,0:0:0:0:
34,79,96720,1,0,0:0:0:0:
34,79,96814,2,0,B|114:127|114:127|167:39,1,187.500007152558,10|2,1:3|0:0,0:0:0:0:
512,96,97095,6,0,L|432:85,1,78.125,2|0,0:1|0:0,0:0:0:0:
431,98,97189,2,0,B|409:157|409:157|441:235,1,125,8|0,1:0|0:0,0:0:0:0:
370,8,97376,6,0,L|242:31,1,125,2|10,0:1|1:3,0:0:0:0:
308,197,97657,2,0,L|466:218,1,125,2|0,0:1|0:0,0:0:0:0:
218,114,97939,38,0,B|186:106|148:132|154:185|154:185|176:294,1,187.500007152558,8|2,1:0|0:0,0:0:0:0:
108,334,98220,1,0,0:0:0:0:
98,342,98314,2,0,B|-22:354|-22:354|26:305,1,187.500007152558,10|2,1:3|0:0,0:0:0:0:
283,287,98595,5,2,0:1:0:0:
287,291,98689,2,2,L|445:312,1,125,8|0,0:1|0:0,0:1:0:0:
220,351,98876,2,0,B|190:316|190:316|223:71,1,250,10|10,0:1|1:3,0:0:0:0:
316,39,99157,2,0,B|325:4|381:24|380:70|342:109|264:93|296:-4|208:16|159:48,1,250,2|0,0:1|0:0,0:0:0:0:
34,204,99439,38,0,P|115:231|185:139,1,166.666666666667,10|0,1:3|0:0,0:0:0:0:
171,174,99814,2,0,P|109:225|115:305,1,166.666666666667,10|0,1:3|0:0,0:0:0:0:
124,309,100189,54,0,P|110:229|15:202,1,187.500007152558,10|0,1:0|0:0,0:0:0:0:
187,364,100470,2,2,P|222:292|208:234,1,93.7500035762788,0|10,3:0|3:0,3:1:0:0:
39,285,100751,1,2,0:1:0:0:
320,224,100939,22,0,B|449:207|449:207|403:259,1,187.500007152558,12|2,1:0|0:0,0:0:0:0:
326,307,101220,1,0,0:0:0:0:
315,312,101314,2,0,L|325:66,1,187.500007152558,10|2,1:3|0:0,0:0:0:0:
410,43,101596,5,2,0:1:0:0:
410,43,101689,2,0,B|382:15|382:15|192:40,1,125,10|0,1:0|0:0,0:0:0:0:
460,135,101876,2,2,L|142:112,1,250,2|10,0:2|1:3,0:1:0:0:
111,198,102157,2,0,B|139:226|139:226|329:201,1,125,2|0,0:1|0:0,0:0:0:0:
129,21,102439,54,0,B|138:74|138:74|100:143|100:143|115:224,1,187.500007152558,8|2,1:0|0:0,0:0:0:0:
39,342,102720,1,0,0:0:0:0:
39,342,102814,2,0,L|10:141,1,187.500007152558,10|2,1:3|0:0,0:0:0:0:
223,315,103095,6,0,L|140:328,1,78.125,2|0,0:1|0:0,0:0:0:0:
128,320,103189,2,0,B|108:187,1,125,8|0,1:0|0:0,0:0:0:0:
223,214,103376,6,2,B|287:206|287:206|332:255|332:255,1,125,2|10,0:0|1:3,0:1:0:0:
432,287,103657,2,2,B|368:295|368:295|323:246|323:246,1,125,2|0,0:1|0:0,0:1:0:0:
331,136,103939,5,8,1:0:0:0:
343,138,104032,1,2,0:3:0:0:
355,140,104126,1,2,0:3:0:0:
367,142,104220,2,0,L|355:-7,1,149.999995422363,8|2,1:0|0:3,0:0:0:0:
435,201,104501,5,2,0:3:0:0:
454,205,104595,2,0,L|446:67,1,100,0|2,0:0|0:3,0:0:0:0:
248,51,104939,54,0,L|241:138,1,66.6666666666667,8|0,1:0|1:0,0:0:0:0:
327,250,105189,2,0,L|334:163,1,66.6666666666667,8|0,1:0|1:0,0:0:0:0:
13,197,105439,6,0,P|97:205|138:148,1,137.500004196167,10|0,1:3|0:0,0:0:0:0:
135,160,105720,2,0,P|71:245|122:379,1,243.749988842011,10|0,1:3|0:0,0:0:0:0:
203,4,106189,38,0,P|195:88|252:129,1,137.500004196167,10|0,3:3|0:0,3:0:0:0:
240,126,106470,2,0,P|155:62|21:113,1,243.749988842011,10|0,3:3|0:0,3:0:0:0:
456,170,106939,6,0,P|372:161|331:219,1,137.500004196167,10|0,1:3|0:0,0:0:0:0:
334,207,107220,2,0,P|398:122|347:-12,1,243.749988842011,10|0,1:3|0:0,0:0:0:0:
266,363,107689,38,0,P|274:279|217:238,1,137.500004196167,10|0,3:3|0:0,3:0:0:0:
229,241,107970,2,0,P|314:305|448:254,1,243.749988842011,10|0,3:3|0:0,3:0:0:0:
5,129,108439,6,0,L|24:341,1,187.499994277954,10|0,1:3|0:0,0:0:0:0:
11,334,108720,2,0,L|208:311,1,187.499994277954,10|0,0:3|0:0,0:0:0:0:
217,324,109001,2,0,L|194:127,1,187.499994277954,10|0,0:3|0:0,0:0:0:0:
174,119,109282,6,0,L|321:99,1,140.624995708466,10|0,0:3|0:0,0:0:0:0:
337,86,109564,2,0,L|357:233,1,140.624995708466,10|0,0:3|0:0,0:0:0:0:
346,241,109845,2,0,L|493:221,1,140.624995708466,10|0,0:3|0:0,0:0:0:0:
509,230,110126,6,0,L|495:124,1,93.7499971389771,10|0,0:3|0:0,0:0:0:0:
498,121,110407,2,0,L|434:132,1,62.5,10|0,0:3|0:0,0:0:0:0:
423,126,110689,2,0,L|424:133,1,6.25,10|0,0:3|0:0,0:0:0:0:
256,192,111814,5,4,1:0:0:0:
256,192,111907,12,0,115939,0:0:0:0:
