osu file format v14

[General]
AudioFilename: audio.mp3
AudioLeadIn: 0
PreviewTime: 52240
Countdown: 0
SampleSet: Normal
StackLeniency: 0.7
Mode: 3
LetterboxInBreaks: 0
SpecialStyle: 0
WidescreenStoryboard: 0

[Editor]
Bookmarks: 52240,71440,103840
DistanceSpacing: 0.8
BeatDivisor: 2
GridSize: 32
TimelineZoom: 1.9

[Metadata]
Title:Koisuru*Uchuu Sensou!! Abababa Mix
TitleUnicode:恋する☆宇宙戦争っ!! あばばばみっくす
Artist:ARM(IOSYS)
ArtistUnicode:ARM(IOSYS)
Creator:R e m u r i n g
Version:BASIC
Source:SOUND VOLTEX II -infinite infection-
Tags:SDVX Prim [shana lesus]
BeatmapID:1166431
BeatmapSetID:550587

[Difficulty]
HPDrainRate:7
CircleSize:4
OverallDifficulty:7
ApproachRate:5
SliderMultiplier:1.4
SliderTickRate:1

[Events]
//Background and Video events
0,0,"bg.jpg",0,0
//Break Periods
//Storyboard Layer 0 (Background)
//Storyboard Layer 1 (Fail)
//Storyboard Layer 2 (Pass)
//Storyboard Layer 3 (Foreground)
//Storyboard Sound Samples

[TimingPoints]
1840,300,4,1,0,40,1,0
52240,-100,4,1,0,40,0,1
71440,-100,4,1,0,40,0,0
90640,-100,4,1,0,40,0,1
97840,-100,4,1,0,40,0,0

[HitObjects]
448,192,1840,128,0,3040:0:0:0:0:
64,192,3040,128,0,3790:0:0:0:0:
448,192,3790,1,0,0:0:0:0:
192,192,3940,1,0,0:0:0:0:
448,192,4090,1,0,0:0:0:0:
64,192,4240,128,0,5440:0:0:0:0:
448,192,5440,128,0,6190:0:0:0:0:
320,192,6190,1,0,0:0:0:0:
64,192,6340,1,0,0:0:0:0:
320,192,6490,1,0,0:0:0:0:
64,192,6640,128,0,7840:0:0:0:0:
448,192,7840,128,0,9040:0:0:0:0:
64,192,9040,128,0,9340:0:0:0:0:
448,192,9340,128,0,9640:0:0:0:0:
192,192,9640,128,0,9940:0:0:0:0:
320,192,9940,128,0,10240:0:0:0:0:
64,192,10240,128,0,10840:0:0:0:0:
448,192,10840,1,0,0:0:0:0:
448,192,11140,1,0,0:0:0:0:
64,192,11440,1,0,0:0:0:0:
192,192,11740,1,0,0:0:0:0:
320,192,12040,1,0,0:0:0:0:
448,192,12340,1,0,0:0:0:0:
64,192,12640,1,0,0:0:0:0:
320,192,12940,1,0,0:0:0:0:
64,192,13240,1,0,0:0:0:0:
448,192,13540,1,0,0:0:0:0:
192,192,13840,1,0,0:0:0:0:
320,192,14140,1,0,0:0:0:0:
448,192,14440,1,0,0:0:0:0:
64,192,14740,1,0,0:0:0:0:
192,192,15040,1,0,0:0:0:0:
320,192,15340,1,0,0:0:0:0:
64,192,15640,1,0,0:0:0:0:
320,192,15790,128,0,16240:0:0:0:0:
64,192,16240,1,0,0:0:0:0:
448,192,16540,1,0,0:0:0:0:
320,192,16840,1,0,0:0:0:0:
192,192,17140,1,0,0:0:0:0:
64,192,17440,1,0,0:0:0:0:
448,192,17740,1,0,0:0:0:0:
64,192,18040,1,0,0:0:0:0:
192,192,18340,1,0,0:0:0:0:
448,192,18640,128,0,19090:0:0:0:0:
64,192,19090,1,0,0:0:0:0:
320,192,19390,1,0,0:0:0:0:
320,192,19540,1,0,0:0:0:0:
448,192,19840,128,0,20290:0:0:0:0:
64,192,20290,1,0,0:0:0:0:
320,192,20590,1,0,0:0:0:0:
320,192,20740,1,0,0:0:0:0:
64,192,21040,1,0,0:0:0:0:
448,192,21340,128,0,22240:0:0:0:0:
64,192,21790,1,0,0:0:0:0:
192,192,21940,1,0,0:0:0:0:
320,192,22240,1,0,0:0:0:0:
64,192,22540,1,0,0:0:0:0:
192,192,22690,1,0,0:0:0:0:
320,192,22990,1,0,0:0:0:0:
448,192,23140,1,0,0:0:0:0:
320,192,23440,128,0,24640:0:0:0:0:
64,192,23740,1,0,0:0:0:0:
192,192,24190,1,0,0:0:0:0:
64,192,24340,1,0,0:0:0:0:
192,192,24640,1,0,0:0:0:0:
448,192,24940,1,0,0:0:0:0:
320,192,25090,1,0,0:0:0:0:
320,192,25390,1,0,0:0:0:0:
64,192,25540,1,0,0:0:0:0:
448,192,25840,1,0,0:0:0:0:
320,192,26140,128,0,27040:0:0:0:0:
64,192,26590,1,0,0:0:0:0:
192,192,26740,1,0,0:0:0:0:
64,192,27040,1,0,0:0:0:0:
448,192,27340,1,0,0:0:0:0:
64,192,27490,128,0,27940:0:0:0:0:
320,192,27790,1,0,0:0:0:0:
448,192,27940,1,0,0:0:0:0:
192,192,28240,1,0,0:0:0:0:
448,192,28540,128,0,29440:0:0:0:0:
64,192,28840,1,0,0:0:0:0:
320,192,29140,1,0,0:0:0:0:
192,192,29440,128,0,30040:0:0:0:0:
64,192,30040,128,0,30340:0:0:0:0:
320,192,30340,128,0,30640:0:0:0:0:
448,192,30640,128,0,31840:0:0:0:0:
64,192,30940,1,0,0:0:0:0:
192,192,31390,1,0,0:0:0:0:
64,192,31540,1,0,0:0:0:0:
320,192,31840,1,0,0:0:0:0:
64,192,32140,1,0,0:0:0:0:
192,192,32290,1,0,0:0:0:0:
448,192,32590,1,0,0:0:0:0:
320,192,32740,1,0,0:0:0:0:
64,192,33040,1,0,0:0:0:0:
192,192,33340,1,0,0:0:0:0:
448,192,33790,1,0,0:0:0:0:
320,192,33940,1,0,0:0:0:0:
192,192,34240,1,0,0:0:0:0:
320,192,34540,1,0,0:0:0:0:
64,192,34690,1,0,0:0:0:0:
192,192,34990,1,0,0:0:0:0:
320,192,35140,1,0,0:0:0:0:
64,192,35440,1,0,0:0:0:0:
448,192,35740,1,0,0:0:0:0:
320,192,36190,1,0,0:0:0:0:
64,192,36340,1,0,0:0:0:0:
192,192,36640,128,0,37240:0:0:0:0:
448,192,37240,128,0,37840:0:0:0:0:
64,192,37840,1,0,0:0:0:0:
320,192,38140,128,0,39040:0:0:0:0:
64,192,38440,1,0,0:0:0:0:
192,192,38740,1,0,0:0:0:0:
448,192,39040,1,0,0:0:0:0:
320,192,39340,1,0,0:0:0:0:
192,192,39640,128,0,39940:0:0:0:0:
448,192,39940,1,0,0:0:0:0:
64,192,40240,1,0,0:0:0:0:
192,192,40840,1,0,0:0:0:0:
448,192,41440,1,0,0:0:0:0:
320,192,42040,1,0,0:0:0:0:
192,192,42640,1,0,0:0:0:0:
448,192,43240,1,0,0:0:0:0:
64,192,43840,1,0,0:0:0:0:
192,192,44440,1,0,0:0:0:0:
448,192,44740,1,0,0:0:0:0:
192,192,45040,1,0,0:0:0:0:
320,192,45640,1,0,0:0:0:0:
448,192,46240,1,0,0:0:0:0:
64,192,46840,1,0,0:0:0:0:
448,192,47440,128,0,48040:0:0:0:0:
192,192,48040,128,0,48490:0:0:0:0:
64,192,48490,128,0,50440:0:0:0:0:
320,192,49840,128,0,50440:0:0:0:0:
448,192,50440,128,0,51040:0:0:0:0:
192,192,52240,1,0,0:0:0:0:
64,192,52540,128,0,54490:0:0:0:0:
448,192,52840,1,0,0:0:0:0:
192,192,53140,1,0,0:0:0:0:
320,192,53440,1,0,0:0:0:0:
448,192,53740,1,0,0:0:0:0:
192,192,54040,1,0,0:0:0:0:
448,192,54340,1,0,0:0:0:0:
192,192,54490,128,0,54790:0:0:0:0:
448,192,54790,128,0,55090:0:0:0:0:
192,192,55090,128,0,55390:0:0:0:0:
448,192,55390,128,0,55840:0:0:0:0:
64,192,55840,1,0,0:0:0:0:
64,192,56140,1,0,0:0:0:0:
448,192,56440,1,0,0:0:0:0:
64,192,56740,1,0,0:0:0:0:
192,192,57040,1,0,0:0:0:0:
448,192,57340,128,0,57940:0:0:0:0:
64,192,57640,1,0,0:0:0:0:
320,192,57940,1,0,0:0:0:0:
192,192,58240,1,0,0:0:0:0:
320,192,58540,128,0,59140:0:0:0:0:
64,192,58840,1,0,0:0:0:0:
192,192,59140,1,0,0:0:0:0:
448,192,59440,128,0,59740:0:0:0:0:
192,192,59740,1,0,0:0:0:0:
64,192,60040,128,0,60340:0:0:0:0:
320,192,60340,1,0,0:0:0:0:
448,192,60640,1,0,0:0:0:0:
320,192,60940,1,0,0:0:0:0:
64,192,61240,128,0,61540:0:0:0:0:
320,192,61540,128,0,61840:0:0:0:0:
448,192,61840,1,0,0:0:0:0:
64,192,62140,128,0,62740:0:0:0:0:
320,192,62440,1,0,0:0:0:0:
448,192,62740,1,0,0:0:0:0:
320,192,63040,1,0,0:0:0:0:
64,192,63340,128,0,63940:0:0:0:0:
448,192,63640,1,0,0:0:0:0:
192,192,63940,1,0,0:0:0:0:
320,192,64240,1,0,0:0:0:0:
448,192,64540,1,0,0:0:0:0:
64,192,64840,1,0,0:0:0:0:
320,192,65140,1,0,0:0:0:0:
64,192,65440,1,0,0:0:0:0:
448,192,65740,1,0,0:0:0:0:
192,192,66040,1,0,0:0:0:0:
320,192,66340,1,0,0:0:0:0:
448,192,66640,1,0,0:0:0:0:
64,192,66940,128,0,67540:0:0:0:0:
448,192,67240,1,0,0:0:0:0:
192,192,67540,1,0,0:0:0:0:
448,192,67840,1,0,0:0:0:0:
448,192,68140,128,0,68740:0:0:0:0:
320,192,68440,1,0,0:0:0:0:
192,192,68740,1,0,0:0:0:0:
64,192,69040,128,0,69340:0:0:0:0:
320,192,69340,1,0,0:0:0:0:
448,192,69640,128,0,69940:0:0:0:0:
192,192,69940,1,0,0:0:0:0:
64,192,70240,128,0,71140:0:0:0:0:
448,192,70540,1,0,0:0:0:0:
192,192,70690,1,0,0:0:0:0:
448,192,71140,128,0,71440:0:0:0:0:
192,192,71440,1,0,0:0:0:0:
448,192,71740,1,0,0:0:0:0:
64,192,72040,1,0,0:0:0:0:
320,192,72340,1,0,0:0:0:0:
192,192,72640,1,0,0:0:0:0:
64,192,72940,1,0,0:0:0:0:
448,192,73240,128,0,73540:0:0:0:0:
192,192,73540,128,0,73840:0:0:0:0:
64,192,73840,128,0,74740:0:0:0:0:
448,192,74140,1,0,0:0:0:0:
192,192,74440,1,0,0:0:0:0:
448,192,74740,1,0,0:0:0:0:
320,192,75040,128,0,75340:0:0:0:0:
192,192,75340,1,0,0:0:0:0:
448,192,75640,128,0,75940:0:0:0:0:
320,192,75940,1,0,0:0:0:0:
64,192,76240,1,0,0:0:0:0:
320,192,76540,1,0,0:0:0:0:
64,192,76840,1,0,0:0:0:0:
448,192,77140,1,0,0:0:0:0:
320,192,77290,1,0,0:0:0:0:
192,192,77590,1,0,0:0:0:0:
448,192,77740,1,0,0:0:0:0:
320,192,77890,1,0,0:0:0:0:
64,192,78040,1,0,0:0:0:0:
192,192,78190,1,0,0:0:0:0:
320,192,78340,1,0,0:0:0:0:
448,192,78640,128,0,79690:0:0:0:0:
192,192,79690,1,0,0:0:0:0:
320,192,79990,1,0,0:0:0:0:
448,192,80290,128,0,81040:0:0:0:0:
64,192,81040,1,0,0:0:0:0:
320,192,81640,1,0,0:0:0:0:
192,192,82240,1,0,0:0:0:0:
448,192,82540,128,0,83440:0:0:0:0:
64,192,83440,1,0,0:0:0:0:
448,192,84040,1,0,0:0:0:0:
320,192,84640,1,0,0:0:0:0:
64,192,84940,128,0,85840:0:0:0:0:
448,192,85840,1,0,0:0:0:0:
320,192,86440,1,0,0:0:0:0:
64,192,87040,1,0,0:0:0:0:
64,192,87640,1,0,0:0:0:0:
448,192,88240,128,0,89290:0:0:0:0:
64,192,89290,1,0,0:0:0:0:
320,192,90040,1,0,0:0:0:0:
320,192,90340,1,0,0:0:0:0:
64,192,90640,1,0,0:0:0:0:
448,192,90940,1,0,0:0:0:0:
64,192,91240,1,0,0:0:0:0:
192,192,91540,1,0,0:0:0:0:
448,192,91840,1,0,0:0:0:0:
64,192,92140,1,0,0:0:0:0:
192,192,92440,1,0,0:0:0:0:
448,192,92740,1,0,0:0:0:0:
64,192,92890,128,0,93190:0:0:0:0:
448,192,93190,128,0,93490:0:0:0:0:
192,192,93490,128,0,93790:0:0:0:0:
448,192,93790,128,0,94090:0:0:0:0:
64,192,94090,1,0,0:0:0:0:
320,192,94240,1,0,0:0:0:0:
192,192,94540,1,0,0:0:0:0:
64,192,94840,128,0,95140:0:0:0:0:
320,192,95140,128,0,95440:0:0:0:0:
448,192,95440,1,0,0:0:0:0:
64,192,95740,1,0,0:0:0:0:
192,192,96040,1,0,0:0:0:0:
320,192,96340,1,0,0:0:0:0:
448,192,96640,1,0,0:0:0:0:
64,192,96940,128,0,97240:0:0:0:0:
192,192,97240,128,0,97540:0:0:0:0:
320,192,97540,128,0,97840:0:0:0:0:
448,192,97840,1,0,0:0:0:0:
64,192,99040,1,0,0:0:0:0:
192,192,99490,1,0,0:0:0:0:
448,192,99940,1,0,0:0:0:0:
320,192,100240,1,0,0:0:0:0:
64,192,100540,1,0,0:0:0:0:
448,192,100840,1,0,0:0:0:0:
192,192,101140,1,0,0:0:0:0:
320,192,101440,1,0,0:0:0:0:
448,192,101740,1,0,0:0:0:0:
192,192,102040,128,0,102340:0:0:0:0:
320,192,102340,128,0,102640:0:0:0:0:
64,192,102640,128,0,103840:0:0:0:0:
448,192,103840,1,0,0:0:0:0:
