osu file format v14

[General]
AudioFilename: audio.mp3
AudioLeadIn: 0
PreviewTime: 52240
Countdown: 0
SampleSet: Normal
StackLeniency: 0.7
Mode: 3
LetterboxInBreaks: 0
SpecialStyle: 0
WidescreenStoryboard: 0

[Editor]
Bookmarks: 52240,71440,103840
DistanceSpacing: 0.8
BeatDivisor: 2
GridSize: 32
TimelineZoom: 1.7

[Metadata]
Title:Koisuru*Uchuu Sensou!! Abababa Mix
TitleUnicode:恋する☆宇宙戦争っ!! あばばばみっくす
Artist:ARM(IOSYS)
ArtistUnicode:ARM(IOSYS)
Creator:R e m u r i n g
Version:ADVANCED
Source:SOUND VOLTEX II -infinite infection-
Tags:SDVX Prim [shana lesus]
BeatmapID:1174160
BeatmapSetID:550587

[Difficulty]
HPDrainRate:7.5
CircleSize:4
OverallDifficulty:7.5
ApproachRate:5
SliderMultiplier:1.4
SliderTickRate:1

[Events]
//Background and Video events
0,0,"bg.jpg",0,0
//Break Periods
//Storyboard Layer 0 (Background)
//Storyboard Layer 1 (Fail)
//Storyboard Layer 2 (Pass)
//Storyboard Layer 3 (Foreground)
//Storyboard Sound Samples

[TimingPoints]
1840,300,4,1,0,40,1,0
52240,-100,4,1,0,40,0,1
71440,-100,4,1,0,40,0,0
90640,-100,4,1,0,40,0,1
97840,-100,4,1,0,40,0,0

[HitObjects]
448,192,1840,5,0,0:0:0:0:
64,192,1840,1,0,0:0:0:0:
320,192,1990,1,0,0:0:0:0:
64,192,2140,1,0,0:0:0:0:
448,192,2290,1,0,0:0:0:0:
320,192,2440,1,0,0:0:0:0:
64,192,2590,1,0,0:0:0:0:
192,192,2665,1,0,0:0:0:0:
64,192,2740,1,0,0:0:0:0:
448,192,2890,1,0,0:0:0:0:
320,192,2965,1,0,0:0:0:0:
192,192,3040,1,0,0:0:0:0:
64,192,3190,1,0,0:0:0:0:
320,192,3340,1,0,0:0:0:0:
448,192,3490,128,0,4240:0:0:0:0:
64,192,3790,1,0,0:0:0:0:
64,192,3940,1,0,0:0:0:0:
64,192,4090,1,0,0:0:0:0:
320,192,4240,128,0,4690:0:0:0:0:
192,192,4240,1,0,0:0:0:0:
64,192,4390,1,0,0:0:0:0:
192,192,4540,1,0,0:0:0:0:
448,192,4690,1,0,0:0:0:0:
192,192,4840,1,0,0:0:0:0:
64,192,4990,1,0,0:0:0:0:
192,192,5065,1,0,0:0:0:0:
64,192,5140,1,0,0:0:0:0:
320,192,5290,1,0,0:0:0:0:
64,192,5440,1,0,0:0:0:0:
192,192,5590,1,0,0:0:0:0:
320,192,5740,1,0,0:0:0:0:
448,192,5890,128,0,6640:0:0:0:0:
192,192,6190,1,0,0:0:0:0:
192,192,6340,1,0,0:0:0:0:
192,192,6490,1,0,0:0:0:0:
320,192,6640,1,0,0:0:0:0:
64,192,6640,128,0,7090:0:0:0:0:
192,192,6790,1,0,0:0:0:0:
320,192,6940,1,0,0:0:0:0:
448,192,7090,1,0,0:0:0:0:
320,192,7240,1,0,0:0:0:0:
64,192,7390,1,0,0:0:0:0:
192,192,7465,1,0,0:0:0:0:
64,192,7540,1,0,0:0:0:0:
320,192,7690,1,0,0:0:0:0:
192,192,7765,1,0,0:0:0:0:
320,192,7840,128,0,8290:0:0:0:0:
64,192,7840,1,0,0:0:0:0:
192,192,7990,1,0,0:0:0:0:
448,192,8140,1,0,0:0:0:0:
192,192,8290,1,0,0:0:0:0:
64,192,8440,1,0,0:0:0:0:
448,192,8590,1,0,0:0:0:0:
320,192,8665,1,0,0:0:0:0:
448,192,8740,1,0,0:0:0:0:
64,192,8890,1,0,0:0:0:0:
320,192,8965,1,0,0:0:0:0:
192,192,9040,1,0,0:0:0:0:
320,192,9115,1,0,0:0:0:0:
192,192,9190,1,0,0:0:0:0:
320,192,9265,1,0,0:0:0:0:
192,192,9340,1,0,0:0:0:0:
320,192,9415,1,0,0:0:0:0:
192,192,9490,1,0,0:0:0:0:
320,192,9565,1,0,0:0:0:0:
64,192,9640,1,0,0:0:0:0:
448,192,9715,1,0,0:0:0:0:
64,192,9790,1,0,0:0:0:0:
448,192,9865,1,0,0:0:0:0:
64,192,9940,1,0,0:0:0:0:
448,192,10015,1,0,0:0:0:0:
64,192,10090,1,0,0:0:0:0:
448,192,10165,1,0,0:0:0:0:
64,192,10240,1,0,0:0:0:0:
192,192,10240,1,0,0:0:0:0:
320,192,10390,1,0,0:0:0:0:
192,192,10465,1,0,0:0:0:0:
448,192,10540,1,0,0:0:0:0:
320,192,10690,1,0,0:0:0:0:
192,192,10765,1,0,0:0:0:0:
320,192,10840,1,0,0:0:0:0:
64,192,10840,128,0,11140:0:0:0:0:
192,192,11140,1,0,0:0:0:0:
448,192,11140,128,0,11440:0:0:0:0:
64,192,11440,1,0,0:0:0:0:
192,192,11440,1,0,0:0:0:0:
320,192,11590,1,0,0:0:0:0:
448,192,11740,1,0,0:0:0:0:
192,192,11740,1,0,0:0:0:0:
64,192,11890,1,0,0:0:0:0:
320,192,12040,1,0,0:0:0:0:
448,192,12040,1,0,0:0:0:0:
192,192,12190,1,0,0:0:0:0:
64,192,12340,1,0,0:0:0:0:
320,192,12340,1,0,0:0:0:0:
448,192,12490,1,0,0:0:0:0:
64,192,12640,1,0,0:0:0:0:
320,192,12640,1,0,0:0:0:0:
192,192,12790,1,0,0:0:0:0:
320,192,12940,1,0,0:0:0:0:
448,192,12940,1,0,0:0:0:0:
64,192,13090,1,0,0:0:0:0:
192,192,13165,1,0,0:0:0:0:
448,192,13240,1,0,0:0:0:0:
320,192,13240,1,0,0:0:0:0:
192,192,13315,1,0,0:0:0:0:
64,192,13390,1,0,0:0:0:0:
192,192,13465,1,0,0:0:0:0:
320,192,13540,1,0,0:0:0:0:
448,192,13540,128,0,13840:0:0:0:0:
64,192,13840,1,0,0:0:0:0:
320,192,13840,1,0,0:0:0:0:
192,192,13990,1,0,0:0:0:0:
320,192,14140,1,0,0:0:0:0:
448,192,14140,1,0,0:0:0:0:
64,192,14290,1,0,0:0:0:0:
192,192,14440,1,0,0:0:0:0:
320,192,14440,1,0,0:0:0:0:
448,192,14590,1,0,0:0:0:0:
64,192,14740,1,0,0:0:0:0:
320,192,14740,1,0,0:0:0:0:
192,192,14890,1,0,0:0:0:0:
64,192,15040,1,0,0:0:0:0:
448,192,15040,1,0,0:0:0:0:
320,192,15190,1,0,0:0:0:0:
64,192,15340,1,0,0:0:0:0:
192,192,15340,1,0,0:0:0:0:
320,192,15490,1,0,0:0:0:0:
448,192,15640,1,0,0:0:0:0:
192,192,15640,1,0,0:0:0:0:
64,192,15790,1,0,0:0:0:0:
320,192,15790,1,0,0:0:0:0:
448,192,15940,1,0,0:0:0:0:
320,192,16015,1,0,0:0:0:0:
64,192,16090,1,0,0:0:0:0:
192,192,16165,1,0,0:0:0:0:
320,192,16240,1,0,0:0:0:0:
448,192,16240,1,0,0:0:0:0:
192,192,16390,1,0,0:0:0:0:
64,192,16540,1,0,0:0:0:0:
448,192,16540,1,0,0:0:0:0:
320,192,16690,1,0,0:0:0:0:
448,192,16840,1,0,0:0:0:0:
192,192,16840,1,0,0:0:0:0:
64,192,16990,1,0,0:0:0:0:
192,192,17140,1,0,0:0:0:0:
320,192,17140,1,0,0:0:0:0:
448,192,17290,1,0,0:0:0:0:
64,192,17440,1,0,0:0:0:0:
320,192,17440,1,0,0:0:0:0:
192,192,17590,1,0,0:0:0:0:
320,192,17740,1,0,0:0:0:0:
448,192,17740,1,0,0:0:0:0:
192,192,17890,1,0,0:0:0:0:
320,192,18040,1,0,0:0:0:0:
448,192,18040,1,0,0:0:0:0:
64,192,18190,1,0,0:0:0:0:
192,192,18340,1,0,0:0:0:0:
320,192,18340,1,0,0:0:0:0:
448,192,18490,1,0,0:0:0:0:
320,192,18640,1,0,0:0:0:0:
64,192,18640,128,0,19090:0:0:0:0:
192,192,19090,1,0,0:0:0:0:
448,192,19090,128,0,19840:0:0:0:0:
64,192,19390,1,0,0:0:0:0:
64,192,19540,1,0,0:0:0:0:
192,192,19840,1,0,0:0:0:0:
320,192,19840,1,0,0:0:0:0:
64,192,19990,1,0,0:0:0:0:
192,192,20140,1,0,0:0:0:0:
448,192,20140,1,0,0:0:0:0:
320,192,20290,1,0,0:0:0:0:
64,192,20290,128,0,21040:0:0:0:0:
448,192,20590,1,0,0:0:0:0:
448,192,20740,1,0,0:0:0:0:
192,192,21040,1,0,0:0:0:0:
320,192,21040,1,0,0:0:0:0:
448,192,21190,1,0,0:0:0:0:
64,192,21340,1,0,0:0:0:0:
320,192,21340,1,0,0:0:0:0:
192,192,21490,1,0,0:0:0:0:
320,192,21640,1,0,0:0:0:0:
64,192,21790,1,0,0:0:0:0:
192,192,21790,1,0,0:0:0:0:
320,192,21940,1,0,0:0:0:0:
448,192,21940,1,0,0:0:0:0:
192,192,22090,1,0,0:0:0:0:
64,192,22240,1,0,0:0:0:0:
448,192,22240,128,0,22540:0:0:0:0:
320,192,22390,128,0,22540:0:0:0:0:
64,192,22540,128,0,22840:0:0:0:0:
192,192,22690,128,0,22840:0:0:0:0:
448,192,22840,1,0,0:0:0:0:
320,192,22990,1,0,0:0:0:0:
192,192,22990,1,0,0:0:0:0:
64,192,23140,1,0,0:0:0:0:
448,192,23140,1,0,0:0:0:0:
320,192,23290,1,0,0:0:0:0:
64,192,23440,1,0,0:0:0:0:
192,192,23440,1,0,0:0:0:0:
320,192,23590,1,0,0:0:0:0:
448,192,23740,1,0,0:0:0:0:
192,192,23740,1,0,0:0:0:0:
64,192,23890,1,0,0:0:0:0:
192,192,24040,1,0,0:0:0:0:
320,192,24190,1,0,0:0:0:0:
448,192,24190,1,0,0:0:0:0:
64,192,24340,1,0,0:0:0:0:
192,192,24340,1,0,0:0:0:0:
320,192,24490,1,0,0:0:0:0:
64,192,24640,1,0,0:0:0:0:
448,192,24640,128,0,24940:0:0:0:0:
192,192,24790,1,0,0:0:0:0:
320,192,24940,1,0,0:0:0:0:
64,192,24940,128,0,25240:0:0:0:0:
192,192,25090,1,0,0:0:0:0:
448,192,25090,1,0,0:0:0:0:
320,192,25240,1,0,0:0:0:0:
192,192,25390,1,0,0:0:0:0:
64,192,25390,1,0,0:0:0:0:
320,192,25540,1,0,0:0:0:0:
448,192,25540,1,0,0:0:0:0:
64,192,25690,1,0,0:0:0:0:
192,192,25840,1,0,0:0:0:0:
320,192,25840,1,0,0:0:0:0:
448,192,25990,1,0,0:0:0:0:
64,192,26140,1,0,0:0:0:0:
320,192,26140,1,0,0:0:0:0:
192,192,26290,1,0,0:0:0:0:
320,192,26440,1,0,0:0:0:0:
64,192,26590,1,0,0:0:0:0:
192,192,26590,1,0,0:0:0:0:
320,192,26740,1,0,0:0:0:0:
448,192,26740,1,0,0:0:0:0:
192,192,26890,1,0,0:0:0:0:
64,192,27040,1,0,0:0:0:0:
448,192,27040,1,0,0:0:0:0:
320,192,27040,128,0,27490:0:0:0:0:
192,192,27340,1,0,0:0:0:0:
448,192,27490,1,0,0:0:0:0:
64,192,27490,128,0,27940:0:0:0:0:
320,192,27790,1,0,0:0:0:0:
192,192,27940,1,0,0:0:0:0:
448,192,27940,1,0,0:0:0:0:
320,192,28090,1,0,0:0:0:0:
64,192,28240,1,0,0:0:0:0:
192,192,28240,1,0,0:0:0:0:
320,192,28390,1,0,0:0:0:0:
448,192,28540,1,0,0:0:0:0:
64,192,28540,1,0,0:0:0:0:
320,192,28690,1,0,0:0:0:0:
192,192,28765,1,0,0:0:0:0:
64,192,28765,1,0,0:0:0:0:
448,192,28840,1,0,0:0:0:0:
320,192,28990,1,0,0:0:0:0:
192,192,28990,1,0,0:0:0:0:
64,192,29140,1,0,0:0:0:0:
448,192,29290,1,0,0:0:0:0:
320,192,29290,1,0,0:0:0:0:
192,192,29440,1,0,0:0:0:0:
64,192,29440,128,0,30040:0:0:0:0:
320,192,30040,1,0,0:0:0:0:
448,192,30040,128,0,30340:0:0:0:0:
64,192,30340,1,0,0:0:0:0:
192,192,30340,128,0,30640:0:0:0:0:
320,192,30640,1,0,0:0:0:0:
448,192,30640,1,0,0:0:0:0:
192,192,30790,1,0,0:0:0:0:
64,192,30940,1,0,0:0:0:0:
448,192,30940,1,0,0:0:0:0:
192,192,31090,1,0,0:0:0:0:
320,192,31240,1,0,0:0:0:0:
448,192,31390,1,0,0:0:0:0:
64,192,31390,1,0,0:0:0:0:
192,192,31540,1,0,0:0:0:0:
320,192,31540,1,0,0:0:0:0:
448,192,31690,1,0,0:0:0:0:
320,192,31840,1,0,0:0:0:0:
64,192,31840,128,0,32140:0:0:0:0:
192,192,31990,128,0,32140:0:0:0:0:
448,192,32140,128,0,32440:0:0:0:0:
320,192,32290,128,0,32440:0:0:0:0:
64,192,32440,1,0,0:0:0:0:
192,192,32590,1,0,0:0:0:0:
320,192,32590,1,0,0:0:0:0:
64,192,32740,1,0,0:0:0:0:
448,192,32740,128,0,33040:0:0:0:0:
192,192,33040,1,0,0:0:0:0:
320,192,33040,1,0,0:0:0:0:
64,192,33190,1,0,0:0:0:0:
192,192,33340,1,0,0:0:0:0:
448,192,33340,1,0,0:0:0:0:
320,192,33490,1,0,0:0:0:0:
192,192,33640,1,0,0:0:0:0:
64,192,33790,1,0,0:0:0:0:
320,192,33790,1,0,0:0:0:0:
192,192,33940,1,0,0:0:0:0:
448,192,33940,1,0,0:0:0:0:
320,192,34090,1,0,0:0:0:0:
448,192,34240,1,0,0:0:0:0:
192,192,34240,128,0,34540:0:0:0:0:
64,192,34390,128,0,34540:0:0:0:0:
320,192,34540,128,0,34840:0:0:0:0:
448,192,34690,128,0,34840:0:0:0:0:
64,192,34840,1,0,0:0:0:0:
320,192,34990,1,0,0:0:0:0:
448,192,34990,1,0,0:0:0:0:
192,192,35140,1,0,0:0:0:0:
64,192,35140,128,0,35440:0:0:0:0:
448,192,35440,1,0,0:0:0:0:
320,192,35440,1,0,0:0:0:0:
192,192,35590,1,0,0:0:0:0:
64,192,35740,1,0,0:0:0:0:
448,192,35740,1,0,0:0:0:0:
192,192,35890,1,0,0:0:0:0:
320,192,36040,1,0,0:0:0:0:
64,192,36190,1,0,0:0:0:0:
192,192,36190,1,0,0:0:0:0:
320,192,36340,1,0,0:0:0:0:
448,192,36340,1,0,0:0:0:0:
192,192,36490,1,0,0:0:0:0:
64,192,36640,1,0,0:0:0:0:
64,192,36790,1,0,0:0:0:0:
320,192,36940,1,0,0:0:0:0:
320,192,37090,1,0,0:0:0:0:
64,192,37240,128,0,37840:0:0:0:0:
320,192,37390,1,0,0:0:0:0:
192,192,37540,1,0,0:0:0:0:
448,192,37690,1,0,0:0:0:0:
320,192,37840,128,0,38440:0:0:0:0:
192,192,37990,1,0,0:0:0:0:
64,192,38140,1,0,0:0:0:0:
448,192,38140,1,0,0:0:0:0:
192,192,38290,1,0,0:0:0:0:
448,192,38440,128,0,39040:0:0:0:0:
192,192,38590,1,0,0:0:0:0:
320,192,38740,1,0,0:0:0:0:
64,192,38740,1,0,0:0:0:0:
192,192,38890,1,0,0:0:0:0:
320,192,39040,1,0,0:0:0:0:
64,192,39040,128,0,39340:0:0:0:0:
192,192,39340,1,0,0:0:0:0:
448,192,39340,128,0,39640:0:0:0:0:
64,192,39640,1,0,0:0:0:0:
320,192,39640,128,0,39940:0:0:0:0:
448,192,39940,1,0,0:0:0:0:
192,192,39940,128,0,40240:0:0:0:0:
64,192,40240,128,0,40540:0:0:0:0:
320,192,40240,1,0,0:0:0:0:
448,192,40540,1,0,0:0:0:0:
320,192,40840,1,0,0:0:0:0:
192,192,40840,1,0,0:0:0:0:
64,192,41040,1,0,0:0:0:0:
192,192,41140,1,0,0:0:0:0:
448,192,41440,1,0,0:0:0:0:
320,192,41740,1,0,0:0:0:0:
64,192,42040,1,0,0:0:0:0:
192,192,42040,1,0,0:0:0:0:
448,192,42240,1,0,0:0:0:0:
320,192,42340,1,0,0:0:0:0:
192,192,42640,1,0,0:0:0:0:
320,192,42940,1,0,0:0:0:0:
64,192,43240,1,0,0:0:0:0:
448,192,43240,1,0,0:0:0:0:
192,192,43390,1,0,0:0:0:0:
448,192,43690,1,0,0:0:0:0:
192,192,44140,1,0,0:0:0:0:
320,192,44290,1,0,0:0:0:0:
64,192,44440,1,0,0:0:0:0:
192,192,44440,1,0,0:0:0:0:
64,192,44740,1,0,0:0:0:0:
448,192,44740,128,0,45040:0:0:0:0:
192,192,45040,1,0,0:0:0:0:
448,192,45340,1,0,0:0:0:0:
64,192,45640,1,0,0:0:0:0:
192,192,45640,1,0,0:0:0:0:
320,192,45790,1,0,0:0:0:0:
192,192,45940,1,0,0:0:0:0:
448,192,46090,1,0,0:0:0:0:
64,192,46390,1,0,0:0:0:0:
320,192,46540,1,0,0:0:0:0:
448,192,46690,1,0,0:0:0:0:
64,192,46840,1,0,0:0:0:0:
192,192,46840,1,0,0:0:0:0:
192,192,47140,1,0,0:0:0:0:
448,192,47440,1,0,0:0:0:0:
64,192,47590,1,0,0:0:0:0:
192,192,47740,1,0,0:0:0:0:
320,192,47890,1,0,0:0:0:0:
448,192,48040,1,0,0:0:0:0:
192,192,48190,128,0,48490:0:0:0:0:
320,192,48490,1,0,0:0:0:0:
448,192,48490,128,0,49840:0:0:0:0:
64,192,49840,128,0,50440:0:0:0:0:
448,192,50440,1,0,0:0:0:0:
320,192,50515,1,0,0:0:0:0:
64,192,50590,1,0,0:0:0:0:
192,192,50665,1,0,0:0:0:0:
448,192,50740,1,0,0:0:0:0:
320,192,50815,1,0,0:0:0:0:
192,192,50890,1,0,0:0:0:0:
64,192,50965,1,0,0:0:0:0:
192,192,51040,1,0,0:0:0:0:
320,192,51340,1,0,0:0:0:0:
192,192,51640,1,0,0:0:0:0:
192,192,51790,1,0,0:0:0:0:
320,192,51940,1,0,0:0:0:0:
192,192,52015,1,0,0:0:0:0:
320,192,52090,1,0,0:0:0:0:
192,192,52165,1,0,0:0:0:0:
64,192,52240,1,0,0:0:0:0:
448,192,52240,1,0,0:0:0:0:
192,192,52390,1,0,0:0:0:0:
320,192,52540,1,0,0:0:0:0:
448,192,52540,1,0,0:0:0:0:
192,192,52690,1,0,0:0:0:0:
64,192,52840,1,0,0:0:0:0:
448,192,52840,1,0,0:0:0:0:
320,192,52990,1,0,0:0:0:0:
64,192,53140,1,0,0:0:0:0:
192,192,53140,1,0,0:0:0:0:
320,192,53290,1,0,0:0:0:0:
448,192,53440,1,0,0:0:0:0:
64,192,53440,1,0,0:0:0:0:
192,192,53590,1,0,0:0:0:0:
320,192,53740,1,0,0:0:0:0:
448,192,53740,1,0,0:0:0:0:
64,192,53890,1,0,0:0:0:0:
192,192,54040,1,0,0:0:0:0:
448,192,54040,1,0,0:0:0:0:
320,192,54190,1,0,0:0:0:0:
64,192,54340,1,0,0:0:0:0:
448,192,54340,1,0,0:0:0:0:
192,192,54490,128,0,54790:0:0:0:0:
320,192,54790,1,0,0:0:0:0:
64,192,54940,1,0,0:0:0:0:
448,192,54940,1,0,0:0:0:0:
320,192,55090,128,0,55390:0:0:0:0:
192,192,55390,1,0,0:0:0:0:
64,192,55540,1,0,0:0:0:0:
448,192,55540,1,0,0:0:0:0:
320,192,55690,1,0,0:0:0:0:
64,192,55840,128,0,56140:0:0:0:0:
192,192,55840,128,0,55990:0:0:0:0:
448,192,56140,128,0,56440:0:0:0:0:
320,192,56140,128,0,56290:0:0:0:0:
64,192,56440,1,0,0:0:0:0:
192,192,56440,1,0,0:0:0:0:
320,192,56590,1,0,0:0:0:0:
448,192,56740,1,0,0:0:0:0:
64,192,56740,1,0,0:0:0:0:
192,192,56890,1,0,0:0:0:0:
320,192,57040,1,0,0:0:0:0:
448,192,57040,128,0,57940:0:0:0:0:
192,192,57190,1,0,0:0:0:0:
64,192,57340,1,0,0:0:0:0:
320,192,57340,1,0,0:0:0:0:
192,192,57490,1,0,0:0:0:0:
64,192,57640,1,0,0:0:0:0:
320,192,57640,1,0,0:0:0:0:
192,192,57790,1,0,0:0:0:0:
320,192,57940,1,0,0:0:0:0:
64,192,57940,128,0,59140:0:0:0:0:
448,192,58090,1,0,0:0:0:0:
320,192,58240,1,0,0:0:0:0:
192,192,58240,1,0,0:0:0:0:
448,192,58390,1,0,0:0:0:0:
192,192,58540,1,0,0:0:0:0:
320,192,58540,1,0,0:0:0:0:
448,192,58690,1,0,0:0:0:0:
192,192,58840,1,0,0:0:0:0:
320,192,58840,1,0,0:0:0:0:
448,192,58990,1,0,0:0:0:0:
192,192,59140,1,0,0:0:0:0:
320,192,59140,128,0,59440:0:0:0:0:
448,192,59290,1,0,0:0:0:0:
64,192,59440,128,0,59740:0:0:0:0:
448,192,59740,1,0,0:0:0:0:
192,192,59740,1,0,0:0:0:0:
320,192,59890,1,0,0:0:0:0:
64,192,59890,1,0,0:0:0:0:
448,192,60040,128,0,60340:0:0:0:0:
64,192,60340,1,0,0:0:0:0:
320,192,60340,1,0,0:0:0:0:
192,192,60490,1,0,0:0:0:0:
448,192,60490,1,0,0:0:0:0:
64,192,60640,128,0,60790:0:0:0:0:
320,192,60640,128,0,60790:0:0:0:0:
64,192,60940,128,0,61090:0:0:0:0:
320,192,60940,128,0,61090:0:0:0:0:
192,192,61240,128,0,61390:0:0:0:0:
448,192,61240,1,0,0:0:0:0:
320,192,61390,128,0,61540:0:0:0:0:
64,192,61390,1,0,0:0:0:0:
448,192,61540,128,0,61690:0:0:0:0:
192,192,61540,1,0,0:0:0:0:
64,192,61690,128,0,61840:0:0:0:0:
320,192,61690,1,0,0:0:0:0:
192,192,61840,1,0,0:0:0:0:
448,192,61840,1,0,0:0:0:0:
320,192,61990,1,0,0:0:0:0:
192,192,62140,1,0,0:0:0:0:
448,192,62140,1,0,0:0:0:0:
64,192,62290,1,0,0:0:0:0:
192,192,62440,1,0,0:0:0:0:
320,192,62440,1,0,0:0:0:0:
448,192,62590,1,0,0:0:0:0:
64,192,62740,1,0,0:0:0:0:
320,192,62740,1,0,0:0:0:0:
192,192,62890,1,0,0:0:0:0:
320,192,63040,1,0,0:0:0:0:
448,192,63040,1,0,0:0:0:0:
64,192,63190,1,0,0:0:0:0:
192,192,63340,1,0,0:0:0:0:
320,192,63340,1,0,0:0:0:0:
448,192,63490,1,0,0:0:0:0:
64,192,63640,1,0,0:0:0:0:
320,192,63640,1,0,0:0:0:0:
192,192,63790,1,0,0:0:0:0:
320,192,63940,1,0,0:0:0:0:
448,192,63940,1,0,0:0:0:0:
64,192,64090,128,0,64390:0:0:0:0:
192,192,64390,1,0,0:0:0:0:
448,192,64540,1,0,0:0:0:0:
320,192,64540,1,0,0:0:0:0:
192,192,64690,128,0,64990:0:0:0:0:
448,192,64990,1,0,0:0:0:0:
64,192,65140,1,0,0:0:0:0:
320,192,65140,1,0,0:0:0:0:
192,192,65290,1,0,0:0:0:0:
448,192,65440,128,0,65590:0:0:0:0:
320,192,65440,128,0,65590:0:0:0:0:
64,192,65590,1,0,0:0:0:0:
192,192,65740,128,0,65890:0:0:0:0:
64,192,65740,128,0,65890:0:0:0:0:
448,192,65890,1,0,0:0:0:0:
320,192,66040,1,0,0:0:0:0:
192,192,66040,1,0,0:0:0:0:
64,192,66190,1,0,0:0:0:0:
320,192,66340,1,0,0:0:0:0:
448,192,66340,1,0,0:0:0:0:
192,192,66490,1,0,0:0:0:0:
64,192,66640,1,0,0:0:0:0:
448,192,66640,128,0,67540:0:0:0:0:
192,192,66790,1,0,0:0:0:0:
320,192,66940,1,0,0:0:0:0:
64,192,66940,1,0,0:0:0:0:
192,192,67090,1,0,0:0:0:0:
64,192,67240,1,0,0:0:0:0:
320,192,67240,1,0,0:0:0:0:
192,192,67390,1,0,0:0:0:0:
320,192,67540,1,0,0:0:0:0:
64,192,67540,128,0,68740:0:0:0:0:
192,192,67690,1,0,0:0:0:0:
448,192,67840,1,0,0:0:0:0:
320,192,67840,1,0,0:0:0:0:
192,192,67990,1,0,0:0:0:0:
320,192,68140,1,0,0:0:0:0:
448,192,68140,1,0,0:0:0:0:
192,192,68290,1,0,0:0:0:0:
320,192,68440,1,0,0:0:0:0:
448,192,68440,1,0,0:0:0:0:
192,192,68590,1,0,0:0:0:0:
320,192,68740,1,0,0:0:0:0:
448,192,68740,128,0,69040:0:0:0:0:
64,192,69040,128,0,69340:0:0:0:0:
192,192,69340,1,0,0:0:0:0:
448,192,69340,128,0,69640:0:0:0:0:
64,192,69640,128,0,69940:0:0:0:0:
448,192,69940,128,0,70240:0:0:0:0:
192,192,69940,1,0,0:0:0:0:
64,192,70240,1,0,0:0:0:0:
320,192,70240,1,0,0:0:0:0:
192,192,70390,1,0,0:0:0:0:
448,192,70390,1,0,0:0:0:0:
64,192,70540,1,0,0:0:0:0:
320,192,70540,1,0,0:0:0:0:
64,192,70690,1,0,0:0:0:0:
448,192,70690,1,0,0:0:0:0:
320,192,70765,1,0,0:0:0:0:
192,192,70840,1,0,0:0:0:0:
64,192,70915,1,0,0:0:0:0:
448,192,70990,1,0,0:0:0:0:
320,192,71065,1,0,0:0:0:0:
64,192,71140,1,0,0:0:0:0:
192,192,71140,1,0,0:0:0:0:
320,192,71215,1,0,0:0:0:0:
448,192,71290,1,0,0:0:0:0:
64,192,71365,1,0,0:0:0:0:
448,192,71440,1,0,0:0:0:0:
192,192,71440,1,0,0:0:0:0:
320,192,71590,1,0,0:0:0:0:
448,192,71740,1,0,0:0:0:0:
192,192,71740,1,0,0:0:0:0:
320,192,71890,1,0,0:0:0:0:
448,192,72040,128,0,72340:0:0:0:0:
64,192,72040,1,0,0:0:0:0:
192,192,72190,1,0,0:0:0:0:
320,192,72340,1,0,0:0:0:0:
64,192,72340,1,0,0:0:0:0:
192,192,72490,1,0,0:0:0:0:
448,192,72640,1,0,0:0:0:0:
320,192,72640,128,0,72940:0:0:0:0:
64,192,72790,1,0,0:0:0:0:
192,192,72940,1,0,0:0:0:0:
448,192,72940,1,0,0:0:0:0:
64,192,73090,1,0,0:0:0:0:
192,192,73240,1,0,0:0:0:0:
320,192,73240,128,0,73390:0:0:0:0:
64,192,73390,128,0,73540:0:0:0:0:
448,192,73540,1,0,0:0:0:0:
320,192,73540,128,0,73690:0:0:0:0:
64,192,73690,128,0,73840:0:0:0:0:
320,192,73840,1,0,0:0:0:0:
448,192,73840,128,0,75040:0:0:0:0:
192,192,73990,1,0,0:0:0:0:
64,192,74140,1,0,0:0:0:0:
320,192,74140,1,0,0:0:0:0:
192,192,74290,1,0,0:0:0:0:
320,192,74440,1,0,0:0:0:0:
64,192,74440,1,0,0:0:0:0:
192,192,74590,1,0,0:0:0:0:
320,192,74740,1,0,0:0:0:0:
64,192,74740,1,0,0:0:0:0:
192,192,74890,1,0,0:0:0:0:
320,192,75040,1,0,0:0:0:0:
64,192,75040,128,0,75340:0:0:0:0:
448,192,75340,1,0,0:0:0:0:
320,192,75490,1,0,0:0:0:0:
64,192,75640,128,0,75940:0:0:0:0:
192,192,75940,1,0,0:0:0:0:
448,192,75940,128,0,76240:0:0:0:0:
320,192,76090,1,0,0:0:0:0:
64,192,76240,1,0,0:0:0:0:
192,192,76240,1,0,0:0:0:0:
320,192,76390,1,0,0:0:0:0:
192,192,76540,128,0,76690:0:0:0:0:
448,192,76540,1,0,0:0:0:0:
320,192,76690,1,0,0:0:0:0:
448,192,76840,1,0,0:0:0:0:
64,192,76840,128,0,76990:0:0:0:0:
192,192,76990,1,0,0:0:0:0:
320,192,77140,1,0,0:0:0:0:
448,192,77140,128,0,77290:0:0:0:0:
192,192,77290,1,0,0:0:0:0:
320,192,77440,1,0,0:0:0:0:
64,192,77440,1,0,0:0:0:0:
448,192,77590,1,0,0:0:0:0:
192,192,77740,1,0,0:0:0:0:
320,192,77740,1,0,0:0:0:0:
64,192,77890,1,0,0:0:0:0:
192,192,78040,1,0,0:0:0:0:
448,192,78040,128,0,78340:0:0:0:0:
320,192,78190,1,0,0:0:0:0:
64,192,78340,1,0,0:0:0:0:
192,192,78340,1,0,0:0:0:0:
320,192,78490,1,0,0:0:0:0:
448,192,78640,1,0,0:0:0:0:
64,192,78640,128,0,79690:0:0:0:0:
320,192,78790,1,0,0:0:0:0:
448,192,78940,1,0,0:0:0:0:
320,192,79090,1,0,0:0:0:0:
448,192,79240,1,0,0:0:0:0:
320,192,79390,1,0,0:0:0:0:
448,192,79540,1,0,0:0:0:0:
320,192,79690,1,0,0:0:0:0:
192,192,79690,128,0,80440:0:0:0:0:
448,192,79990,1,0,0:0:0:0:
320,192,80140,1,0,0:0:0:0:
448,192,80290,1,0,0:0:0:0:
320,192,80440,128,0,80740:0:0:0:0:
64,192,80740,128,0,81040:0:0:0:0:
192,192,81040,1,0,0:0:0:0:
448,192,81040,128,0,82840:0:0:0:0:
320,192,81340,1,0,0:0:0:0:
192,192,81640,1,0,0:0:0:0:
320,192,81940,1,0,0:0:0:0:
64,192,82240,1,0,0:0:0:0:
192,192,82540,1,0,0:0:0:0:
64,192,82840,128,0,83440:0:0:0:0:
320,192,83140,1,0,0:0:0:0:
192,192,83440,1,0,0:0:0:0:
448,192,83440,128,0,85240:0:0:0:0:
320,192,83740,1,0,0:0:0:0:
64,192,84040,1,0,0:0:0:0:
320,192,84340,1,0,0:0:0:0:
192,192,84640,1,0,0:0:0:0:
64,192,84940,1,0,0:0:0:0:
320,192,85240,128,0,85840:0:0:0:0:
192,192,85540,1,0,0:0:0:0:
64,192,85840,128,0,87040:0:0:0:0:
448,192,85840,1,0,0:0:0:0:
320,192,86140,1,0,0:0:0:0:
192,192,86440,1,0,0:0:0:0:
320,192,86740,1,0,0:0:0:0:
192,192,87040,1,0,0:0:0:0:
448,192,87040,128,0,87640:0:0:0:0:
64,192,87640,1,0,0:0:0:0:
320,192,87640,128,0,88240:0:0:0:0:
64,192,88240,1,0,0:0:0:0:
192,192,88240,1,0,0:0:0:0:
192,192,88390,1,0,0:0:0:0:
448,192,88540,1,0,0:0:0:0:
448,192,88690,1,0,0:0:0:0:
64,192,88840,1,0,0:0:0:0:
64,192,88990,1,0,0:0:0:0:
192,192,89140,1,0,0:0:0:0:
192,192,89290,1,0,0:0:0:0:
64,192,89290,128,0,90040:0:0:0:0:
192,192,90040,128,0,90340:0:0:0:0:
448,192,90040,128,0,90340:0:0:0:0:
320,192,90340,128,0,90640:0:0:0:0:
64,192,90340,128,0,90640:0:0:0:0:
192,192,90640,1,0,0:0:0:0:
448,192,90640,1,0,0:0:0:0:
320,192,90790,1,0,0:0:0:0:
64,192,90940,1,0,0:0:0:0:
192,192,90940,1,0,0:0:0:0:
448,192,91090,1,0,0:0:0:0:
192,192,91240,1,0,0:0:0:0:
320,192,91240,1,0,0:0:0:0:
64,192,91390,1,0,0:0:0:0:
192,192,91540,1,0,0:0:0:0:
448,192,91540,1,0,0:0:0:0:
320,192,91690,1,0,0:0:0:0:
64,192,91840,1,0,0:0:0:0:
192,192,91840,1,0,0:0:0:0:
320,192,91990,1,0,0:0:0:0:
448,192,92140,1,0,0:0:0:0:
64,192,92140,1,0,0:0:0:0:
192,192,92290,1,0,0:0:0:0:
320,192,92440,1,0,0:0:0:0:
448,192,92440,1,0,0:0:0:0:
64,192,92590,1,0,0:0:0:0:
192,192,92740,1,0,0:0:0:0:
320,192,92740,1,0,0:0:0:0:
448,192,92890,1,0,0:0:0:0:
64,192,93040,1,0,0:0:0:0:
320,192,93040,1,0,0:0:0:0:
192,192,93190,128,0,93490:0:0:0:0:
448,192,93490,1,0,0:0:0:0:
64,192,93640,1,0,0:0:0:0:
320,192,93640,1,0,0:0:0:0:
192,192,93790,128,0,94090:0:0:0:0:
448,192,94090,1,0,0:0:0:0:
64,192,94240,1,0,0:0:0:0:
320,192,94240,1,0,0:0:0:0:
192,192,94390,1,0,0:0:0:0:
320,192,94540,1,0,0:0:0:0:
448,192,94540,1,0,0:0:0:0:
192,192,94690,1,0,0:0:0:0:
64,192,94840,128,0,94990:0:0:0:0:
448,192,94840,128,0,94990:0:0:0:0:
192,192,94990,128,0,95140:0:0:0:0:
64,192,95140,128,0,95290:0:0:0:0:
448,192,95140,128,0,95290:0:0:0:0:
320,192,95290,128,0,95440:0:0:0:0:
192,192,95440,1,0,0:0:0:0:
448,192,95440,128,0,96340:0:0:0:0:
64,192,95590,1,0,0:0:0:0:
320,192,95740,1,0,0:0:0:0:
192,192,95740,1,0,0:0:0:0:
64,192,95890,1,0,0:0:0:0:
192,192,96040,1,0,0:0:0:0:
320,192,96040,1,0,0:0:0:0:
64,192,96190,1,0,0:0:0:0:
320,192,96340,1,0,0:0:0:0:
192,192,96340,128,0,96640:0:0:0:0:
64,192,96640,1,0,0:0:0:0:
448,192,96640,1,0,0:0:0:0:
320,192,96790,1,0,0:0:0:0:
64,192,96940,1,0,0:0:0:0:
192,192,96940,1,0,0:0:0:0:
448,192,97090,128,0,97540:0:0:0:0:
192,192,97540,1,0,0:0:0:0:
320,192,97540,1,0,0:0:0:0:
64,192,97690,1,0,0:0:0:0:
192,192,97765,1,0,0:0:0:0:
320,192,97840,1,0,0:0:0:0:
448,192,97840,128,0,99040:0:0:0:0:
64,192,99040,1,0,0:0:0:0:
320,192,99040,128,0,99490:0:0:0:0:
448,192,99490,1,0,0:0:0:0:
192,192,99490,128,0,99940:0:0:0:0:
320,192,99940,1,0,0:0:0:0:
64,192,99940,128,0,100240:0:0:0:0:
192,192,100240,1,0,0:0:0:0:
448,192,100240,128,0,102640:0:0:0:0:
320,192,100390,1,0,0:0:0:0:
64,192,100540,1,0,0:0:0:0:
192,192,100540,1,0,0:0:0:0:
320,192,100690,1,0,0:0:0:0:
64,192,100840,1,0,0:0:0:0:
192,192,100840,1,0,0:0:0:0:
320,192,100990,1,0,0:0:0:0:
64,192,101140,1,0,0:0:0:0:
192,192,101140,1,0,0:0:0:0:
320,192,101290,1,0,0:0:0:0:
64,192,101440,1,0,0:0:0:0:
192,192,101440,1,0,0:0:0:0:
320,192,101590,1,0,0:0:0:0:
64,192,101740,1,0,0:0:0:0:
192,192,101740,1,0,0:0:0:0:
320,192,101890,1,0,0:0:0:0:
192,192,102040,1,0,0:0:0:0:
64,192,102040,1,0,0:0:0:0:
320,192,102190,1,0,0:0:0:0:
64,192,102340,1,0,0:0:0:0:
192,192,102340,1,0,0:0:0:0:
320,192,102490,1,0,0:0:0:0:
192,192,102640,128,0,103840:0:0:0:0:
64,192,102640,1,0,0:0:0:0:
64,192,103840,1,0,0:0:0:0:
448,192,103840,1,0,0:0:0:0:
320,192,103840,1,0,0:0:0:0:
