osu file format v14

[General]
AudioFilename: audio.mp3
AudioLeadIn: 0
PreviewTime: 59059
Countdown: 1
SampleSet: Soft
StackLeniency: 0.7
Mode: 0
LetterboxInBreaks: 0
WidescreenStoryboard: 0

[Editor]
Bookmarks: 1916,8774,10488,15631,20202,29345,38488,47631,52202,54488,56774,59059,63631,68202,72774,73916,77345,79631,84202
DistanceSpacing: 4
BeatDivisor: 4
GridSize: 8
TimelineZoom: 1.6

[Metadata]
Title:Acchi de Kocchi de (TV Size)
TitleUnicode:あっち で こっち で (TV Size)
Artist:ARM(IOSYS)
ArtistUnicode:ARM(IOSYS)
Creator:Num5119
Version:By my side!
Source:あっちこっち
Tags:Place to Place Acchi Kocchi
BeatmapID:1877532
BeatmapSetID:898764

[Difficulty]
HPDrainRate:7
CircleSize:4
OverallDifficulty:9
ApproachRate:9.6
SliderMultiplier:1.8
SliderTickRate:1

[Events]
//Background and Video events
0,0,"acchikocchitogether.jpg",0,0
//Break Periods
//Storyboard Layer 0 (Background)
//Storyboard Layer 1 (Fail)
//Storyboard Layer 2 (Pass)
//Storyboard Layer 3 (Foreground)
//Storyboard Sound Samples

[TimingPoints]
776,285.714285714286,4,1,0,100,1,0
7918,-66.6666666666667,4,1,0,100,0,0
9918,-100,4,1,0,100,0,0
15633,-100,4,1,0,100,0,1
19204,-100,4,1,0,25,0,0
19490,-100,4,1,0,50,0,0
19776,-100,4,1,0,75,0,0
20061,-100,4,1,0,100,0,0
24776,-79.9999999999999,4,1,0,100,0,0
25347,-100,4,1,0,100,0,0
33918,-79.9999999999999,4,1,0,100,0,0
34490,-66.6666666666667,4,1,0,100,0,0
34918,-100,4,1,0,100,0,0
37918,-200,4,2,0,50,0,0
54490,-200,4,1,0,75,0,0
56776,-100,4,1,0,100,0,0
59061,-100,4,1,0,100,0,1
74490,-79.9999999999999,4,1,0,100,0,1
75061,-66.6666666666667,4,1,0,100,0,1
75633,-57.1428571428571,4,1,0,100,0,1
76204,-100,4,1,0,100,0,1
77347,-100,4,1,0,100,0,0
77918,-200,4,1,0,100,0,0
79633,-100,4,1,0,90,0,0
83061,-100,4,1,0,100,0,1
86490,-100,4,1,0,100,0,0

[HitObjects]
80,160,1918,5,8,0:0:0:0:
416,288,2490,1,8,0:0:0:0:
64,336,3061,1,8,0:0:0:0:
352,128,3633,1,8,0:0:0:0:
80,256,4204,5,8,0:0:0:0:
432,160,4776,1,8,0:0:0:0:
80,80,5347,1,8,0:0:0:0:
400,256,5918,1,8,0:0:0:0:
208,336,6133,6,0,P|208:288|224:256,1,45,0|8,0:0|0:0,0:0:0:0:
352,64,6490,1,0,0:0:0:0:
384,304,7061,6,0,P|320:160|336:336,1,495,12|0,0:0|0:0,0:0:0:0:
384,304,7918,2,0,P|304:144|336:336,1,540.000020599366,8|0,0:0|0:0,0:0:0:0:
352,160,8776,5,8,2:0:0:0:
160,208,8990,1,8,2:0:0:0:
416,240,9276,5,8,2:0:0:0:
80,128,9561,1,8,2:0:0:0:
480,48,9847,1,8,2:0:0:0:
368,144,9918,2,8,P|312:176|344:96,1,180,8|8,2:0|2:0,2:0:0:0:
160,336,10490,5,0,0:0:0:0:
119,317,10561,1,0,0:0:0:0:
93,281,10633,1,0,0:0:0:0:
89,237,10704,1,0,0:0:0:0:
107,197,10776,5,0,0:0:0:0:
142,169,10847,1,0,0:0:0:0:
159,128,10918,1,0,0:0:0:0:
153,83,10990,1,0,0:0:0:0:
127,47,11061,5,8,0:0:0:0:
368,176,11204,1,0,0:0:0:0:
96,224,11347,5,8,0:0:0:0:
320,80,11490,1,0,0:0:0:0:
256,320,11633,5,8,0:0:0:0:
80,112,11776,1,0,0:0:0:0:
352,240,11918,5,8,0:0:0:0:
80,224,12061,1,0,0:0:0:0:
288,48,12204,6,0,P|336:80|352:144,1,90,8|0,0:0|0:0,0:0:0:0:
208,336,12490,2,0,P|160:304|144:240,1,90,8|0,0:0|0:0,0:0:0:0:
408,136,12776,6,0,P|424:184|408:232,1,90,8|0,0:0|0:0,0:0:0:0:
88,248,13061,2,0,P|72:200|88:151,1,90,8|0,0:0|0:0,0:0:0:0:
336,80,13347,5,8,0:0:0:0:
272,328,13490,1,0,0:0:0:0:
112,128,13633,5,8,0:0:0:0:
360,152,13776,1,0,0:0:0:0:
152,296,13918,5,8,0:0:0:0:
256,64,14061,1,0,0:0:0:0:
376,288,14204,5,8,0:0:0:0:
136,208,14347,1,0,0:0:0:0:
376,80,14490,6,0,L|384:176,1,90,8|0,0:0|0:0,0:0:0:0:
176,344,14776,2,0,L|168:248,1,90,8|0,0:0|0:0,0:0:0:0:
216,40,15061,6,0,L|224:136,1,90,8|0,0:0|0:0,0:0:0:0:
432,328,15347,2,0,L|424:232,1,90,8|0,0:0|0:0,0:0:0:0:
120,168,15633,5,8,0:0:0:0:
368,120,15776,1,4,3:0:0:0:
216,320,15918,1,4,3:0:0:0:
240,72,16061,5,8,0:0:0:0:
240,72,16133,1,0,0:0:0:0:
240,72,16204,1,4,3:0:0:0:
360,296,16347,5,4,3:0:0:0:
128,200,16490,1,8,0:0:0:0:
328,48,16633,1,4,3:0:0:0:
200,280,16776,5,8,0:0:0:0:
200,280,16847,1,0,0:0:0:0:
200,280,16918,1,4,3:0:0:0:
416,152,17061,1,4,3:0:0:0:
136,112,17204,5,8,0:0:0:0:
136,112,17276,1,0,0:0:0:0:
136,112,17347,1,4,3:0:0:0:
368,224,17490,1,4,3:0:0:0:
120,208,17633,5,8,0:0:0:0:
336,88,17776,1,4,3:0:0:0:
320,336,17918,5,8,0:0:0:0:
224,104,18061,1,8,0:0:0:0:
200,352,18204,5,8,0:0:0:0:
336,88,18347,1,8,0:0:0:0:
64,312,18633,1,8,0:0:0:0:
480,96,18918,1,8,0:0:0:0:
296,160,19204,5,0,2:0:0:0:
168,216,19347,1,8,2:0:0:0:
296,264,19490,5,0,2:0:0:0:
240,88,19633,1,8,2:0:0:0:
168,296,19776,5,0,2:0:0:0:
368,200,19918,1,8,2:0:0:0:
152,40,20061,1,0,2:0:0:0:
296,272,20204,6,0,P|352:280|400:264,1,90,4|0,0:0|0:0,0:0:0:0:
472,168,20490,1,8,0:0:0:0:
392,64,20633,1,0,0:0:0:0:
256,128,20776,6,0,P|304:152|344:152,1,90
264,40,21061,1,8,0:0:0:0:
160,168,21204,6,0,P|160:224|184:256,1,90,4|0,0:0|0:0,0:0:0:0:
352,216,21490,2,0,P|352:160|328:128,1,90,0|8,0:0|0:0,0:0:0:0:
200,224,21776,1,0,0:0:0:0:
312,304,21918,2,0,P|368:320|400:328,1,90
344,200,22204,5,8,0:0:0:0:
216,296,22347,1,0,0:0:0:0:
376,280,22490,5,4,0:0:0:0:
120,192,22776,1,8,0:0:0:0:
440,152,23061,5,0,0:0:0:0:
120,320,23347,2,0,P|177:286|143:343,1,180,12|0,0:0|0:0,0:0:0:0:
288,264,23776,5,0,0:0:0:0:
160,360,23918,1,8,0:0:0:0:
128,200,24061,1,8,0:0:0:0:
312,344,24204,6,0,L|224:328,1,90,2|8,0:0|0:0,0:0:0:0:
16,296,24490,2,0,L|112:280,1,90,2|8,0:0|0:0,0:0:0:0:
280,224,24776,6,4,P|328:120|232:208,1,337.5,4|0,2:0|2:0,2:0:0:0:
376,288,25347,2,8,B|464:184|368:224|448:120,1,180,8|8,2:0|2:0,2:0:0:0:
232,232,25776,5,12,0:0:0:0:
456,80,26061,1,8,0:0:0:0:
184,72,26347,5,4,3:0:0:0:
416,216,26490,1,4,3:0:0:0:
336,56,26633,5,8,0:0:0:0:
336,56,26704,1,8,0:0:0:0:
336,56,26776,1,8,0:0:0:0:
232,304,26918,1,8,0:0:0:0:
201,113,27061,5,8,2:0:0:0:
334,137,27204,1,0,2:0:0:0:
310,270,27347,1,8,2:0:0:0:
177,246,27490,1,0,2:0:0:0:
275,79,27633,5,8,2:0:0:0:
368,211,27776,1,0,2:0:0:0:
236,304,27918,1,8,2:0:0:0:
143,172,28061,1,0,2:0:0:0:
349,126,28204,5,8,2:0:0:0:
162,257,28347,1,0,2:0:0:0:
190,98,28490,5,8,2:0:0:0:
321,285,28633,1,0,2:0:0:0:
143,172,28776,1,8,2:0:0:0:
376,208,28918,6,0,P|424:192|440:144,2,90,2|2|2,0:0|0:0|0:0,0:0:0:0:
216,272,29347,6,0,P|160:280|112:264,1,90,4|0,0:0|0:0,0:0:0:0:
40,168,29633,1,8,0:0:0:0:
120,64,29776,1,0,0:0:0:0:
256,128,29919,6,0,P|208:152|168:152,1,90
248,40,30204,1,8,0:0:0:0:
352,168,30347,6,0,P|352:224|328:256,1,90,4|0,0:0|0:0,0:0:0:0:
160,216,30633,2,0,P|160:160|184:128,1,90,0|8,0:0|0:0,0:0:0:0:
312,224,30919,1,0,0:0:0:0:
200,304,31061,2,0,P|144:320|112:328,1,90
168,200,31347,5,8,0:0:0:0:
296,296,31490,1,0,0:0:0:0:
136,280,31633,5,4,0:0:0:0:
392,192,31919,1,8,0:0:0:0:
72,152,32204,5,0,0:0:0:0:
392,320,32490,2,0,P|335:286|369:343,1,180,12|0,0:0|0:0,0:0:0:0:
224,264,32919,5,0,0:0:0:0:
352,360,33061,1,8,0:0:0:0:
384,200,33204,1,8,0:0:0:0:
200,344,33347,6,0,L|288:328,1,90,2|8,0:0|0:0,0:0:0:0:
496,296,33633,2,0,L|400:280,1,90,2|8,0:0|0:0,0:0:0:0:
232,224,33918,6,0,P|184:120|280:208,1,337.5,4|0,0:0|0:0,0:0:0:0:
326,240,34490,6,0,P|382:152|294:200,1,270.000010299683,8|8,0:0|0:0,0:0:0:0:
232,312,34918,5,12,0:0:0:0:
384,32,35204,1,8,0:0:0:0:
392,304,35490,5,4,3:0:0:0:
200,56,35633,1,4,3:0:0:0:
408,168,35776,5,8,0:0:0:0:
408,168,35847,1,8,0:0:0:0:
408,168,35918,1,8,0:0:0:0:
144,216,36061,1,8,0:0:0:0:
320,80,36204,5,8,0:0:0:0:
256,304,36347,1,4,3:0:0:0:
152,104,36490,1,8,0:0:0:0:
352,216,36633,5,4,3:0:0:0:
136,232,36776,1,8,0:0:0:0:
320,88,36918,1,4,3:0:0:0:
208,384,37204,1,8,0:0:0:0:
328,128,37918,6,0,P|296:136|272:152,1,45,2|0,0:0|0:0,0:0:0:0:
200,248,38204,2,0,P|240:240|256:224,1,45,2|0,0:0|0:0,0:0:0:0:
417,150,38490,6,0,P|353:134|281:142,1,135,2|0,0:0|0:0,0:0:0:0:
112,224,39061,6,0,P|176:240|246:236,1,135,2|0,0:0|0:0,0:0:0:0:
244,236,39633,1,4,0:0:0:0:
320,72,40204,6,0,P|288:88|272:112,1,45,2|0,0:0|0:0,0:0:0:0:
120,196,40490,2,0,P|149:216|178:218,1,45,2|0,0:0|0:0,0:0:0:0:
360,288,40776,6,0,P|317:221|250:189,1,135,2|0,0:0|0:0,0:0:0:0:
200,48,41347,2,0,P|163:118|169:191,1,135,2|0,0:0|0:0,0:0:0:0:
163,172,41918,1,4,0:0:0:0:
200,320,42776,6,0,P|232:296|240:272,1,45,2|0,0:0|0:0,0:0:0:0:
328,160,43061,2,0,P|304:184|296:208,1,45,8|0,0:0|0:0,0:0:0:0:
328,352,43347,2,0,P|320:312|304:296,1,45,2|0,0:0|0:0,0:0:0:0:
200,168,43633,2,0,P|208:208|224:224,1,45,8|0,0:0|0:0,0:0:0:0:
424,280,43918,6,0,P|392:264|376:264,1,45,2|0,0:0|0:0,0:0:0:0:
136,320,44204,2,0,P|176:312|192:296,1,45,8|0,0:0|0:0,0:0:0:0:
384,128,44490,2,0,P|360:152|352:176,1,45,2|0,0:0|0:0,0:0:0:0:
272,360,44776,2,0,P|272:328|264:312,1,45,8|0,0:0|0:0,0:0:0:0:
144,128,45061,2,0,P|152:168|168:184,1,45,2|0,0:0|0:0,0:0:0:0:
416,248,45347,6,0,P|352:216|280:224,1,135,4|0,0:0|0:0,0:0:0:0:
104,280,45918,2,0,P|176:304|240:288,1,135,4|0,0:0|0:0,0:0:0:0:
440,232,46490,6,0,P|376:200|304:208,1,135,4|0,0:0|0:0,0:0:0:0:
80,296,47061,2,0,P|152:320|216:304,1,135,4|0,0:0|0:0,0:0:0:0:
296,64,47633,6,0,L|288:112,10,45,8|0|2|0|8|0|2|0|8|0|2,0:0|0:0|0:0|0:0|0:0|0:0|0:0|0:0|0:0|0:0|0:0,0:0:0:0:
144,240,49347,1,4,0:0:0:0:
368,200,49633,1,2,0:0:0:0:
160,112,49918,6,0,L|152:56,10,45,8|0|2|0|8|0|2|0|8|0|2,0:0|0:0|0:0|0:0|0:0|0:0|0:0|0:0|0:0|0:0|0:0,0:0:0:0:
368,200,51633,1,4,0:0:0:0:
160,272,51847,2,0,L|176:232,1,22.5,0|8,0:0|0:0,0:0:0:0:
352,120,52204,6,0,P|352:192|296:240,1,135,4|0,0:0|0:0,0:0:0:0:
136,240,52776,2,0,P|172:177|244:164,1,135,4|0,0:0|0:0,0:0:0:0:
368,304,53347,6,0,P|304:304|256:256,1,135,4|0,0:0|0:0,0:0:0:0:
240,72,53918,2,0,P|304:96|328:160,1,135,4|0,0:0|0:0,0:0:0:0:
200,248,54490,5,8,0:0:0:0:
408,168,54776,1,0,0:0:0:0:
144,128,55061,5,8,0:0:0:0:
384,256,55347,1,0,0:0:0:0:
128,336,55633,5,8,0:0:0:0:
168,208,55776,1,0,0:0:0:0:
400,344,56061,5,0,0:0:0:0:
464,200,56204,1,8,0:0:0:0:
496,344,56347,1,0,0:0:0:0:
384,232,56490,1,0,0:0:0:0:
88,56,56776,5,8,3:0:0:0:
464,200,57061,1,8,3:0:0:0:
264,312,57204,1,8,3:0:0:0:
336,96,57347,1,8,3:0:0:0:
424,360,57633,1,8,3:0:0:0:
64,272,57918,6,0,P|160:232|96:304,1,270,4|0,0:0|0:0,0:0:0:0:
480,48,58490,5,4,3:0:0:0:
439,75,58561,1,0,3:0:0:0:
415,118,58633,1,0,3:0:0:0:
413,167,58704,1,0,3:0:0:0:
433,212,58776,5,4,3:0:0:0:
448,258,58847,1,0,3:0:0:0:
437,306,58918,1,0,3:0:0:0:
402,340,58990,1,0,3:0:0:0:
355,351,59061,5,12,0:0:0:0:
112,272,59204,1,4,3:0:0:0:
328,144,59347,5,8,0:0:0:0:
248,384,59490,1,4,3:0:0:0:
192,136,59633,5,8,0:0:0:0:
368,320,59776,1,4,3:0:0:0:
120,352,59918,5,12,0:0:0:0:
336,224,60061,1,4,3:0:0:0:
96,144,60204,6,0,P|88:192|112:224,1,90,8|4,0:0|3:0,0:0:0:0:
360,184,60490,2,0,P|312:160|280:176,1,90,8|4,0:0|3:0,0:0:0:0:
168,376,60776,2,0,P|216:336|208:296,1,90,8|4,0:0|3:0,0:0:0:0:
272,64,61061,2,0,P|224:96|216:136,1,90,12|4,0:0|3:0,0:0:0:0:
360,352,61347,5,8,0:0:0:0:
136,200,61490,1,4,3:0:0:0:
400,240,61633,5,8,0:0:0:0:
144,312,61776,1,4,3:0:0:0:
328,120,61918,5,8,0:0:0:0:
240,376,62061,1,4,3:0:0:0:
200,112,62204,5,12,0:0:0:0:
360,336,62347,1,4,3:1:0:0:
464,88,62490,2,0,P|440:40|400:24,1,90,8|4,0:0|3:0,0:0:0:0:
248,248,62776,2,0,P|304:224|320:184,1,90,8|4,0:0|3:0,0:0:0:0:
216,16,63061,5,8,0:0:0:0:
424,184,63204,1,8,0:0:0:0:
424,184,63276,1,8,0:0:0:0:
424,184,63347,1,8,0:0:0:0:
160,224,63490,1,8,0:0:0:0:
360,40,63633,6,0,L|344:128,1,90,4|8,3:0|0:0,0:0:0:0:
184,344,63918,2,0,L|200:248,1,90,8|4,0:0|3:0,0:0:0:0:
232,24,64204,5,8,0:0:0:0:
384,248,64347,1,4,3:0:0:0:
112,216,64490,5,8,0:0:0:0:
376,152,64633,1,4,3:0:0:0:
224,376,64776,2,0,P|200:328|208:288,1,90,8|4,0:0|3:0,0:0:0:0:
328,56,65061,1,8,0:0:0:0:
328,56,65204,2,0,P|344:112|296:160,1,90,8|4,0:0|3:0,0:0:0:0:
128,320,65490,5,8,0:0:0:0:
296,112,65633,1,0,0:0:0:0:
408,344,65776,2,0,B|280:288|392:288|264:224,1,180,12|8,0:0|0:0,0:0:0:0:
80,120,66204,5,8,0:0:0:0:
336,216,66347,1,4,3:0:0:0:
80,312,66490,5,8,0:0:0:0:
232,88,66633,1,4,3:0:0:0:
288,352,66776,5,8,0:0:0:0:
64,208,66918,1,4,3:0:0:0:
368,136,67061,5,8,0:0:0:0:
152,368,67204,1,4,3:0:0:0:
104,56,67347,1,12,3:1:0:0:
344,256,67490,1,8,0:0:0:0:
344,256,67561,1,4,3:0:0:0:
344,256,67633,1,4,3:0:0:0:
32,208,67776,5,8,0:0:0:0:
288,32,67918,1,12,3:1:0:0:
240,344,68061,1,4,3:0:0:0:
128,48,68204,5,12,0:0:0:0:
376,200,68347,1,4,3:0:0:0:
96,248,68490,5,8,0:0:0:0:
344,96,68633,1,4,3:0:0:0:
288,376,68776,6,0,P|240:352|224:304,1,90,8|4,0:0|3:0,0:0:0:0:
32,104,69061,2,0,P|88:96|128:144,1,90,12|4,0:0|3:0,0:0:0:0:
368,256,69347,5,8,0:0:0:0:
80,224,69490,1,4,3:0:0:0:
376,136,69633,5,8,0:0:0:0:
136,320,69776,1,4,3:0:0:0:
288,56,69918,5,8,0:0:0:0:
240,360,70061,1,4,3:0:0:0:
48,128,70204,5,12,0:0:0:0:
344,208,70347,1,4,3:0:0:0:
72,344,70490,6,0,P|88:288|136:264,1,90,8|4,0:0|3:0,0:0:0:0:
376,112,70776,2,0,P|368:160|328:184,1,90,8|4,0:0|3:0,0:0:0:0:
64,40,71061,2,0,P|112:56|128:96,1,90,8|4,0:0|3:0,0:0:0:0:
344,312,71347,5,12,0:0:0:0:
56,200,71490,1,4,3:0:0:0:
296,8,71633,5,8,0:0:0:0:
216,304,71776,1,4,3:0:0:0:
64,40,71918,2,0,P|128:48|160:72,1,90,8|4,0:0|3:0,0:0:0:0:
400,240,72204,2,0,P|344:240|304:224,1,90,8|4,0:0|3:0,0:0:0:0:
312,228,72418,1,8,0:0:0:0:
312,228,72490,1,12,0:0:0:0:
16,144,72633,5,8,0:0:0:0:
304,40,72776,2,0,P|312:96|296:128,1,90,4|8,3:0|0:0,0:0:0:0:
64,328,73061,2,0,P|72:272|104:240,1,90,8|4,0:0|3:0,0:0:0:0:
400,88,73347,6,0,P|376:136|328:160,1,90,8|4,0:0|3:0,0:0:0:0:
8,240,73633,2,0,P|48:200|96:192,1,90,8|4,0:0|3:0,0:0:0:0:
368,304,73918,6,0,P|352:232|320:312,1,180,4|12,3:1|3:1,3:1:0:0:
144,56,74490,2,0,P|120:144|184:72,1,225,4|12,3:1|3:1,3:1:0:0:
168,352,75061,2,0,P|200:256|120:336,1,270.000010299683,4|12,3:1|3:1,3:1:0:0:
360,64,75633,2,0,P|312:168|408:88,1,315.000003004074,4|12,3:1|3:1,3:1:0:0:
48,360,76204,5,4,3:0:0:0:
200,8,76490,1,12,3:1:0:0:
400,352,76776,5,12,3:0:0:0:
334,355,76847,1,8,3:0:0:0:
283,312,76918,1,8,3:0:0:0:
275,247,76990,1,8,3:0:0:0:
314,194,77061,1,12,3:1:0:0:
359,133,77133,1,8,3:0:0:0:
334,62,77204,1,8,3:0:0:0:
261,43,77276,1,8,3:0:0:0:
204,93,77347,1,4,1:0:0:0:
80,336,77918,6,2,P|152:344|208:296,1,135,2|0,2:0|2:0,2:1:0:0:
336,48,78490,2,2,P|264:64|224:128,1,135,2|0,2:0|2:0,2:1:0:0:
400,360,79061,5,8,0:0:0:0:
422,297,79133,1,0,0:0:0:0:
399,235,79204,1,0,0:0:0:0:
341,203,79276,1,0,0:0:0:0:
276,215,79347,1,8,0:0:0:0:
56,352,79633,5,4,3:0:0:0:
224,16,79918,1,8,0:0:0:0:
280,360,80204,5,4,3:0:0:0:
120,16,80490,1,8,0:0:0:0:
176,360,80776,5,4,3:0:0:0:
344,24,81061,1,8,0:0:0:0:
376,360,81347,5,4,3:0:0:0:
240,8,81633,1,8,0:0:0:0:
112,344,81918,5,8,0:0:0:0:
384,176,82061,1,4,3:0:0:0:
88,72,82204,5,8,0:0:0:0:
240,352,82347,1,4,3:0:0:0:
408,88,82490,5,8,0:0:0:0:
104,160,82633,1,4,3:0:0:0:
376,328,82776,5,8,0:0:0:0:
208,48,82918,1,0,0:0:0:0:
168,360,83061,5,8,0:0:0:0:
187,307,83133,1,0,3:0:0:0:
230,272,83204,1,0,3:0:0:0:
285,263,83276,1,0,3:0:0:0:
337,283,83347,5,8,0:0:0:0:
313,232,83418,1,0,3:0:0:0:
269,198,83490,1,0,3:0:0:0:
214,188,83561,1,0,3:0:0:0:
161,204,83633,5,8,0:0:0:0:
111,237,83704,1,0,3:0:0:0:
52,223,83776,1,0,3:0:0:0:
23,171,83847,1,0,3:0:0:0:
34,108,83918,1,8,0:0:0:0:
64,49,83990,1,0,3:0:0:0:
122,19,84061,1,0,3:0:0:0:
187,28,84133,1,0,3:0:0:0:
235,73,84204,1,2,0:0:0:0:
416,288,84490,5,8,0:0:0:0:
56,336,84776,1,2,0:0:0:0:
328,32,85061,5,8,0:0:0:0:
248,384,85347,1,2,0:0:0:0:
64,72,85633,5,8,0:0:0:0:
424,160,85918,1,2,0:0:0:0:
216,256,86061,1,8,0:0:0:0:
216,256,86133,1,8,0:0:0:0:
216,256,86204,1,8,0:0:0:0:
296,48,86347,1,8,0:0:0:0:
392,256,86490,5,10,0:0:0:0:
48,160,86633,1,10,0:0:0:0:
48,160,87061,5,10,0:0:0:0:
448,80,87204,1,10,0:0:0:0:
448,80,87633,5,10,0:0:0:0:
184,328,87776,1,2,0:0:0:0:
264,0,87918,1,10,0:0:0:0:
440,312,88061,1,10,0:0:0:0:
232,200,88347,6,4,P|236:160|272:184,1,90
