osu file format v14

[General]
AudioFilename: audio.mp3
AudioLeadIn: 0
PreviewTime: 1009
Countdown: 0
SampleSet: Soft
StackLeniency: 0.6
Mode: 0
LetterboxInBreaks: 0
EpilepsyWarning: 1
WidescreenStoryboard: 1

[Editor]
Bookmarks: 1095,3837,14809,36752,47729,55952,80637,83380,94352,116295,127272,135495,160180,162935,173895,194466,199952,224637,227380,238009
DistanceSpacing: 1.1
BeatDivisor: 4
GridSize: 32
TimelineZoom: 2.450001

[Metadata]
Title:Onegai! Kon kon Oinarisama
TitleUnicode:お願い!コンコンお稲荷さま
Artist:ARM x Komso feat. Nanahira
ArtistUnicode:ARM×狐夢想 feat. ななひら
Creator:Len
Version:Hyper
Source:Muse Dash
Tags:japanese pop video game electronic IOSYS mekemon COOL&CREATE TRIP x Frolic トリップ×フロリック Confetto Fast Narcissu Rihan Karcher [Karcher] denpa
BeatmapID:2701484
BeatmapSetID:1302044

[Difficulty]
HPDrainRate:5.7
CircleSize:5
OverallDifficulty:7
ApproachRate:8.8
SliderMultiplier:1.43
SliderTickRate:1

[Events]
//Background and Video events
Video,0,"video.mp4"
0,0,"bg.jpg",0,0
//Break Periods
2,83592,90992
2,163621,171507
//Storyboard Layer 0 (Background)
//Storyboard Layer 1 (Fail)
//Storyboard Layer 2 (Pass)
//Storyboard Layer 3 (Foreground)
//Storyboard Layer 4 (Overlay)
//Storyboard Sound Samples

[TimingPoints]
1107,342.857142857143,4,2,1,40,1,0
1107,-111.111111111111,4,2,1,40,0,0
1192,-111.111111111111,4,2,1,20,0,0
1792,-111.111111111111,4,2,1,60,0,0
1878,-111.111111111111,4,2,1,5,0,0
1964,-111.111111111111,4,2,1,60,0,0
2049,-111.111111111111,4,2,1,5,0,0
2135,-111.111111111111,4,2,1,60,0,0
2221,-111.111111111111,4,2,1,5,0,0
2478,-111.111111111111,4,2,1,60,0,0
2564,-111.111111111111,4,2,1,40,0,0
2821,-111.111111111111,4,2,1,60,0,0
2907,-111.111111111111,4,2,1,40,0,0
2992,-111.111111111111,4,2,1,60,0,0
3078,-111.111111111111,4,2,1,40,0,0
3335,-111.111111111111,4,2,1,55,0,0
3507,-111.111111111111,4,2,1,60,0,0
3592,-111.111111111111,4,2,1,20,0,0
3849,-100,4,2,2,70,0,0
12078,-100,4,2,2,40,0,0
13621,-100,4,2,1,40,0,0
13792,-100,4,2,1,60,0,0
13964,-100,4,2,1,40,0,0
14135,-100,4,2,1,60,0,0
14392,-100,4,2,1,5,0,0
14478,-100,4,2,1,40,0,0
14735,-100,4,2,1,5,0,0
14821,-100,4,3,3,50,0,0
22878,-100,4,2,2,50,0,0
23221,-100,4,2,2,60,0,0
23564,-100,4,2,2,50,0,0
23907,-100,4,2,2,60,0,0
24421,-100,4,2,1,50,0,0
24592,-100,4,2,1,25,0,0
25278,-100,4,2,2,50,0,0
25449,-100,4,2,2,40,0,0
25621,-100,4,2,2,30,0,0
25792,-100,4,3,4,60,0,0
34021,-100,4,1,4,60,0,0
34878,-100,4,1,4,50,0,0
35392,-100,4,1,4,55,0,0
36078,-100,4,1,4,60,0,0
36764,-111.111111111111,4,2,1,60,0,0
44992,-111.111111111111,4,2,4,60,0,0
45678,-111.111111111111,4,2,4,40,0,0
46364,-111.111111111111,4,2,2,50,0,0
46707,-111.111111111111,4,2,2,35,0,0
47735,-111.111111111111,4,2,1,60,0,0
48849,-111.111111111111,4,2,1,20,0,0
49107,-111.111111111111,4,2,1,60,0,0
50221,-111.111111111111,4,2,1,20,0,0
50478,-111.111111111111,4,2,3,45,0,0
51164,-111.111111111111,4,2,3,55,0,0
51849,-111.111111111111,4,2,3,65,0,0
53221,-111.111111111111,4,2,3,70,0,0
53307,-111.111111111111,4,2,1,45,0,0
55964,-100,4,2,1,80,0,1
66849,-100,4,2,1,30,0,1
66935,-100,4,2,1,80,0,1
78078,-100,4,1,1,65,0,1
80649,-100,4,2,3,70,0,0
80735,-100,4,2,1,20,0,0
81335,-100,4,2,1,60,0,0
81421,-100,4,2,1,5,0,0
81507,-100,4,2,1,60,0,0
81592,-100,4,2,1,5,0,0
81678,-100,4,2,1,60,0,0
81764,-100,4,2,1,5,0,0
82021,-100,4,2,1,60,0,0
82107,-100,4,2,1,40,0,0
82192,-100,4,2,1,55,0,0
82364,-100,4,2,1,60,0,0
82449,-100,4,2,1,40,0,0
82535,-100,4,2,1,60,0,0
82621,-100,4,2,1,40,0,0
82878,-100,4,2,1,55,0,0
83049,-100,4,2,1,60,0,0
83135,-100,4,2,1,20,0,0
83392,-100,4,2,1,60,0,0
91621,-100,4,2,1,35,0,0
92992,-100,4,2,1,60,0,0
94364,-100,4,3,3,50,0,0
102421,-100,4,2,2,50,0,0
102764,-100,4,2,2,60,0,0
103107,-100,4,2,2,50,0,0
103964,-100,4,2,1,50,0,0
104135,-100,4,2,1,25,0,0
104821,-100,4,2,2,50,0,0
104992,-100,4,2,2,40,0,0
105164,-100,4,2,2,30,0,0
105335,-100,4,3,4,60,0,0
113564,-100,4,1,4,60,0,0
114249,-100,4,1,4,50,0,0
114935,-100,4,1,4,55,0,0
115621,-100,4,1,4,60,0,0
116307,-111.111111111111,4,2,1,60,0,0
124535,-111.111111111111,4,2,4,60,0,0
125221,-111.111111111111,4,2,4,40,0,0
125907,-111.111111111111,4,2,2,50,0,0
126249,-111.111111111111,4,2,2,35,0,0
127278,-111.111111111111,4,2,1,60,0,0
128392,-111.111111111111,4,2,1,20,0,0
128649,-111.111111111111,4,2,1,60,0,0
129764,-111.111111111111,4,2,1,20,0,0
130021,-111.111111111111,4,2,3,45,0,0
130707,-111.111111111111,4,2,3,55,0,0
131392,-111.111111111111,4,2,3,65,0,0
132764,-111.111111111111,4,2,3,70,0,0
132849,-111.111111111111,4,2,1,45,0,0
135507,-100,4,2,1,80,0,1
146392,-100,4,2,1,30,0,1
146478,-100,4,2,1,80,0,1
157621,-100,4,1,1,65,0,1
160192,-100,4,2,3,70,0,0
160278,-100,4,2,1,20,0,0
160878,-100,4,2,1,60,0,0
160964,-100,4,2,1,5,0,0
161049,-100,4,2,1,60,0,0
161135,-100,4,2,1,5,0,0
161221,-100,4,2,1,60,0,0
161307,-100,4,2,1,5,0,0
161564,-100,4,2,1,60,0,0
161649,-100,4,2,1,40,0,0
161735,-100,4,2,1,55,0,0
161907,-100,4,2,1,60,0,0
161992,-100,4,2,1,40,0,0
162078,-100,4,2,1,60,0,0
162164,-100,4,2,1,40,0,0
162421,-100,4,2,1,55,0,0
162592,-100,4,2,1,60,0,0
162678,-100,4,2,1,20,0,0
162935,-100,4,2,1,60,0,0
172364,-100,4,2,3,30,0,0
173907,-125,4,1,3,45,0,0
173992,-125,4,1,3,20,0,0
174592,-125,4,1,3,45,0,0
174678,-125,4,1,3,20,0,0
174935,-125,4,1,3,45,0,0
175021,-125,4,1,3,20,0,0
175278,-125,4,1,3,45,0,0
175364,-125,4,1,3,20,0,0
175621,-125,4,1,3,45,0,0
175707,-125,4,1,3,20,0,0
175964,-125,4,1,3,45,0,0
176049,-125,4,1,3,20,0,0
176307,-125,4,1,3,35,0,0
176392,-125,4,1,3,20,0,0
176649,-125,4,1,3,45,0,0
176735,-125,4,1,3,20,0,0
177335,-125,4,1,3,45,0,0
177421,-125,4,1,3,20,0,0
177678,-125,4,1,3,45,0,0
177764,-125,4,1,3,20,0,0
178021,-125,4,1,3,45,0,0
178107,-125,4,1,3,20,0,0
178364,-125,4,1,3,45,0,0
178449,-125,4,1,3,20,0,0
178707,-125,4,1,3,45,0,0
178792,-125,4,1,3,20,0,0
179049,-125,4,1,3,35,0,0
179135,-125,4,1,3,20,0,0
179392,-125,4,1,3,45,0,0
179478,-125,4,1,3,20,0,0
180078,-125,4,1,3,45,0,0
180164,-125,4,1,3,20,0,0
180421,-125,4,1,3,45,0,0
180507,-125,4,1,3,20,0,0
180764,-125,4,1,3,45,0,0
180849,-125,4,1,3,20,0,0
181107,-125,4,1,3,45,0,0
181192,-125,4,1,3,20,0,0
181449,-125,4,1,3,45,0,0
181535,-125,4,1,3,20,0,0
181792,-125,4,1,3,35,0,0
181878,-125,4,1,3,20,0,0
182135,-125,4,1,3,45,0,0
182221,-125,4,1,3,20,0,0
182821,-125,4,1,3,45,0,0
182907,-125,4,1,3,20,0,0
183164,-125,4,1,3,45,0,0
183249,-125,4,1,3,20,0,0
183507,-125,4,1,3,45,0,0
183592,-125,4,1,3,20,0,0
183849,-125,4,1,3,45,0,0
183935,-125,4,1,3,20,0,0
184192,-125,4,1,3,45,0,0
184278,-125,4,1,3,20,0,0
184535,-125,4,1,3,35,0,0
184621,-125,4,1,3,20,0,0
184878,-111.111111111111,4,3,4,60,0,0
188992,-125,4,2,1,60,0,0
190449,-125,4,2,1,20,0,0
191049,-125,4,2,1,40,0,0
191135,-125,4,2,1,20,0,0
191735,-125,4,2,1,60,0,0
192421,-125,4,2,1,40,0,0
193107,-125,4,2,1,20,0,0
195849,-125,4,3,1,30,0,0
197221,-125,4,2,3,60,0,0
198592,-125,4,2,1,60,0,0
199278,-125,4,2,1,45,0,0
199964,-100,4,2,1,80,0,1
210849,-100,4,2,1,30,0,1
210935,-100,4,2,1,80,0,1
221907,-100,4,1,1,70,0,1
224649,-100,4,2,3,70,0,0
224735,-100,4,2,1,20,0,0
225335,-100,4,2,1,60,0,0
225421,-100,4,2,1,5,0,0
225507,-100,4,2,1,60,0,0
225592,-100,4,2,1,5,0,0
225678,-100,4,2,1,60,0,0
225764,-100,4,2,1,5,0,0
226021,-100,4,2,1,60,0,0
226107,-100,4,2,1,40,0,0
226192,-100,4,2,1,55,0,0
226364,-100,4,2,1,60,0,0
226449,-100,4,2,1,40,0,0
226535,-100,4,2,1,60,0,0
226621,-100,4,2,1,40,0,0
226878,-100,4,2,1,55,0,0
227049,-100,4,2,1,60,0,0
227135,-100,4,2,1,20,0,0
227392,-100,4,2,2,70,0,0
235621,-100,4,2,2,40,0,0
237164,-100,4,2,1,40,0,0
237335,-100,4,2,1,60,0,0
237935,-100,4,2,1,5,0,0
238021,-100,4,3,3,70,0,0
238107,-100,4,2,3,20,0,0

[Colours]
Combo1 : 255,228,149
Combo2 : 162,255,162
Combo3 : 123,183,255
Combo4 : 249,142,158

[HitObjects]
267,104,1107,6,0,P|345:93|406:83,1,128.699996072388,0|0,0:1|0:0,0:0:0:0:
466,263,1792,6,0,P|470:228|483:198,2,64.3499980361939,4|4|4,1:3|1:3|1:3,0:0:0:0:
306,370,2478,6,0,P|301:334|291:303,1,64.3499980361939,4|0,1:3|1:0,0:0:0:0:
273,280,2735,1,0,1:0:0:0:
265,272,2821,1,4,1:3:0:0:
311,210,2992,1,4,1:3:0:0:
233,76,3335,5,4,1:3:0:0:
233,76,3507,1,4,1:3:0:0:
72,135,3849,5,12,0:0:0:0:
26,61,4021,2,0,P|61:101|159:90,1,143,0|0,0:0|0:0,0:0:0:0:
169,17,4535,1,8,0:0:0:0:
248,69,4707,1,0,0:0:0:0:
248,69,4792,1,0,0:0:0:0:
248,69,4878,2,0,P|300:64|334:62,1,71.5,8|0,0:1|0:0,0:0:0:0:
393,18,5221,6,0,P|386:73|386:101,1,71.5,8|0,0:0|0:0,0:0:0:0:
445,151,5564,2,0,P|443:186|437:221,1,71.5,8|0,0:1|0:0,0:0:0:0:
361,262,5907,2,0,L|321:254,3,35.75,8|0|0|0,0:0|0:0|0:0|0:0,0:0:0:0:
302,229,6249,2,0,P|312:278|316:308,1,71.5,8|8,0:1|0:1,0:0:0:0:
262,367,6592,5,8,0:0:0:0:
204,303,6764,2,0,P|161:312|54:326,1,143,4|0,0:0|0:0,0:0:0:0:
21,249,7278,2,0,L|29:201,3,35.75,8|0|0|0,0:0|0:0|0:0|0:0,0:0:0:0:
54,191,7621,2,0,L|46:143,3,35.75,8|0|0|0,0:1|0:0|0:0|0:0,0:0:0:0:
13,97,7964,6,0,P|58:91|105:80,1,71.5,8|0,0:0|0:0,0:0:0:0:
128,159,8307,2,0,P|173:165|220:176,1,71.5,8|0,0:1|0:0,0:0:0:0:
270,123,8649,1,8,0:0:0:0:
270,123,8735,2,0,P|264:80|261:40,1,71.5,8|8,0:0|0:0,0:0:0:0:
239,23,8992,2,0,P|279:17|319:10,1,71.5,8|8,0:1|0:0,0:0:0:0:
368,74,9335,5,8,0:0:0:0:
440,27,9507,2,0,P|482:44|486:132,1,143,4|0,0:0|0:0,0:0:0:0:
411,174,10021,1,8,0:0:0:0:
470,247,10192,1,0,0:0:0:0:
470,247,10278,1,0,0:0:0:0:
470,247,10364,2,0,P|463:290|461:319,1,71.5,8|0,0:1|0:0,0:0:0:0:
389,365,10707,6,0,P|379:329|365:293,1,71.5,8|0,0:0|0:0,0:0:0:0:
301,241,11049,2,0,P|252:258|203:263,1,71.5,8|0,0:1|0:0,0:0:0:0:
159,236,11392,1,8,0:0:0:0:
159,236,11478,1,0,0:0:0:0:
159,236,11564,2,0,L|155:200,2,35.75,0|0|8,0:0|0:0|0:1,0:0:0:0:
109,306,11907,2,0,L|104:346,2,35.75,8|8|8,0:1|0:0|3:2,0:0:0:0:
109,306,13621,5,2,0:1:0:0:
109,306,13707,1,2,0:1:0:0:
109,306,13792,1,2,0:1:0:0:
159,236,13964,1,2,0:1:0:0:
99,174,14135,2,0,B|80:145|80:145|209:157,1,143,2|2,0:1|0:1,0:0:0:0:
309,33,14821,6,0,P|356:27|394:17,1,71.5,4|0,0:2|0:0,0:0:0:0:
413,92,15164,2,0,P|377:95|342:103,1,71.5,8|0,0:0|0:0,0:0:0:0:
320,179,15507,2,0,P|362:172|467:159,1,143,8|2,0:0|0:1,0:0:0:0:
379,362,16192,6,0,P|344:354|308:351,1,71.5,8|0,0:0|0:0,0:0:0:0:
322,273,16535,2,0,P|287:280|251:284,1,71.5,8|0,0:0|0:0,0:0:0:0:
189,332,16878,1,8,0:0:0:0:
116,302,17049,2,0,P|123:336|128:372,2,71.5,2|2|0,0:1|0:1|0:0,0:0:0:0:
62,243,17564,6,0,L|72:204,3,35.75,0|0|0|0,0:2|0:0|0:0|0:0,0:0:0:0:
59,174,17907,2,0,P|107:172|146:163,1,71.5,8|0,0:0|0:0,0:0:0:0:
176,104,18249,5,8,0:0:0:0:
246,156,18421,1,0,0:0:0:0:
246,156,18507,1,0,0:0:0:0:
246,156,18592,2,0,P|229:204|224:234,1,71.5,8|0,0:0|0:0,0:0:0:0:
269,289,18935,5,2,0:0:0:0:
224,354,19107,2,0,L|178:364,2,35.75,2|2|2,0:0|0:0|0:0,0:0:0:0:
302,361,19449,2,0,L|342:383,2,35.75,2|2|2,0:0|0:0|0:0,0:0:0:0:
269,289,19792,1,8,0:1:0:0:
269,289,19878,1,8,0:1:0:0:
269,289,19964,2,0,P|263:248|259:207,1,71.5,4|8,0:1|0:1,0:0:0:0:
338,211,20307,6,0,P|343:172|349:128,1,71.5,4|0,0:2|0:0,0:0:0:0:
293,83,20649,2,0,P|243:96|204:103,1,71.5,8|0,0:0|0:0,0:0:0:0:
177,35,20992,2,0,P|154:81|61:74,1,143,8|2,0:0|0:1,0:0:0:0:
37,237,21678,6,0,P|76:230|127:227,1,71.5,8|0,0:0|0:0,0:0:0:0:
155,164,22021,2,0,P|194:171|245:174,1,71.5,8|0,0:0|0:0,0:0:0:0:
273,236,22364,1,8,0:0:0:0:
334,187,22535,2,0,P|329:151|326:109,2,71.5,2|2|8,0:1|0:1|3:0,0:0:0:0:
389,243,23049,5,8,0:3:0:0:
329,295,23221,2,0,P|287:305|248:323,2,71.5,8|8|8,0:0|0:0|0:3,0:0:0:0:
386,349,23735,1,8,0:3:0:0:
447,298,23907,2,0,P|459:255|479:218,2,71.5,8|8|8,0:0|0:0|1:2,0:0:0:0:
389,243,24421,6,2,B|332:202|358:140|358:140|410:107|410:107|420:30|343:-1,1,286,2|0,0:1|0:0,0:1:0:0:
301,39,25278,1,8,0:0:0:0:
301,39,25364,1,0,0:0:0:0:
301,39,25449,2,0,L|289:94,3,35.75,8|0|0|0,0:0|0:0|0:0|0:0,0:0:0:0:
299,109,25792,6,0,P|259:100|220:95,1,71.5,4|0,0:2|0:0,0:0:0:0:
210,19,26135,2,0,P|170:28|131:33,1,71.5,8|0,0:0|0:0,0:0:0:0:
63,12,26478,2,0,P|30:56|89:125,1,143,8|2,0:0|2:1,0:0:0:0:
189,228,27164,6,0,P|233:216|280:213,1,71.5,8|0,0:0|0:0,0:0:0:0:
274,135,27507,2,0,P|318:147|365:150,1,71.5,8|0,0:0|0:0,0:0:0:0:
385,83,27849,1,8,0:0:0:0:
458,110,28021,2,0,P|470:63|491:21,2,71.5,2|2|0,0:1|0:1|0:0,0:0:0:0:
418,178,28535,5,8,0:0:0:0:
489,229,28707,1,0,0:0:0:0:
489,229,28792,1,0,0:0:0:0:
489,229,28878,2,0,P|494:284|496:311,1,71.5,8|0,0:0|0:0,0:0:0:0:
445,361,29221,5,8,0:0:0:0:
378,337,29392,1,0,0:0:0:0:
378,337,29478,1,0,0:0:0:0:
378,337,29564,2,0,P|328:342|295:344,1,71.5,8|0,0:0|0:0,0:0:0:0:
233,373,29907,6,0,P|223:332|204:308,1,71.5,8|0,0:1|0:0,0:0:0:0:
140,265,30249,2,0,P|119:293|112:328,1,71.5,8|0,0:1|0:0,0:0:0:0:
46,285,30592,1,8,0:1:0:0:
46,285,30678,2,0,P|44:239|31:186,1,71.5,8|8,0:1|0:1,0:0:0:0:
19,185,30935,2,0,P|69:173|96:156,1,71.5,4|0,0:1|0:0,0:0:0:0:
135,101,31278,6,0,P|131:56|124:9,1,71.5,4|0,0:2|0:0,0:0:0:0:
206,26,31621,2,0,P|210:61|213:97,1,71.5,8|0,0:0|0:0,0:0:0:0:
207,176,31964,2,0,P|227:137|327:99,1,143,8|2,0:0|2:1,0:0:0:0:
465,56,32649,6,0,P|456:105|458:136,1,71.5,8|0,0:0|0:0,0:0:0:0:
380,146,32992,2,0,P|387:180|388:216,1,71.5,8|0,0:0|0:0,0:0:0:0:
330,270,33335,1,8,0:0:0:0:
391,319,33507,2,0,P|434:303|465:299,2,71.5,2|2|2,2:1|2:1|2:1,0:0:0:0:
335,375,34021,5,4,0:2:0:0:
280,331,34192,1,0,0:0:0:0:
280,331,34278,1,0,0:0:0:0:
280,331,34364,2,0,P|233:336|198:343,1,71.5,0|8,0:0|0:3,0:0:0:0:
137,373,34707,1,8,0:3:0:0:
100,303,34878,2,0,L|54:292,2,35.75,8|8|8,0:3|0:3|0:3,0:0:0:0:
172,272,35221,1,8,0:2:0:0:
132,204,35392,5,12,0:2:0:0:
200,165,35564,2,0,L|211:124,2,35.75,8|8|8,0:3|0:3|0:3,0:0:0:0:
241,232,35907,1,8,0:2:0:0:
311,197,36078,2,0,P|361:212|429:136,1,143,8|2,0:2|0:1,0:0:0:0:
395,86,36592,1,2,0:1:0:0:
463,50,36764,6,0,P|494:56|531:60,2,64.3499980361939,6|0|2,0:0|0:0|0:0,0:0:0:0:
278,7,37449,2,0,P|267:44|266:76,1,64.3499980361939,8|0,0:0|0:0,0:0:0:0:
328,102,37792,1,8,0:0:0:0:
338,172,37964,1,0,0:0:0:0:
271,146,38135,6,0,P|218:160|153:55,1,193.049994108582,8|0,0:0|0:0,0:0:0:0:
92,20,38821,1,2,0:0:0:0:
51,78,38992,2,0,P|17:74|-19:69,2,64.3499980361939,0|8|0,0:0|0:0|0:0,0:0:0:0:
89,138,39507,6,0,P|79:201|73:251,1,96.5249970542909,6|0,0:0|0:0,0:0:0:0:
58,241,39849,2,0,P|67:277|71:326,1,64.3499980361939,0|0,0:0|0:0,0:0:0:0:
115,358,40192,2,0,P|168:368|204:324,1,96.5249970542909,2|0,0:0|0:0,0:0:0:0:
192,323,40535,2,0,P|235:333|280:335,1,64.3499980361939,8|0,0:0|0:0,0:0:0:0:
296,277,40878,5,8,0:0:0:0:
361,302,41049,2,0,L|364:346,2,32.174999018097,0|0|8,0:0|0:0|0:0,0:0:0:0:
392,238,41392,1,0,0:0:0:0:
458,264,41564,2,0,P|467:221|496:128,1,128.699996072388,2|4,0:0|0:3,0:0:0:0:
436,95,42078,1,4,0:3:0:0:
451,26,42249,6,0,P|496:19|528:7,2,64.3499980361939,6|0|2,0:0|0:0|0:0,0:0:0:0:
287,135,42935,2,0,P|257:123|219:119,1,64.3499980361939,8|0,0:0|0:0,0:0:0:0:
177,171,43278,2,0,P|187:204|191:245,1,64.3499980361939,8|0,0:0|0:0,0:0:0:0:
148,291,43621,5,8,0:0:0:0:
79,273,43792,2,0,P|72:240|71:196,2,64.3499980361939,0|0|0,1:0|1:0|1:0,0:0:0:0:
98,341,44307,2,0,P|66:345|23:364,2,64.3499980361939,0|0|8,1:0|1:0|1:2,0:0:0:0:
148,291,44821,1,8,1:2:0:0:
204,332,44992,5,8,0:0:0:0:
449,59,46364,5,8,3:0:0:0:
364,234,46707,1,8,3:0:0:0:
364,234,46878,1,8,3:0:0:0:
364,234,47049,2,0,P|379:183|374:93,1,128.699996072388,8|8,3:0|3:0,0:0:0:0:
200,30,47735,6,0,P|153:34|86:36,1,96.5249970542909,4|0,0:0|0:0,0:0:0:0:
80,24,48078,1,2,0:1:0:0:
81,31,48163,1,2,0:1:0:0:
83,39,48249,1,2,0:1:0:0:
84,47,48335,1,2,0:1:0:0:
86,55,48420,1,0,0:0:0:0:
31,239,48764,2,0,P|74:245|104:185,1,96.5249970542909,8|0,0:2|0:0,0:0:0:0:
90,178,49107,6,0,P|137:182|204:184,1,96.5249970542909,12|0,0:2|0:0,0:0:0:0:
210,172,49450,1,2,0:1:0:0:
208,180,49535,1,2,0:1:0:0:
207,187,49621,1,2,0:1:0:0:
205,195,49707,1,2,0:1:0:0:
204,203,49792,1,2,0:1:0:0:
320,358,50135,2,0,P|313:313|313:242,1,96.5249970542909,12|0,0:2|0:0,0:0:0:0:
304,231,50478,6,0,L|311:192,2,32.174999018097,2|0|0,0:0|0:0|0:0,0:0:0:0:
374,226,50821,2,0,L|381:187,2,32.174999018097,2|0|0,0:0|0:0|0:0,0:0:0:0:
438,144,51164,2,0,L|431:105,2,32.174999018097,2|0|0,0:0|0:0|0:0,0:0:0:0:
368,129,51507,2,0,L|361:90,2,32.174999018097,2|0|0,0:0|0:0|0:0,0:0:0:0:
317,43,51849,6,0,L|267:34,3,32.174999018097,8|8|8|8,0:3|0:3|0:3|0:3,0:0:0:0:
258,56,52192,2,0,L|208:47,3,32.174999018097,8|8|8|8,0:3|0:3|0:3|0:3,0:0:0:0:
164,20,52535,6,0,L|114:11,3,32.174999018097,8|8|8|8,0:3|0:3|0:3|0:3,0:0:0:0:
105,33,52878,2,0,L|55:24,3,32.174999018097,8|8|8|8,0:3|0:3|0:3|0:3,0:0:0:0:
35,90,53221,5,4,0:3:0:0:
91,343,55278,5,2,0:0:0:0:
278,294,55621,1,8,0:0:0:0:
67,263,55964,6,0,P|130:261|167:193,1,143,4|10,0:0|0:0,0:0:0:0:
119,134,56478,1,0,0:0:0:0:
177,81,56649,2,0,P|208:141|277:146,1,143,8|10,0:3|0:0,0:0:0:0:
299,70,57164,1,0,0:0:0:0:
376,80,57335,6,0,P|384:126|399:198,1,107.25,8|0,0:3|0:0,0:0:0:0:
420,211,57678,2,0,P|402:245|402:299,1,71.5,10|0,0:0|0:0,0:0:0:0:
442,343,58021,1,8,0:3:0:0:
368,371,58192,1,0,0:0:0:0:
368,371,58278,1,0,0:0:0:0:
368,371,58364,2,0,P|313:362|278:360,1,71.5,10|8,0:0|0:0,0:0:0:0:
259,291,58707,5,8,0:3:0:0:
53,352,59049,2,0,P|60:308|64:260,1,71.5,10|0,0:0|0:0,0:0:0:0:
30,209,59392,1,8,0:3:0:0:
30,209,59478,2,0,P|80:212|123:213,1,71.5,8|0,0:3|0:0,0:0:0:0:
136,224,59735,2,0,P|129:180|125:132,1,71.5,10|0,0:0|0:0,0:0:0:0:
193,111,60078,6,0,L|197:54,3,35.75,4|0|4|0,0:0|0:0|0:0|0:0,0:0:0:0:
226,57,60421,2,0,L|222:0,3,35.75,8|0|4|0,0:3|0:3|0:0|0:3,0:0:0:0:
304,50,60764,5,4,0:0:0:0:
304,50,60849,1,8,0:3:0:0:
304,50,60935,1,8,0:3:0:0:
304,50,61021,1,8,0:3:0:0:
304,50,61107,2,0,L|348:46,3,35.75,8|0|8|8,0:3|0:0|0:3|0:3,0:0:0:0:
368,20,61449,5,4,3:2:0:0:
429,82,61621,1,8,1:3:0:0:
429,82,61707,1,8,1:3:0:0:
429,82,61792,2,0,P|420:125|420:162,1,71.5,0|0,0:0|1:3,0:0:0:0:
475,208,62135,5,2,0:0:0:0:
418,263,62307,2,0,L|435:321,2,35.75,8|8|8,0:3|0:3|0:3,0:0:0:0:
360,209,62649,1,0,0:0:0:0:
297,257,62821,6,0,P|246:245|200:243,1,71.5,4|8,1:2|1:3,0:0:0:0:
198,221,63078,1,8,1:3:0:0:
189,216,63164,2,0,P|142:227|98:228,1,71.5,8|8,1:3|1:3,0:0:0:0:
48,265,63507,2,0,P|4:231|36:140,1,143,2|8,0:0|0:0,0:0:0:0:
192,26,64192,6,0,P|246:39|312:44,1,107.25,4|0,0:0|0:0,0:0:0:0:
322,70,64535,2,0,P|364:56|402:51,1,71.5,8|8,0:3|0:3,0:0:0:0:
455,97,64878,2,0,P|444:132|442:187,1,71.5,4|8,0:0|0:3,0:0:0:0:
456,200,65135,1,8,0:3:0:0:
464,206,65221,1,8,0:3:0:0:
433,278,65392,1,4,0:0:0:0:
223,223,65735,5,4,1:3:0:0:
169,322,65906,1,4,1:3:0:0:
148,245,66078,1,4,1:3:0:0:
250,300,66249,5,4,1:3:0:0:
250,300,66335,2,0,P|309:308|347:316,1,71.5,4|0,1:3|1:3,0:0:0:0:
339,342,66592,2,0,P|398:334|436:326,1,71.5,2|2,1:3|1:3,0:0:0:0:
483,361,66935,6,0,P|518:328|476:237,1,143,4|10,0:0|0:0,0:0:0:0:
483,167,67449,1,0,0:0:0:0:
410,199,67621,2,0,B|338:183|371:232|265:210,1,143,8|10,0:3|0:0,0:0:0:0:
252,134,68135,1,0,0:0:0:0:
173,140,68307,6,0,P|171:183|159:254,1,107.25,8|0,0:3|0:0,0:0:0:0:
176,279,68649,2,0,P|118:283|82:290,1,71.5,10|0,0:0|0:0,0:0:0:0:
32,254,68992,2,0,P|7:221|64:134,1,143,8|10,0:3|0:0,0:0:0:0:
80,66,69507,1,8,0:0:0:0:
149,102,69678,6,0,P|196:94|256:93,1,107.25,8|8,0:3|0:3,0:0:0:0:
275,65,70021,2,0,P|298:92|348:103,1,71.5,10|0,0:0|0:0,0:0:0:0:
401,67,70364,1,8,0:3:0:0:
401,67,70449,2,0,P|405:119|411:151,1,71.5,8|8,0:3|0:3,0:0:0:0:
437,161,70707,2,0,P|433:213|427:245,1,71.5,10|0,0:0|0:0,0:0:0:0:
355,258,71049,6,0,L|351:315,3,35.75,4|0|4|0,0:0|0:0|0:0|0:0,0:0:0:0:
322,312,71392,2,0,L|326:369,3,35.75,8|0|4|0,0:3|0:0|0:0|0:0,0:0:0:0:
261,358,71735,5,4,0:0:0:0:
261,358,71820,1,8,0:3:0:0:
261,358,71906,1,8,0:3:0:0:
261,358,71992,1,8,0:3:0:0:
261,358,72078,2,0,L|217:362,3,35.75,8|0|8|8,0:3|0:3|0:3|0:3,0:0:0:0:
193,339,72421,6,0,P|132:343|96:344,1,71.5,4|0,0:0|0:3,0:0:0:0:
47,369,72764,2,0,P|47:328|47:281,1,71.5,8|0,0:0|0:0,0:0:0:0:
14,225,73107,2,0,P|42:179|133:201,1,143,2|8,0:2|0:0,0:0:0:0:
157,257,73621,1,8,0:3:0:0:
229,226,73792,5,4,0:2:0:0:
229,226,73964,2,0,P|222:178|222:63,1,143,8|8,0:3|0:0,0:0:0:0:
279,31,74478,2,0,P|325:27|370:54,1,71.5,2|8,0:2|0:3,0:0:0:0:
425,23,74821,2,0,P|409:73|411:118,1,71.5,8|8,0:2|0:3,0:0:0:0:
454,155,75164,5,10,0:0:0:0:
372,354,75507,2,0,P|317:340|279:336,1,71.5,4|0,0:0|0:0,0:0:0:0:
288,260,75849,2,0,P|233:274|195:278,1,71.5,8|0,0:3|0:0,0:0:0:0:
141,257,76192,2,0,P|136:215|148:169,1,71.5,4|0,0:0|0:0,0:0:0:0:
102,117,76535,6,0,P|156:107|189:85,1,71.5,4|8,0:0|0:3,0:0:0:0:
238,59,76878,2,0,P|255:97|280:136,1,71.5,8|8,0:0|0:3,0:0:0:0:
276,201,77221,1,4,0:0:0:0:
353,188,77392,2,0,L|370:137,2,35.75,8|8|8,0:3|0:3|0:0,0:0:0:0:
397,263,77735,1,8,0:0:0:0:
397,263,77821,1,8,0:3:0:0:
397,263,77907,5,4,0:0:0:0:
256,192,77992,12,4,80649,0:3:0:0:
115,183,81335,6,0,B|80:172|80:172|33:170,2,71.5,4|4|4,1:3|1:3|1:3,0:0:0:0:
265,27,82021,6,0,P|270:63|281:97,1,71.5,12|8,1:3|1:3,0:0:0:0:
298,117,82278,1,8,1:3:0:0:
307,123,82364,1,4,1:3:0:0:
276,195,82535,1,4,1:3:0:0:
493,183,82878,5,4,1:3:0:0:
493,183,83049,1,4,1:3:0:0:
221,138,83392,5,4,0:0:0:0:
256,192,91621,12,2,93678,1:1:0:0:
96,181,94364,6,0,P|89:139|80:110,1,71.5,0|0,0:0|0:0,0:0:0:0:
154,83,94707,2,0,P|161:125|170:154,1,71.5,8|0,0:0|0:0,0:0:0:0:
244,174,95049,2,0,P|251:125|283:16,1,143,8|2,0:0|0:1,0:0:0:0:
464,139,95735,6,0,P|415:157|372:166,1,71.5,8|0,0:0|0:0,0:0:0:0:
348,224,96078,2,0,P|382:233|415:246,1,71.5,8|0,0:0|0:0,0:0:0:0:
476,297,96421,1,8,0:0:0:0:
437,365,96592,2,0,P|479:373|529:382,2,71.5,2|2|0,0:1|0:1|0:0,0:0:0:0:
377,312,97107,6,0,L|362:352,3,35.75,8|0|0|0,0:0|0:0|0:0|0:0,0:0:0:0:
353,378,97449,2,0,P|315:370|262:361,1,71.5,8|0,0:0|0:0,0:0:0:0:
204,372,97792,6,0,L|200:324,3,35.75,8|0|0|0,0:0|0:0|0:0|0:0,0:0:0:0:
171,315,98135,2,0,P|186:273|191:220,1,71.5,8|0,0:0|0:0,0:0:0:0:
265,210,98478,5,10,0:0:0:0:
265,210,98564,1,0,0:0:0:0:
265,210,98649,1,0,0:0:0:0:
265,210,98735,1,0,0:0:0:0:
265,210,98821,2,0,P|311:221|347:234,1,71.5,10|2,0:0|0:0,0:0:0:0:
402,268,99164,2,0,P|412:229|439:180,1,71.5,10|8,0:0|0:1,0:0:0:0:
426,166,99421,1,8,0:1:0:0:
423,156,99507,2,0,P|413:117|386:68,1,71.5,4|8,0:1|0:1,0:0:0:0:
405,10,99849,6,0,P|354:27|316:34,1,71.5,4|0,0:2|0:0,0:0:0:0:
312,105,100192,2,0,P|261:88|223:81,1,71.5,8|0,0:0|0:0,0:0:0:0:
177,41,100535,2,0,P|175:92|153:187,1,143,8|2,0:0|0:1,0:0:0:0:
33,360,101221,6,0,P|23:329|7:282,1,71.5,8|0,0:0|0:0,0:0:0:0:
88,305,101564,2,0,P|99:263|112:234,1,71.5,8|0,0:0|0:0,0:0:0:0:
171,286,101907,1,8,0:0:0:0:
209,354,102078,2,0,P|166:362|117:371,2,71.5,2|2|8,0:1|0:1|3:0,0:0:0:0:
279,318,102592,5,8,0:3:0:0:
240,249,102764,2,0,P|248:212|264:172,2,71.5,8|8|8,0:0|0:0|0:3,0:0:0:0:
279,318,103278,1,8,0:3:0:0:
355,299,103449,2,0,P|361:341|369:372,2,71.5,8|8|8,0:0|0:0|1:2,0:0:0:0:
325,225,103964,6,2,B|431:243|431:243|415:174|415:174|513:118,1,286,2|0,0:1|0:0,0:1:0:0:
474,49,104821,1,8,0:0:0:0:
474,49,104907,1,0,0:0:0:0:
474,49,104992,2,0,L|407:39,3,35.75,8|0|0|0,0:0|0:0|0:0|0:0,0:0:0:0:
413,17,105335,6,0,P|423:67|428:101,1,71.5,4|0,0:2|0:0,0:0:0:0:
349,67,105678,2,0,P|339:117|334:151,1,71.5,8|0,0:0|0:0,0:0:0:0:
265,102,106021,2,0,P|218:107|101:113,1,143,8|2,0:0|0:1,0:0:0:0:
20,303,106707,6,0,P|68:292|111:288,1,71.5,8|0,0:0|0:0,0:0:0:0:
152,241,107049,2,0,P|162:298|170:323,1,71.5,8|0,0:0|0:0,0:0:0:0:
229,357,107392,1,8,0:0:0:0:
303,329,107564,2,0,P|313:284|334:237,2,71.5,2|2|0,0:1|0:1|0:0,0:0:0:0:
238,283,108078,6,0,L|231:238,3,35.75,8|0|0|0,0:0|0:0|0:0|0:0,0:0:0:0:
215,217,108421,2,0,P|266:207|311:193,1,71.5,8|0,0:0|0:0,0:0:0:0:
307,126,108764,6,0,L|311:81,3,35.75,8|0|0|0,0:0|0:0|0:0|0:0,0:0:0:0:
326,59,109107,2,0,P|285:50|254:40,1,71.5,8|0,0:0|0:0,0:0:0:0:
204,99,109449,6,0,P|162:107|116:128,1,71.5,8|0,0:1|0:0,0:0:0:0:
78,62,109792,1,8,0:1:0:0:
23,118,109964,1,0,0:0:0:0:
23,118,110049,1,0,0:0:0:0:
23,118,110135,2,0,P|12:165|10:214,1,71.5,8|8,0:1|0:1,0:0:0:0:
26,221,110392,1,8,0:1:0:0:
31,233,110478,2,0,P|42:280|44:329,1,71.5,4|0,0:1|0:0,0:0:0:0:
34,381,110821,6,0,P|78:365|124:361,1,71.5,4|0,0:2|0:0,0:0:0:0:
141,292,111164,2,0,P|185:308|231:312,1,71.5,8|0,0:0|0:0,0:0:0:0:
270,361,111507,2,0,P|277:311|312:219,1,143,8|2,0:0|0:1,0:0:0:0:
465,72,112192,6,0,P|469:119|477:148,1,71.5,8|0,0:0|0:0,0:0:0:0:
398,122,112535,2,0,P|382:161|376:199,1,71.5,8|0,0:0|0:0,0:0:0:0:
405,263,112878,1,8,0:0:0:0:
353,321,113049,2,0,P|403:329|436:340,2,71.5,2|2|0,0:1|0:1|0:0,0:0:0:0:
319,248,113564,5,4,0:2:0:0:
249,283,113735,1,0,0:0:0:0:
249,283,113821,1,0,0:0:0:0:
249,283,113907,2,0,L|242:361,1,71.5,0|8,0:0|0:3,0:0:0:0:
168,380,114249,5,8,0:3:0:0:
102,336,114421,2,0,L|95:371,2,35.75,8|8|8,0:3|0:3|0:3,0:0:0:0:
164,287,114764,1,8,0:2:0:0:
105,234,114935,5,12,0:2:0:0:
41,281,115107,2,0,L|34:326,2,35.75,8|8|8,0:3|0:3|0:3,0:0:0:0:
2,212,115449,1,8,0:2:0:0:
67,167,115621,2,0,P|124:176|178:112,1,143,8|2,0:2|0:1,0:0:0:0:
159,40,116135,1,2,0:1:0:0:
98,87,116307,6,0,P|59:79|19:64,2,64.3499980361939,6|0|2,0:0|0:0|0:0,0:0:0:0:
285,40,116992,2,0,P|327:35|365:39,1,64.3499980361939,8|0,0:0|0:0,0:0:0:0:
387,96,117335,1,2,0:0:0:0:
438,47,117507,1,0,0:0:0:0:
486,98,117678,6,0,P|462:140|433:291,1,193.049994108582,2|0,0:0|0:0,0:0:0:0:
482,330,118364,1,8,0:0:0:0:
415,354,118535,2,0,P|377:364|347:377,2,64.3499980361939,0|2|0,0:0|0:0|0:0,0:0:0:0:
368,300,119049,6,0,P|319:288|275:269,1,96.5249970542909,6|0,0:0|0:0,0:0:0:0:
253,250,119392,2,0,P|262:297|265:341,1,64.3499980361939,0|0,0:0|0:0,0:0:0:0:
193,302,119735,2,0,P|144:314|100:333,1,96.5249970542909,8|0,0:0|0:0,0:0:0:0:
78,352,120078,2,0,P|87:305|90:261,1,64.3499980361939,0|0,0:0|0:0,0:0:0:0:
37,239,120421,5,8,0:0:0:0:
80,183,120592,2,0,L|72:140,2,32.174999018097,0|8|8,0:0|0:0|0:0,0:0:0:0:
133,229,120935,1,8,0:0:0:0:
192,190,121107,2,0,P|200:148|203:131,3,32.174999018097,8|8|8|8,0:0|0:0|0:0|0:0,0:0:0:0:
216,133,121449,2,0,P|178:123|140:105,1,64.3499980361939,10|2,0:0|0:0,0:0:0:0:
145,42,121792,6,0,P|115:54|84:61,2,64.3499980361939,6|0|2,0:0|0:0|0:0,0:0:0:0:
335,9,122478,2,0,P|327:48|324:87,1,64.3499980361939,8|0,0:0|0:0,0:0:0:0:
389,101,122821,2,0,P|395:132|399:164,1,64.3499980361939,8|0,0:0|0:0,0:0:0:0:
355,220,123164,5,0,0:0:0:0:
404,269,123335,2,0,P|456:276|493:286,2,64.3499980361939,0|0|0,1:0|1:0|1:0,0:0:0:0:
362,326,123849,2,0,P|323:343|287:368,2,64.3499980361939,0|0|8,1:0|1:0|1:2,0:0:0:0:
311,275,124364,1,8,1:2:0:0:
355,220,124535,5,8,0:0:0:0:
56,35,125907,5,8,3:0:0:0:
136,213,126249,1,8,3:0:0:0:
136,213,126421,1,8,3:0:0:0:
136,213,126592,2,0,P|123:167|139:63,1,128.699996072388,8|8,3:0|3:0,0:0:0:0:
312,30,127278,6,0,P|359:34|426:36,1,96.5249970542909,4|0,0:0|0:0,0:0:0:0:
432,24,127621,1,2,0:1:0:0:
431,31,127706,1,2,0:1:0:0:
429,39,127792,1,2,0:1:0:0:
428,47,127878,1,2,0:1:0:0:
426,55,127963,1,2,0:1:0:0:
487,237,128307,2,0,P|438:242|369:259,1,96.5249970542909,8|0,0:2|0:0,0:0:0:0:
373,278,128649,6,0,P|376:242|318:187,1,96.5249970542909,12|0,0:0|0:0,0:0:0:0:
319,181,128992,1,2,0:1:0:0:
318,188,129077,1,0,0:0:0:0:
316,196,129163,1,2,0:1:0:0:
315,204,129249,1,2,0:1:0:0:
313,212,129334,1,0,0:0:0:0:
180,354,129678,2,0,P|118:356|58:363,1,96.5249970542909,12|0,0:2|0:0,0:0:0:0:
58,348,130021,6,0,L|51:307,2,32.174999018097,2|0|0,0:0|0:0|0:0,0:0:0:0:
118,293,130364,2,0,L|111:252,2,32.174999018097,2|0|0,0:0|0:0|0:0,0:0:0:0:
42,248,130707,2,0,L|35:207,2,32.174999018097,2|0|0,0:0|0:0|0:0,0:0:0:0:
101,194,131049,2,0,L|94:153,2,32.174999018097,2|0|0,0:0|0:0|0:0,0:0:0:0:
146,113,131392,6,0,L|196:122,3,32.174999018097,8|8|8|8,0:3|0:3|0:3|0:3,0:0:0:0:
205,100,131735,2,0,L|255:109,3,32.174999018097,8|8|8|8,0:3|0:3|0:3|0:3,0:0:0:0:
287,153,132078,6,0,L|337:162,3,32.174999018097,8|8|8|8,0:3|0:3|0:3|0:3,0:0:0:0:
346,140,132421,2,0,L|396:149,3,32.174999018097,8|8|8|8,0:3|0:3|0:3|0:3,0:0:0:0:
416,83,132764,5,4,0:3:0:0:
399,103,134821,5,2,0:0:0:0:
340,294,135164,1,8,0:0:0:0:
474,126,135507,6,0,B|387:109|440:165|328:145,1,143,4|10,0:0|0:0,0:0:0:0:
297,78,136021,1,0,0:0:0:0:
233,124,136192,2,0,P|206:73|115:75,1,143,8|10,0:3|0:0,0:0:0:0:
70,10,136707,1,0,0:0:0:0:
5,53,136878,6,0,P|18:90|26:179,1,107.25,8|0,0:3|0:0,0:0:0:0:
54,178,137221,2,0,P|38:217|35:260,1,71.5,10|0,0:0|0:0,0:0:0:0:
69,316,137564,1,8,0:3:0:0:
144,286,137735,1,0,0:0:0:0:
144,286,137821,1,0,0:0:0:0:
144,286,137907,2,0,P|184:292|222:300,1,71.5,10|8,0:0|0:0,0:0:0:0:
241,371,138249,5,8,0:3:0:0:
450,335,138592,2,0,P|458:293|471:255,1,71.5,10|0,0:0|0:0,0:0:0:0:
439,191,138935,1,8,0:3:0:0:
380,242,139107,1,0,0:0:0:0:
380,242,139192,1,0,0:0:0:0:
380,242,139278,2,0,P|330:249|295:254,1,71.5,10|0,0:0|0:0,0:0:0:0:
236,282,139621,6,0,L|232:225,3,35.75,4|0|4|0,0:0|0:0|0:0|0:0,0:0:0:0:
203,228,139964,2,0,L|207:171,3,35.75,8|0|4|0,0:3|0:0|0:0|0:0,0:0:0:0:
141,235,140307,5,4,0:0:0:0:
141,235,140392,1,8,0:3:0:0:
141,235,140478,1,8,0:3:0:0:
141,235,140564,1,8,0:3:0:0:
141,235,140650,2,0,L|97:239,3,35.75,8|0|8|8,0:3|0:0|0:3|0:3,0:0:0:0:
78,266,140992,5,4,3:2:0:0:
19,227,141164,1,8,1:3:0:0:
19,227,141249,1,8,1:3:0:0:
19,227,141335,2,0,P|14:179|11:143,1,71.5,8|0,1:3|1:0,0:0:0:0:
58,92,141678,5,2,0:0:0:0:
125,131,141849,2,0,L|114:177,2,35.75,8|8|8,0:3|0:3|0:3,0:0:0:0:
166,64,142192,1,8,0:3:0:0:
225,115,142364,6,0,P|278:106|309:107,1,71.5,4|8,1:2|1:3,0:0:0:0:
319,79,142621,1,8,1:3:0:0:
328,73,142707,2,0,P|381:82|412:81,1,71.5,8|8,1:3|1:3,0:0:0:0:
466,43,143049,2,0,P|511:75|471:163,1,143,2|8,0:0|0:0,0:0:0:0:
425,356,143735,6,0,P|373:343|298:332,1,107.25,4|0,0:0|0:0,0:0:0:0:
305,301,144078,2,0,P|263:316|213:322,1,71.5,8|8,0:3|0:3,0:0:0:0:
158,329,144421,2,0,P|169:294|171:239,1,71.5,4|8,0:0|0:3,0:0:0:0:
157,226,144678,1,8,0:3:0:0:
149,220,144764,1,8,0:3:0:0:
180,148,144935,1,4,0:0:0:0:
289,34,145278,5,4,1:3:0:0:
343,133,145449,1,4,1:3:0:0:
364,56,145621,1,4,1:3:0:0:
262,111,145792,5,4,1:3:0:0:
262,111,145878,2,0,P|203:119|165:127,1,71.5,4|0,1:3|1:0,0:0:0:0:
173,153,146135,2,0,P|114:145|76:137,1,71.5,2|2,1:3|1:3,0:0:0:0:
36,99,146478,6,0,P|-12:143|18:223,1,143,4|10,0:0|0:0,0:0:0:0:
29,287,146992,1,0,0:0:0:0:
100,253,147164,2,0,P|143:258|253:271,1,143,8|10,0:3|0:0,0:0:0:0:
305,317,147678,1,0,0:0:0:0:
348,252,147849,6,0,P|343:198|339:145,1,107.25,8|0,0:3|0:0,0:0:0:0:
321,115,148192,2,0,P|358:118|405:121,1,71.5,10|0,0:0|0:0,0:0:0:0:
412,43,148535,2,0,B|324:52|389:3|264:14,1,143,8|10,0:3|0:0,0:0:0:0:
240,82,149049,1,8,0:0:0:0:
168,47,149221,6,0,P|109:56|44:76,1,107.25,8|8,0:3|0:3,0:0:0:0:
34,47,149564,2,0,P|43:104|38:142,1,71.5,10|0,0:0|0:0,0:0:0:0:
1,185,149907,1,8,0:3:0:0:
64,245,150078,1,0,0:0:0:0:
64,245,150164,1,8,0:3:0:0:
64,245,150249,2,0,P|115:236|153:233,1,71.5,10|0,0:0|0:0,0:0:0:0:
208,260,150592,6,0,L|212:203,3,35.75,4|0|4|0,0:0|0:0|0:0|0:0,0:0:0:0:
241,206,150935,2,0,L|237:149,3,35.75,8|0|4|0,0:3|0:0|0:0|0:0,0:0:0:0:
319,199,151278,5,4,0:0:0:0:
319,199,151363,1,8,0:3:0:0:
319,199,151449,1,8,0:3:0:0:
319,199,151535,1,8,0:3:0:0:
319,199,151621,2,0,L|363:195,3,35.75,8|0|8|8,0:3|0:3|0:3|0:3,0:0:0:0:
391,209,151964,6,0,P|391:171|396:128,1,71.5,4|0,0:0|0:0,0:0:0:0:
469,163,152307,2,0,P|469:201|464:244,1,71.5,8|0,0:0|0:0,0:0:0:0:
490,308,152649,2,0,P|409:308|356:357,1,143,2|8,0:2|0:0,0:0:0:0:
302,294,153164,1,8,0:3:0:0:
254,356,153335,6,0,P|211:361|164:372,1,71.5,4|8,0:2|0:3,0:0:0:0:
152,294,153678,2,0,P|195:289|242:278,1,71.5,8|8,0:3|0:0,0:0:0:0:
277,226,154021,1,2,0:2:0:0:
223,181,154192,1,8,0:3:0:0:
223,181,154278,1,8,0:3:0:0:
223,181,154364,2,0,P|174:175|138:168,1,71.5,8|8,0:0|0:3,0:0:0:0:
126,96,154707,5,10,0:0:0:0:
342,71,155049,2,0,P|345:30|357:-5,1,71.5,4|0,0:0|0:0,0:0:0:0:
414,52,155392,2,0,P|444:24|482:7,1,71.5,8|0,0:3|0:0,0:0:0:0:
495,85,155735,2,0,P|479:127|478:160,1,71.5,4|0,0:0|0:0,0:0:0:0:
495,230,156078,6,0,P|452:252|425:275,1,71.5,4|8,0:0|0:3,0:0:0:0:
367,308,156421,2,0,P|353:265|332:231,1,71.5,8|8,0:0|0:3,0:0:0:0:
380,174,156764,1,4,0:0:0:0:
307,144,156935,2,0,L|317:102,2,35.75,8|8|8,0:3|0:3|0:0,0:0:0:0:
268,215,157278,1,8,0:0:0:0:
268,215,157364,1,8,0:3:0:0:
268,215,157449,5,4,0:0:0:0:
256,192,157535,12,4,160192,0:3:0:0:
360,351,160878,6,0,B|402:350|391:328|428:334,2,71.5,4|4|4,1:3|1:3|1:3,0:0:0:0:
150,295,161564,6,0,P|155:259|169:226,1,71.5,12|8,1:3|1:3,0:0:0:0:
183,205,161821,1,8,1:3:0:0:
192,199,161907,1,4,1:3:0:0:
149,133,162078,1,4,1:3:0:0:
341,39,162421,5,4,1:3:0:0:
341,39,162592,1,4,1:3:0:0:
308,285,162935,5,2,0:0:0:0:
256,192,172364,12,8,173221,0:1:0:0:
334,68,173907,6,0,B|362:-5|498:56|356:190,1,228.8,8|8,0:0|0:2,0:0:0:0:
266,237,174935,1,8,0:1:0:0:
368,309,175278,2,0,B|449:301|386:338|490:328,2,114.4,8|8|8,0:3|0:3|0:2,0:0:0:0:
256,368,176307,1,2,0:3:0:0:
134,336,176649,6,0,B|78:309|82:242|82:242|140:199|128:124,1,228.8,8|8,0:0|0:2,0:0:0:0:
44,51,177678,1,8,0:3:0:0:
162,9,178021,2,0,P|207:20|293:28,1,114.4,8|8,0:3|0:3,0:0:0:0:
236,148,178707,2,0,P|281:137|367:129,1,114.4,8|2,0:2|0:3,0:0:0:0:
439,42,179392,6,0,B|421:177|512:89|485:263,1,228.8,8|8,0:0|0:2,0:0:0:0:
386,332,180421,1,8,0:1:0:0:
342,214,180764,2,0,P|287:225|211:234,1,114.4,8|8,0:3|0:3,0:0:0:0:
119,293,181449,2,0,P|109:330|110:362,2,57.2,8|0|2,0:2|0:0|0:3,0:0:0:0:
37,196,182135,6,0,P|56:162|62:87,1,114.4,8|0,0:0|0:0,0:0:0:0:
167,17,182821,2,0,B|313:14|198:108|371:98,1,228.8,8|8,0:2|0:3,0:0:0:0:
459,17,183849,1,8,0:3:0:0:
494,137,184192,2,0,P|482:177|476:252,1,114.4,8|8,0:2|0:3,0:0:0:0:
381,355,184878,6,0,P|343:340|305:334,1,64.3499980361939,8|0,0:1|0:0,0:0:0:0:
304,309,185135,1,0,0:0:0:0:
299,301,185221,2,0,P|257:316|222:321,1,64.3499980361939,8|0,0:1|0:0,0:0:0:0:
180,361,185564,2,0,P|142:346|104:340,1,64.3499980361939,8|0,0:1|0:0,0:0:0:0:
103,315,185821,1,0,0:0:0:0:
98,307,185907,2,0,P|56:322|21:327,1,64.3499980361939,8|0,0:1|0:0,0:0:0:0:
40,255,186249,6,0,P|51:212|58:172,1,64.3499980361939,8|0,0:1|0:0,0:0:0:0:
46,162,186507,1,0,0:0:0:0:
40,150,186592,2,0,P|91:161|131:161,1,64.3499980361939,0|0,0:0|0:0,0:0:0:0:
159,118,186935,1,8,0:1:0:0:
224,163,187107,1,0,0:0:0:0:
224,163,187192,1,0,0:0:0:0:
224,163,187278,2,0,L|227:214,3,32.174999018097,8|0|0|0,0:1|0:0|0:0|0:0,0:0:0:0:
218,225,187621,6,0,P|264:232|307:250,1,64.3499980361939,8|0,0:1|0:3,0:0:0:0:
323,294,187964,1,8,0:1:0:0:
369,241,188135,1,0,0:0:0:0:
435,264,188307,2,0,P|441:230|458:196,1,64.3499980361939,8|0,0:1|0:0,0:0:0:0:
394,164,188649,2,0,P|390:126|379:92,1,64.3499980361939,8|8,0:1|0:1,0:0:0:0:
422,42,188992,5,6,0:0:0:0:
422,42,190364,2,0,B|388:28|388:28|409:130,1,114.4,2|0,0:0|0:0,0:0:0:0:
445,222,191049,2,0,P|414:196|279:170,1,171.6,2|0,0:0|0:0,0:0:0:0:
247,216,191735,6,0,P|241:123|351:150,2,228.8,6|2|2,0:0|0:0|0:0,0:0:0:0:
256,192,193192,12,8,194478,0:3:0:0:
256,192,197221,12,2,198592,0:0:0:0:
122,124,199278,5,2,0:0:0:0:
291,166,199621,1,8,0:0:0:0:
79,209,199964,6,0,P|100:170|205:169,1,143,4|10,0:0|0:0,0:0:0:0:
237,221,200478,1,0,0:0:0:0:
291,166,200649,2,0,P|249:130|248:39,1,143,8|10,0:3|0:0,0:0:0:0:
311,5,201164,1,0,0:0:0:0:
340,77,201335,6,0,P|384:71|456:66,1,107.25,8|0,0:3|0:0,0:0:0:0:
474,43,201678,2,0,P|461:89|458:130,1,71.5,10|0,0:0|0:0,0:0:0:0:
504,176,202021,1,8,0:3:0:0:
443,222,202192,1,0,0:0:0:0:
443,222,202278,1,0,0:0:0:0:
443,222,202364,2,0,P|394:215|348:212,1,71.5,10|8,0:0|0:0,0:0:0:0:
339,285,202707,5,8,0:3:0:0:
130,227,203049,2,0,P|137:268|138:304,1,71.5,10|0,0:0|0:0,0:0:0:0:
194,358,203392,1,8,0:3:0:0:
194,358,203478,2,0,P|234:351|275:345,1,71.5,8|0,0:3|0:0,0:0:0:0:
299,356,203735,2,0,P|300:320|307:285,1,71.5,10|0,0:0|0:0,0:0:0:0:
239,245,204078,6,0,L|243:188,3,35.75,4|0|4|0,0:0|0:0|0:0|0:0,0:0:0:0:
272,191,204421,2,0,L|268:134,3,35.75,8|0|4|0,0:3|0:0|0:0|0:0,0:0:0:0:
350,184,204764,5,4,0:0:0:0:
350,184,204849,1,8,0:3:0:0:
350,184,204935,1,8,0:3:0:0:
350,184,205021,1,8,0:3:0:0:
350,184,205107,2,0,L|394:180,3,35.75,8|0|8|8,0:3|0:3|0:3|0:3,0:0:0:0:
414,207,205449,5,4,0:0:0:0:
489,175,205621,1,8,1:3:0:0:
489,175,205707,1,8,1:3:0:0:
489,175,205792,2,0,P|496:131|498:96,1,71.5,8|0,1:3|1:0,0:0:0:0:
467,31,206135,5,2,0:2:0:0:
395,65,206307,2,0,L|391:19,2,35.75,8|8|8,0:3|0:3|0:3,0:0:0:0:
321,38,206649,1,0,0:3:0:0:
264,92,206821,6,0,P|270:144|268:181,1,71.5,4|8,1:2|1:3,0:0:0:0:
245,190,207078,1,8,1:3:0:0:
238,202,207164,2,0,P|190:192|149:185,1,71.5,8|8,1:3|1:3,0:0:0:0:
116,247,207507,2,0,P|135:305|222:305,1,143,2|8,0:0|0:0,0:0:0:0:
415,370,208192,6,0,P|404:322|399:250,1,107.25,4|0,0:0|0:0,0:0:0:0:
429,245,208535,2,0,P|436:209|437:166,1,71.5,8|8,0:3|0:3,0:0:0:0:
460,98,208878,2,0,P|424:106|376:112,1,71.5,4|8,0:0|0:3,0:0:0:0:
358,97,209135,1,8,0:3:0:0:
351,88,209221,1,8,0:3:0:0:
298,146,209392,1,4,0:0:0:0:
127,13,209735,5,4,1:3:0:0:
73,112,209906,1,4,1:3:0:0:
52,35,210078,1,4,1:3:0:0:
154,90,210249,5,4,1:3:0:0:
154,90,210335,2,0,P|155:128|156:188,1,71.5,4|0,1:3|1:0,0:0:0:0:
127,183,210592,2,0,P|125:221|125:281,1,71.5,2|2,1:3|1:3,0:0:0:0:
71,312,210935,6,0,P|116:281|216:281,1,143,4|10,0:0|0:0,0:0:0:0:
236,347,211449,1,0,0:0:0:0:
311,322,211621,2,0,P|316:281|324:159,1,143,8|10,0:3|0:0,0:0:0:0:
258,134,212135,1,0,0:0:0:0:
291,62,212307,6,0,P|338:57|408:47,1,107.25,8|0,0:3|0:0,0:0:0:0:
424,25,212649,2,0,P|414:67|408:112,1,71.5,10|0,0:0|0:0,0:0:0:0:
474,139,212992,2,0,P|490:179|413:231,1,143,8|10,0:3|0:0,0:0:0:0:
352,197,213507,1,8,0:0:0:0:
312,264,213678,6,0,P|271:270|177:298,1,107.25,8|8,0:3|0:3,0:0:0:0:
191,255,214021,2,0,P|146:250|99:239,1,71.5,10|0,0:0|0:0,0:0:0:0:
52,281,214364,1,8,0:3:0:0:
52,281,214449,2,0,P|50:243|41:194,1,71.5,8|8,0:3|0:3,0:0:0:0:
19,184,214707,2,0,P|21:146|30:97,1,71.5,10|0,0:0|0:0,0:0:0:0:
71,48,215049,6,0,L|128:52,3,35.75,4|0|4|0,0:0|0:0|0:0|0:0,0:0:0:0:
125,81,215392,2,0,L|182:77,3,35.75,8|0|4|0,0:3|0:0|0:0|0:0,0:0:0:0:
160,162,215735,5,4,0:0:0:0:
160,162,215820,1,8,0:3:0:0:
160,162,215906,1,8,0:3:0:0:
160,162,215992,1,8,0:3:0:0:
160,162,216078,2,0,L|156:210,3,35.75,8|0|8|8,0:3|0:3|0:3|0:3,0:0:0:0:
174,233,216421,6,0,P|126:234|84:243,1,71.5,4|0,0:0|0:0,0:0:0:0:
128,312,216764,2,0,P|176:311|218:302,1,71.5,8|0,0:0|0:0,0:0:0:0:
263,351,217107,2,0,P|269:308|332:223,1,143,2|8,0:2|0:0,0:0:0:0:
392,268,217621,1,8,0:3:0:0:
440,206,217792,5,4,0:0:0:0:
371,167,217964,2,0,B|373:90|325:116|338:23,1,143,8|8,0:3|0:0,0:0:0:0:
265,65,218478,2,0,P|219:54|186:25,1,71.5,2|8,0:2|0:3,0:0:0:0:
193,119,218821,2,0,P|154:128|121:149,1,71.5,8|8,0:0|0:3,0:0:0:0:
66,93,219164,5,10,0:0:0:0:
38,313,219507,2,0,P|81:319|122:341,1,71.5,4|0,0:0|0:0,0:0:0:0:
173,371,219849,2,0,P|184:331|206:297,1,71.5,8|0,0:3|0:0,0:0:0:0:
274,281,220192,2,0,P|314:297|345:304,1,71.5,4|0,0:0|0:0,0:0:0:0:
414,334,220535,6,0,P|409:291|411:252,1,71.5,4|8,0:0|0:3,0:0:0:0:
351,209,220878,2,0,P|359:174|388:142,1,71.5,8|8,0:0|0:3,0:0:0:0:
459,135,221221,1,4,0:0:0:0:
459,56,221392,2,0,L|495:47,2,35.75,8|8|8,0:3|0:3|0:0,0:0:0:0:
392,32,221735,1,8,0:0:0:0:
392,32,221821,1,8,0:3:0:0:
392,32,221907,5,4,0:0:0:0:
256,192,221992,12,4,224649,0:3:0:0:
145,280,225335,6,0,B|140:315|140:315|84:340,2,71.5,4|4|4,1:3|1:3|1:3,0:0:0:0:
243,89,226021,6,0,P|248:125|261:163,1,71.5,12|8,1:3|1:3,0:0:0:0:
276,179,226278,1,8,1:3:0:0:
285,185,226364,1,4,1:3:0:0:
254,257,226535,1,4,1:3:0:0:
461,187,226878,5,4,1:3:0:0:
461,187,227049,1,4,1:3:0:0:
315,369,227392,5,12,0:0:0:0:
369,311,227564,2,0,P|347:275|234:268,1,143,0|0,0:0|0:0,0:0:0:0:
180,228,228078,1,8,0:0:0:0:
117,271,228249,1,0,0:0:0:0:
117,271,228335,1,0,0:0:0:0:
117,271,228421,2,0,P|121:316|123:350,1,71.5,8|0,0:1|0:0,0:0:0:0:
46,322,228764,6,0,P|44:276|38:225,1,71.5,8|0,0:0|0:0,0:0:0:0:
10,178,229107,2,0,P|47:172|90:160,1,71.5,8|0,0:1|0:0,0:0:0:0:
146,121,229449,2,0,L|154:72,3,35.75,0|0|0|0,0:0|0:0|0:0|0:0,0:0:0:0:
140,52,229792,2,0,P|182:61|222:70,1,71.5,8|8,0:1|0:1,0:0:0:0:
273,19,230135,5,8,0:0:0:0:
344,52,230307,2,0,P|376:110|340:172,1,143,4|0,0:0|0:0,0:0:0:0:
269,205,230821,2,0,L|277:253,3,35.75,8|0|0|0,0:0|0:0|0:0|0:0,0:0:0:0:
302,263,231164,2,0,L|294:311,3,35.75,8|0|0|0,0:1|0:0|0:0|0:0,0:0:0:0:
261,357,231507,6,0,P|306:363|353:374,1,71.5,8|0,0:0|0:0,0:0:0:0:
376,303,231849,2,0,P|421:297|468:286,1,71.5,8|0,0:1|0:0,0:0:0:0:
476,218,232192,1,8,0:0:0:0:
476,218,232278,2,0,P|479:180|488:134,1,71.5,8|8,0:0|0:0,0:0:0:0:
451,133,232535,2,0,P|448:95|439:49,1,71.5,8|8,0:1|0:0,0:0:0:0:
382,11,232878,5,8,0:0:0:0:
348,81,233049,2,0,P|308:53|209:54,1,143,4|0,0:0|0:0,0:0:0:0:
147,11,233564,1,8,0:0:0:0:
101,74,233735,1,0,0:0:0:0:
101,74,233821,1,0,0:0:0:0:
101,74,233907,2,0,P|92:120|88:157,1,71.5,8|0,0:1|0:0,0:0:0:0:
43,208,234249,6,0,P|85:218|118:237,1,71.5,8|0,0:0|0:0,0:0:0:0:
145,301,234592,2,0,P|187:291|220:272,1,71.5,8|0,0:1|0:0,0:0:0:0:
288,247,234935,1,8,0:0:0:0:
288,247,235021,1,0,0:0:0:0:
288,247,235107,2,0,L|284:211,2,35.75,0|0|8,0:0|0:0|0:1,0:0:0:0:
332,312,235450,2,0,L|327:352,2,35.75,8|8|8,0:1|0:0|3:2,0:0:0:0:
332,312,237164,5,2,0:1:0:0:
332,312,237249,1,2,0:1:0:0:
332,312,237335,1,2,0:1:0:0:
288,247,237507,1,2,0:1:0:0:
336,185,237678,2,0,B|355:156|355:156|226:168,1,143,2|4,0:1|1:3,0:0:0:0:
